#TITLE:Lily Funk;
#ARTIST:Konception;
#BANNER:Lily Funk-bn.png;
#BACKGROUND:Lily Funk-bg.png;
#JACKET:Lily Funk-jacket.png;
#MUSIC:Lily Funk.ogg;
#OFFSET:-0.046;
#SAMPLESTART:14.806;
#SAMPLELENGTH:20;
#DISPLAYBPM:130;
#BPMS:0=129.998;
#BGCHANGES:;

//---------------dance-single - ----------------
#NOTES:
     dance-single:
     :
     Beginner:
     2:
     :
0000
0000
0000
0000
,
0000
0000
0000
0000
,
0001
0000
0000
0000
,
1000
0000
0000
0000
,
0100
0000
0100
0000
,
0010
0000
0010
0000
,
0100
0100
0100
0000
,
0110
0000
0000
0000
,
1000
0000
1000
0000
,
0001
0000
0001
0000
,
0100
0000
0000
0000
,
0010
0000
0000
0000
,
0001
0000
0001
0000
,
1000
0000
1000
0000
,
0010
0000
0000
0000
,
0100
0000
0000
0000
,
1000
0000
1000
0000
,
0010
0000
0010
0000
,
0100
0000
0000
0000
,
0001
0000
0000
0000
,
0100
0000
0100
0000
,
0001
0000
0001
0000
,
1000
0000
0000
0000
,
1001
0000
0000
0000
,
0001
0000
0000
0000
,
0010
0000
0000
0000
,
0100
0000
0000
0000
,
0110
0000
0000
0000
,
0010
0000
0010
0000
,
0001
0000
0001
0000
,
1000
1000
1000
0000
,
1001
0000
0000
0000
,
0001
0000
0001
0000
,
1000
0000
1000
0000
,
0010
0000
0000
0000
,
0100
0000
0000
0000
,
1000
0000
1000
0000
,
0001
0000
0001
0000
,
0100
0000
0000
0000
,
0010
0000
0000
0000
,
0110
0000
0010
0000
,
0100
0000
0100
0000
,
0001
0000
0001
0000
,
1000
0000
1000
0000
,
0100
0000
0100
0000
,
0010
0000
0010
0000
,
0001
0000
0001
0000
,
1000
0000
1000
0000
;

//---------------dance-single - ----------------
#NOTES:
     dance-single:
     :
     Easy:
     6:
     :
0000
0000
0000
0000
,
0000
0000
0000
0000
,
0001
1000
0001
1000
,
0010
0001
0010
1000
,
0010
1000
0100
1000
,
0010
0001
0100
0001
,
1000
0010
0001
0100
,
2002
0000
0000
3003
,
0001
0010
1000
0010
,
0001
0100
1000
0100
,
0001
1000
0010
0100
,
0001
1000
0100
0010
,
1001
0010
0100
0010
,
1000
0010
0100
0010
,
0001
0100
1000
0100
,
0010
0001
0010
1000
,
0110
0001
1000
0100
,
0010
1000
0001
0100
,
1000
0010
0001
1000
,
0001
0010
1000
0001
,
1001
0100
0010
0001
,
0001
0100
0010
1000
,
0110
0001
0110
1000
,
0002
0010
1000
0103
,
0010
1000
0100
0001
,
1000
0010
0001
0100
,
0000
0100
0000
0001
,
0000
1000
0000
1001
,
0010
1001
0100
1001
,
0110
0110
1001
1001
,
0001
0100
1000
0010
,
0001
1000
2002
3003
,
0110
0001
1000
1001
,
1001
0100
0010
0110
,
0001
0100
1000
0100
,
0001
0010
0001
0100
,
1001
0010
0100
0110
,
0110
1000
0001
1001
,
1000
0010
0001
0010
,
2000
0100
0001
3010
,
0100
1000
0000
0110
,
0100
0001
0000
0110
,
1000
0010
0000
1001
,
0001
0010
0000
1001
,
0010
1001
0000
0110
,
1000
0110
0000
1001
,
0100
1001
0000
0110
,
0001
0110
0000
1001
;

//---------------dance-single - ----------------
#NOTES:
     dance-single:
     :
     Medium:
     10:
     :
0000
0000
0000
0000
,
0000
0000
0000
0000
,
1000
0100
1000
0000
0001
0010
0001
0000
,
1000
0010
1000
0000
0001
0100
0001
0000
,
1000
0001
1000
0001
1000
0001
1000
0000
,
0100
0010
0100
0010
0100
0010
0100
0000
,
1000
0100
1000
0100
0010
0001
0010
0001
,
0220
0000
0000
0330
,
1000
0100
0010
0000
0001
0100
0010
0000
,
1000
0001
0100
0000
0001
1000
0010
0000
,
0100
0001
0010
0000
0100
1000
0010
0000
,
0001
0010
1000
0000
1000
0100
0001
0000
,
0100
1000
0100
0000
0010
0001
1000
0000
,
0001
0100
0001
0000
0010
0100
1000
0000
,
0001
0010
1000
0000
0010
0001
0100
0000
,
1000
0100
0001
0000
0100
0001
0010
0000
,
0010
0010
1001
0000
0001
0001
0110
0000
,
1000
0100
1100
0000
0010
0001
0011
0000
,
1000
0001
0110
0000
0010
0100
1001
0000
,
0010
1000
1100
0000
1000
0001
0101
0000
,
1000
1000
0110
0000
0001
0100
0101
0000
,
1000
0001
0110
0000
0001
1000
1100
0000
,
0100
0100
1001
0000
0001
0010
0011
0000
,
0200
1000
0010
0301
,
1000
0100
0010
0001
0010
0100
1000
0000
,
0001
0010
0100
1000
0100
0010
0001
0000
,
2000
0100
0000
3100
,
0002
0100
0013
1001
,
0010
0101
0010
1100
,
1000
1000
0010
0010
0100
0100
0001
0001
,
0100
0010
0100
0010
1000
0001
1000
0001
,
0100
0010
1000
0001
2002
0000
3003
0000
,
0010
0000
0000
0100
0010
0000
0000
0000
1000
0000
0000
0000
0001
0000
0000
0000
,
0010
0000
0000
0100
0010
0000
0000
0000
0001
0000
0000
0000
1000
0000
0000
0000
,
0100
0010
0100
0000
1000
0001
1000
0000
,
0010
0100
0010
0000
0001
1000
0001
0000
,
1000
0000
0000
0001
1000
0000
0000
0000
0100
0000
0000
0000
0010
0000
0000
0000
,
0001
0000
0000
1000
0001
0000
0000
0000
0100
0000
0000
0000
0010
0000
0000
0000
,
1000
0100
0001
0100
1000
0100
0001
0100
,
2000
0010
0001
3100
,
0010
0001
1000
0000
0100
1000
0001
0000
,
0100
0001
1000
0000
0010
1000
0001
0000
,
0010
0001
0100
0000
0010
1000
0100
0000
,
0001
0100
1000
0000
0010
0001
0010
0000
,
1000
0001
1010
0000
0101
1000
0010
0000
,
0100
0001
1001
0000
0110
0001
1000
0000
,
0010
1000
1100
0000
0011
0100
1000
0000
,
0010
0001
0110
0000
1001
0100
1000
0000
;

//---------------dance-single - ----------------
#NOTES:
     dance-single:
     :
     Hard:
     13:
     :
0000
0000
0000
0000
,
0000
0000
0000
0000
,
0001
0100
1000
0010
,
0001
1000
0100
0010
,
0001
0010
0100
1000
0100
0010
0001
0010
,
1000
0010
0100
0001
0100
0010
1000
0010
,
0001
1000
0001
0000
0100
1000
0100
0000
0010
0100
0010
0000
0001
0010
0001
0000
,
0010
0000
0000
1000
0010
0000
0000
0100
0010
0000
0000
0001
0010
0000
1000
0000
,
0100
0010
0001
1000
0010
0001
1000
0000
,
0100
0001
0010
0100
0001
1000
0010
0000
,
0001
0100
0010
0001
1000
0100
0010
0000
,
1000
0000
0100
0000
0010
0000
1000
0000
0001
0000
0010
0001
0100
0000
0001
0000
,
0010
0100
1000
0010
0001
0100
0010
0000
,
1000
0010
0100
0001
0010
1000
0100
0000
,
0001
1000
0100
0001
0010
1000
0001
0000
,
0010
0000
0001
0000
1000
0000
0010
0000
1000
0000
0100
1000
0010
0000
1000
0000
,
0001
0100
1000
0001
0010
0100
0001
0000
,
1000
0100
0010
1000
0001
0100
1000
0000
,
0010
1000
0100
0001
1000
0010
0001
0000
,
0100
0000
0001
0000
0010
0000
0001
0000
0100
0000
1000
0100
0001
0000
0100
0000
,
0010
1000
0001
0010
1000
0001
0010
0000
,
1000
0100
0010
1000
0100
0010
1000
0000
,
0001
0010
0100
0001
0010
0100
0001
0000
,
0200
1000
0010
0301
,
1000
0010
0001
0010
0100
1000
0100
0001
,
1000
0100
0001
0100
0010
1000
0010
0001
,
1000
0000
0000
0001
0000
0010
0100
0010
1000
0000
0000
0000
0000
0000
2000
0000
,
0000
0000
3010
0000
0001
0000
0100
0000
0010
0100
0010
0100
0010
0000
0000
0000
,
0110
0000
0000
0010
1000
0000
0000
0000
1001
0000
0000
0001
0100
0000
0000
0000
,
0110
0000
0000
1000
0001
0000
0000
0001
0010
0000
0000
0010
0100
0000
0000
0100
,
1000
0010
0001
0010
1000
0100
0001
0100
,
1000
0001
1000
0001
1000
0001
1000
0001
0200
0000
0000
0000
0310
0000
0000
0000
,
0001
0000
0000
0010
0100
0000
1000
0000
0001
0000
0100
0000
0010
1000
0010
1000
,
0100
0000
0000
0010
0001
0000
1000
0000
0010
0000
0100
0000
0001
1000
0001
0000
,
2000
3100
0002
0013
2000
3010
0002
0103
,
0010
0100
0001
1000
0100
0010
1000
0001
,
0010
0000
0000
0001
1000
0000
0100
0000
0010
0000
1000
0000
0010
0001
0010
0001
,
1000
0000
0000
0010
0100
0000
0001
0000
1000
0000
0100
0000
0010
0100
0010
0000
,
0001
0000
0000
1000
0000
0000
0010
0000
0000
0100
0000
0001
1000
0000
0100
0000
,
0020
1000
0100
0031
,
1000
0000
0000
0100
1000
0000
0010
0000
0000
0100
0001
0000
0010
0000
0001
1000
,
0001
0000
0000
0100
0001
0000
0010
0000
0000
0100
1000
0000
0010
0000
1000
0001
,
1000
0000
0000
0010
1000
0000
0100
0000
0000
0010
0001
0000
0100
0000
0001
1000
,
0001
0000
0000
0010
0001
0000
0100
0000
0000
0010
1000
0000
0100
0000
1000
0001
,
1000
0000
0000
0010
0100
0000
0001
0000
0000
0010
0100
0000
1000
0000
0010
0100
,
0010
0000
0000
1000
0001
0000
0100
0000
0000
0001
1000
0000
0010
0000
0100
0010
,
0100
0000
0000
0001
0010
0000
0001
0000
0000
1000
0100
0000
1000
0000
0001
1000
,
0001
0000
0000
0100
1000
0000
0200
0000
0000
0300
0000
0001
0010
0000
1000
0000
;

//---------------dance-single - ----------------
#NOTES:
     dance-single:
     :
     Challenge:
     17:
     :
0000
0000
0000
0000
,
0000
0000
0000
0000
0000
0000
0000
0000
0000
0000
0000
0000
0000
0000
0100
0010
,
0000
0010
1000
0000
0001
0000
0000
0010
0000
0010
0100
0000
1000
0000
0001
0100
,
0000
0100
0010
0000
1000
0000
0100
1000
0000
1000
0001
0000
0010
0000
0001
0100
,
0000
0100
0001
1000
0000
0010
0000
1000
0000
0001
0000
0010
0000
0001
0000
0100
,
0000
0010
0000
1000
0000
0100
0000
1000
0000
0010
0000
0100
0000
0001
0000
0010
,
0001
0100
0001
0100
0010
1000
0010
1000
0001
0010
0001
0010
0100
1000
0100
1000
,
0001
0000
0100
0000
0010
0000
0100
0000
0001
0000
1000
0000
0000
0000
0010
0000
1000
0000
0100
0000
0010
0001
0010
0001
0010
0000
0100
0000
1000
0000
0000
0000
,
1001
0000
0010
1000
0100
0000
0010
0001
0100
0000
0010
1000
0001
0000
0100
0010
,
1000
0010
0000
0100
0000
0000
0000
0001
0000
0001
1000
0000
0010
1000
0100
0000
,
0020
0000
0030
0000
0000
0000
0001
0000
0000
0100
0000
0000
0000
0000
0000
0100
0000
0000
0010
0000
0000
1000
0000
0000
0001
0000
0000
2000
0000
3000
0000
0000
0000
0000
0000
0000
0000
0000
0000
0000
0000
0000
0100
0000
0010
0000
0100
0000
,
0010
0000
0000
0000
0001
0000
1000
0100
1000
0000
0010
0100
0010
0000
1000
0001
1000
0000
0100
0010
0001
0000
0100
0000
0001
0000
1000
0000
0100
0000
0000
0000
,
0110
0000
0010
0001
0100
0000
0010
1000
0100
0000
1000
0001
0100
0000
0010
1000
,
0100
0010
0000
0001
0000
0000
0000
1000
0000
1000
0010
0000
1000
0001
0100
0000
,
2020
3030
0000
0000
0100
0000
0001
0000
0000
0000
0001
0000
0010
0000
0100
0000
1000
0000
0010
0000
0100
0000
0002
0003
0000
0000
0000
0000
0000
0000
0000
0000
,
1000
0000
0100
0000
1000
0000
0100
0000
1000
0000
0100
0000
1000
0000
0100
0000
1000
0000
0100
0000
1000
0000
0100
0000
0010
0000
0000
0000
0000
0000
0001
0000
0000
1000
0000
0000
0001
0000
0000
0000
0000
0000
0100
0000
0000
0000
0000
0000
,
0110
0000
0001
0010
0100
0000
1000
0010
0100
0000
0001
1000
0001
0000
0100
0010
,
1000
0001
0000
0100
0000
0010
1000
0010
0000
0010
0000
0000
0100
0001
1000
0000
,
0010
0000
0000
0000
0000
0000
2000
0000
0000
0000
3000
0000
0000
0000
0000
0200
0000
0000
0000
0300
0000
0000
0000
0000
2000
0000
0000
0000
3000
0000
0002
0000
0000
0000
0003
0000
0200
0000
0000
0000
0300
0000
0020
0000
0000
0000
0030
0000
,
1000
0100
0001
0000
0110
0000
0000
0001
2000
0000
3010
0000
1000
0100
0001
0000
,
1000
0100
0001
0000
0010
0001
0100
0010
1000
0100
1000
0000
0001
0100
0001
0000
,
0010
0001
0000
1000
0000
0000
0010
0100
0000
0100
0001
0000
1000
0001
0100
0000
,
0020
0000
1030
0100
0000
0200
0000
0000
1300
0010
0100
0001
0010
0000
0001
1000
,
0001
0010
0100
0010
1000
0000
0000
0000
1100
0000
1100
0000
1000
0010
0100
0001
,
0010
0000
0001
1000
0100
0000
0010
0001
0000
0001
0000
0000
1000
0010
0100
0000
,
0002
0000
1000
0003
0000
0000
0020
0000
0000
0030
0000
0000
0200
0000
0000
0300
0000
0000
0000
0000
0000
0000
0000
0000
0001
0000
0010
0000
0100
0000
1000
0000
,
0020
0000
0030
0000
0000
0000
1000
0000
0000
0001
0000
0000
0000
0000
0000
0001
0000
0000
0010
0000
0000
0100
0000
0000
2000
0000
3000
0000
0000
0000
0010
0000
0000
0100
0000
0000
0001
0000
0000
0000
0000
0000
2002
0000
3003
0000
0000
0000
,
0010
0000
0000
0000
0000
0000
0000
0000
0000
0000
0000
0000
0000
0000
0000
0000
0000
0000
0000
0000
0000
0000
0000
0000
1000
0000
0000
0000
0000
0000
0000
0000
0000
0000
0000
0000
0001
0000
0000
0000
0000
0000
0010
0000
0000
0000
0000
0000
0001
0000
0000
0000
0000
0000
0000
0000
0000
0000
0000
0000
1000
0000
0000
0000
0000
0000
0100
0000
0000
0000
0000
0000
1000
0000
0000
0000
0000
0000
0000
0000
0000
0000
0000
0000
0010
0000
0000
0000
0000
0000
0100
0000
0000
0000
0000
0000
0010
0000
0000
0000
0000
0000
0000
0000
0001
0000
0000
0000
0000
0000
0000
0000
1000
0000
0000
0000
0000
0000
0000
0000
0010
0000
0000
0000
0000
0000
0000
0000
0000
0000
0000
0000
0000
0000
0000
0000
0000
0000
0000
0000
0000
0000
0000
0000
0101
0000
0000
0000
0000
0000
0000
0000
0000
0000
0000
0000
0000
0000
0000
0000
0000
0000
0000
0000
0000
0000
0000
0000
1000
0000
0000
0000
0000
0000
0000
0000
0000
0000
0000
0000
0000
0000
0000
0000
0000
0000
0000
0000
0000
0000
0000
0000
,
0101
0000
0010
1000
0100
0010
0001
0000
1100
0000
0010
0100
0010
1000
0001
0000
,
0101
0000
0001
1000
1100
0000
1000
0001
0101
0000
0001
1000
1100
0010
0100
0000
,
0110
0110
0110
0110
0110
0110
0110
0110
,
1000
0000
0000
0000
0000
0000
0000
0000
0000
0000
0000
0000
0010
0000
0000
0000
0000
0000
0000
0000
0000
0000
0000
0000
1000
0000
0000
0000
0000
0000
0000
0000
0000
0000
0000
0000
0010
0000
0000
0000
0000
0000
0000
0000
0000
0000
0000
0000
0100
0000
0000
0000
0000
0000
0000
0000
0000
0000
0000
0000
0001
0000
0000
0000
0000
0000
0000
0000
0000
0000
0000
0000
0100
0000
0000
0000
0000
0000
0000
0000
0000
0000
0000
0000
0001
0000
0000
0000
0000
0000
0000
0000
0000
0000
0000
0000
0010
0000
0000
0000
0000
0000
0000
0000
0100
0000
0000
0000
0000
0000
0000
0000
0010
0000
0000
0000
0000
0000
0000
0000
0100
0000
0000
0000
0000
0000
0000
0000
0010
0000
0000
0000
0000
0000
0000
0000
0100
0000
0000
0000
0000
0000
0000
0000
1000
0000
0000
0000
0000
0000
0001
0000
0000
0000
0000
0000
1000
0000
0000
0000
0000
0000
0001
0000
0000
0000
0000
0000
1000
0000
0000
0000
0000
0000
0001
0000
0000
0000
0000
0000
1000
0000
0000
0000
0000
0000
0001
0000
0000
0000
0000
0000
,
0100
0000
0010
1000
0001
0000
0010
0001
1000
0000
0101
0000
0011
0000
0100
0010
,
1000
0001
0010
0100
0000
0000
1000
0010
0000
0100
0001
0000
0010
0001
1000
0000
,
0010
0000
1000
0000
0100
0010
0001
0100
1000
0010
1000
0000
0001
0000
0100
0001
,
0010
0100
1000
0000
0001
0100
0000
0010
2000
0000
3001
0000
0100
0010
1000
0000
,
0001
0010
0100
0000
1000
0010
0100
0000
0001
0010
0100
0000
1000
0010
0100
0000
,
0001
0010
0100
0010
0001
0000
1000
0100
0000
0100
1000
0000
0010
0001
1000
0000
,
0001
0000
0000
0000
0000
0000
0000
0000
1000
0000
0000
0000
0010
0000
0000
0000
0000
0000
0000
0000
2020
0000
0000
0000
0000
0000
0000
0000
0000
3030
0000
0000
0001
0000
0000
0000
0100
0000
0000
0000
0010
0000
0000
0000
0100
0000
0000
0000
0001
0000
0000
0000
0010
0000
0000
0000
0100
0000
0000
0000
0010
0000
0000
0000
,
0001
0000
1000
0100
1000
0010
0000
0100
0001
0000
0010
0100
1000
0002
0000
0000
,
0103
0000
0010
0000
0000
0000
0010
0000
1000
0000
0001
0000
0000
0000
0100
0000
0000
0000
0001
0010
0001
0000
1000
0000
0010
0000
0100
0000
0001
0000
1000
0000
,
0000
0000
0000
0000
0000
0000
0000
0000
0000
0000
0000
0000
0100
0000
0000
0000
0000
0000
0000
0000
0000
0000
0000
0000
0010
0000
0000
0000
0000
0000
0000
0000
0000
0000
0000
0000
0001
0000
0000
0000
0000
0000
0000
0000
0000
0000
0000
0000
1000
0000
0000
0000
0000
0000
0000
0000
0000
0000
0000
0000
0010
0000
0000
0000
0000
0000
1000
0000
0000
0000
0000
0000
0010
0000
0000
0000
0000
0000
0000
0000
0000
0000
0000
0000
0100
0000
0000
0000
0000
0000
0000
0000
0000
0000
0000
0000
0001
0000
0000
0000
0000
0000
0000
0000
0010
0000
0000
0000
0000
0000
0000
0000
0001
0000
0000
0000
0000
0000
0000
0000
0100
0000
0000
0000
0000
0000
0000
0000
0000
0000
0000
0000
0010
0000
0000
0000
0000
0000
0000
0000
0000
0000
0000
0000
1000
0000
0000
0000
0000
0000
0000
0000
0000
0000
0000
0000
0100
0000
0000
0000
0000
0000
0000
0000
0000
0000
0000
0000
1000
0000
0000
0000
0000
0000
0000
0000
0000
0000
0000
0000
0001
0000
0000
0000
0000
0000
0000
0000
0000
0000
0000
0000
,
0010
0100
0000
0000
1000
0010
0000
0100
0000
0001
0010
0001
1000
0000
0100
0010
,
0001
0000
0000
0100
0000
0000
0001
0000
0010
0000
0100
0000
1000
0000
0000
0010
0000
0000
0000
0000
0000
0100
0000
0000
0001
0000
1000
0000
0010
0000
0100
0000
0000
0000
0000
0000
0001
0000
0000
1000
0000
0000
0100
0000
0000
0010
0000
0000
,
0001
0000
1000
0010
1000
0001
0000
1000
0100
0000
0010
0100
0010
0001
0000
1000
,
0001
0000
0100
0010
1000
0001
0000
0001
0010
0000
0100
1000
0010
0100
0010
0100
,
0001
0000
1000
0000
0001
0000
1000
0000
0000
0000
0000
0000
0000
0000
0000
0000
0000
0000
0010
0000
0000
0000
0000
0000
1000
0000
0100
0000
1000
0000
0001
0000
0000
0010
0000
0000
0001
0000
0000
0100
0000
0000
0010
0000
0000
1000
0000
0000
,
0100
0000
0000
0000
0000
0000
0000
0000
0000
0000
0000
0000
0000
0000
0000
0000
0000
0000
0000
0000
0000
0000
0000
0000
0000
0000
0000
0000
0000
0000
0000
0000
0000
0000
0000
0000
1000
0000
0000
0000
0000
0000
0001
0000
0000
0000
0000
0000
1000
0000
0000
0000
0000
0000
0000
0000
0000
0000
0000
0000
0010
0000
0000
0000
0000
0000
0100
0000
0000
0000
0000
0000
0010
0000
0000
0000
0000
0000
0000
0000
0000
0000
0000
0000
1000
0000
0000
0000
0000
0000
0001
0000
0000
0000
0000
0000
0100
0000
0000
0000
0000
0000
0000
0000
0010
0000
0000
0000
0000
0000
0000
0000
0100
0000
0000
0000
0000
0000
0000
0000
0010
0000
0000
0000
0000
0000
0000
0000
0000
0000
0000
0000
0000
0000
0000
0000
0000
0000
0000
0000
0000
0000
0000
0000
1001
0000
0000
0000
0000
0000
0000
0000
0000
0000
0000
0000
0000
0000
0000
0000
0000
0000
0000
0000
0000
0000
0000
0000
0110
0000
0000
0000
0000
0000
0000
0000
0000
0000
0000
0000
0000
0000
0000
0000
0000
0000
0000
0000
0000
0000
0000
0000
,
1001
0000
0110
0000
1000
0000
0010
0000
0000
0100
0100
0000
0001
0000
1000
0010
,
1000
0000
0000
0000
0100
0000
0010
0000
0000
0001
0001
0000
1000
0000
0010
0100
,
0010
0000
0000
0000
;

//---------------dance-double - ----------------
#NOTES:
     dance-double:
     :
     Easy:
     5:
     :
00000000
00000000
00000000
00000000
,
00000000
00000000
00000000
00000000
,
00000100
00000000
00010000
00000000
,
00001000
00010000
00100000
00010000
,
00001000
00000000
00100000
00000000
,
01000000
10000000
00100000
00000000
,
01000000
00000000
00001000
00000000
,
00010000
00001000
00000010
00000000
,
00000001
00000010
00000100
00000000
,
00010000
00000000
00000100
00000000
,
00010000
00001000
01000000
00000000
,
00100000
00000000
01000000
00000000
,
00010000
01000000
10000000
00000000
,
01000000
00100000
00010000
00000000
,
00001000
00000000
00000100
00000000
,
00000001
00000000
00000010
00000000
,
00001000
00000010
00000001
00000000
,
00000010
00000100
00001000
00000000
,
00010000
00000000
00100000
00000000
,
10000000
00000000
01000000
00000000
,
00010000
01000000
10000000
00000000
,
01000000
00100000
00010000
00000000
,
00001000
00000000
00000100
00000000
,
00000002
00000000
00000000
00000003
,
00000010
00000000
00000100
00000000
,
00010000
00000000
00100000
00000000
,
00010000
00001000
00000010
00000000
,
00001000
00010000
01000000
00000000
,
10000000
00000000
01000000
00000000
,
00010000
00001000
00100000
00000000
,
00001000
00010000
00000010
00000100
,
00000001
00000010
00000100
00000000
,
00001000
00000010
00000100
00000000
,
00001000
00000000
00000100
00000000
,
00001000
00010000
00000010
00000000
,
00100000
00000000
01000000
00000000
,
00010000
01000000
10000000
00000000
,
01000000
00100000
00001000
00000000
,
00010000
00000000
00000100
00000000
,
00001000
00000000
00000010
00000000
,
00000001
00000000
00001000
00000000
,
00001001
00000000
00000000
00000000
,
00000100
00000000
00001000
00000000
,
00011000
00000000
00000000
00000000
,
00010000
00000000
00100000
00000000
,
01100000
00000000
00000000
00000000
,
10010000
00000000
00000000
00000000
,
01100000
00000000
00000000
00000000
;

//---------------dance-double - ----------------
#NOTES:
     dance-double:
     :
     Medium:
     9:
     :
00000000
00000000
00000000
00000000
,
00000000
00000000
00000000
00000000
,
00000100
00010000
00100000
10000000
,
01000000
00010000
00001000
00000100
,
00000010
00000000
00000100
00000000
00000001
00000010
00000100
00000000
,
00001000
00000000
00000010
00000000
00010000
00001000
01000000
00000000
,
00010000
00100000
01000000
00000000
01000000
10000000
00100000
00000000
,
01000000
00000000
00001000
00000000
00010000
00001000
00000010
00000000
,
00000001
00000010
00000100
00001000
00000000
00000010
00000100
00000000
,
00001000
00000000
00100000
00000000
00010000
00100000
10000000
00000000
,
00100000
00000000
00001000
00010000
01000000
10000000
00100000
00000000
,
10000000
01000000
00010000
00000000
00001000
00000010
00000001
00000000
,
00000010
00000000
00001000
00000000
00000001
00000010
00001000
00000000
,
00010000
00000000
00001000
00000000
00000100
00000001
00000010
00000000
,
00000100
00000000
00010000
00000000
00001000
00010000
01000000
00000000
,
10000000
00100000
01000000
00010000
00100000
00000000
10010000
00000000
,
10000000
01000000
00100000
00010000
00000000
01000000
00100000
00000000
,
00010000
00000000
00000100
00000000
00001000
00000100
00000001
00000000
,
00000100
00000000
00010000
00001000
00000010
00000001
00000100
00000000
,
00000001
00000010
00001000
00000000
00010000
01000000
10000000
00000000
,
01000000
00000000
00010000
00000000
10000000
01000000
00010000
00000000
,
00001000
00000000
00010000
00000000
00100000
10000000
01000000
00000000
,
00100000
00000000
00001000
00000000
00010000
00001000
00000010
00000000
,
00000001
00000100
00000010
00001000
00000100
00000000
00000011
00000000
,
00000100
00000100
00001000
00000000
00000100
00000001
00000010
00000000
,
00000100
00010000
00001000
00010000
01000000
10000000
00100000
00000000
,
00100000
01010000
00100000
11000000
,
10000000
01000000
00010000
01000000
00100000
00001000
00010000
00000000
,
00000110
00001000
00001001
00000010
,
00000100
00000100
00000101
00000000
00000010
00000000
00001000
00000000
,
00000100
00010000
00001000
00100000
00010000
01000000
10000000
01000000
,
00010000
00100000
01000000
10000000
01000000
00000000
00110000
00000000
,
10000000
01000000
00100000
00010000
00000000
01000000
00100000
00000000
,
00010000
00000000
00000100
00000000
00001000
00000100
00000001
00000000
,
00000100
00000000
00010000
00001000
00000010
00000001
00000100
00000000
,
00000001
00000010
00001000
00000000
00010000
01000000
10000000
00000000
,
01000000
00000000
00010000
00000000
10000000
01000000
00010000
00000000
,
00001000
00000000
00010000
00000000
00100000
10000000
01000000
00000000
,
00100000
00000000
00001000
00000000
00010000
00001000
00000010
00000000
,
00000001
00000100
00000010
00001000
00000100
00000000
00000101
00000000
,
00000010
00000000
00000100
00000001
00000000
00000001
00000010
00000000
,
00000100
00000000
00010000
00001000
00000000
00100000
00020000
00000000
,
01000000
00000000
10030000
00100000
00000000
01000000
00001000
00000000
,
00100000
00000000
00001000
00010000
00100000
10000000
01000000
00000000
,
01000000
00000000
00100000
00010000
00000000
10000000
01000000
00000000
,
00100000
00000000
00001000
00010000
00000000
00000100
00002000
00000000
,
00000010
00000000
00003001
00000100
00000000
00000010
00010000
00000000
,
00000100
00000000
00010000
00001000
00000100
00000001
00000001
00000001
,
00000010
00000000
00000000
00000000
;

//---------------dance-double - ----------------
#NOTES:
     dance-double:
     :
     Hard:
     13:
     :
00000000
00000000
00000000
00000000
,
00000000
00000000
00000000
00000000
,
00010000
00000010
00001000
01000000
,
00010000
00000100
00001000
00100000
,
00010000
01000000
00001000
00100000
00000100
00010000
00000010
00001000
,
00000010
00001000
00000100
00010000
00001000
00100000
00010000
01000000
,
00100000
10000000
00100000
00000000
01000000
00010000
01000000
00000000
00001000
00100000
00001000
00000000
00010000
00001000
00010000
00000000
,
00000010
00000000
00000000
00001000
00000010
00000000
00000000
00000100
00000010
00000000
00000000
00000001
00000010
00000000
00001000
00000000
,
00000100
00010000
00001000
01000000
00001000
00010000
00001000
00000000
,
00100000
00001000
01000000
00010000
00100000
00001000
00010000
00000000
,
00000010
00001000
00000100
00010000
00001000
01000000
00010000
00000000
,
10000000
00000000
01000000
00000000
00010000
00000000
00001000
00000000
00010000
00000000
00000010
00010000
00000100
00000000
00010000
00000000
,
00000010
00001000
00000001
00000100
00001000
01000000
00010000
00000000
,
00100000
00001000
01000000
00010000
10000000
01000000
00010000
00000000
,
00001000
00100000
01000000
00010000
00000100
00001000
00000010
00000000
,
00000001
00000000
00000010
00000000
00001000
00000000
00000100
00000000
00010000
00000000
00000010
00010000
00000100
00000000
00010000
00000000
,
00001000
00100000
01000000
10000000
00010000
01000000
00001000
00000000
,
00010000
00000100
00001000
00000001
00000100
00000010
00010000
00000000
,
00001000
00000010
00000001
00001000
00000010
00010000
00001000
00000000
,
00010000
00000000
01000000
00000000
00100000
00000000
00001000
00000000
00010000
00000000
00100000
01000000
00100000
00000000
00010000
00000000
,
00001000
00000010
00000001
00000100
00001000
01000000
00010000
00000000
,
10000000
01000000
00100000
00010000
01000000
00001000
00000100
00000000
,
00000001
00001000
00000100
00000010
00001000
00100000
00010000
00000000
,
00002000
00100000
00010000
01003000
,
00010000
00100000
10000000
00100000
01000000
10000000
01000000
00010000
,
00001000
00000010
00000001
00000010
00000100
00000001
00000100
00001000
,
00000001
00000000
00000000
00000100
00000000
00000010
00001000
00000010
00010000
00000000
00000000
00000000
00000000
00000000
00020000
00000000
,
00000000
00000000
01030000
00000000
10000000
00000000
00100000
00000000
00010000
00001000
00010000
00001000
00010000
00000000
00000000
00000000
,
00011000
00000000
00000000
00000010
00001000
00000000
00000000
00000000
00001001
00000000
00000000
00000001
00000010
00000000
00000000
00000000
,
00000110
00000000
00000000
00001000
00000100
00000000
00000000
00010000
00001000
00000000
00000000
00100000
00010000
00000000
00000000
01000000
,
00100000
10000000
01000000
00010000
01000000
10000000
00100000
00010000
,
00001000
00010000
00001000
00010000
00001000
00010000
00001000
00010000
00000200
00000000
00000000
00000000
00000310
00000000
00000000
00000000
,
00000001
00000000
00000000
00000010
00000100
00000000
00010000
00000000
00001000
00000000
00100000
00000000
00010000
01000000
00010000
01000000
,
00100000
00000000
00000000
10000000
00010000
00000000
01000000
00000000
00100000
00000000
00010000
00000000
00001000
00010000
00001000
00000000
,
00010000
01000000
00100000
00001000
00010000
00000100
00000010
00000001
,
00000100
00001000
01000000
00100000
00010000
00000010
00001000
00000000
,
00000100
00000000
00000000
00001000
00000001
00000000
00000100
00000000
00000010
00000000
00010000
00000000
00001000
00100000
00001000
00100000
,
00010000
00000000
00000000
01000000
00100000
00000000
10000000
00000000
01000000
00000000
00100000
00000000
00001000
00010000
00001000
00000000
,
01000000
00000000
00000000
00001000
00000000
00000000
00000010
00000000
00000000
00000100
00000000
00010000
00001000
00000000
01000000
00000000
,
00200000
00010000
01000000
10300000
,
01000000
00000000
00000000
00100000
00001000
00000000
00010000
00000000
00000000
00000100
00010000
00000000
00000000
00000000
00001000
00010000
,
00001000
00000000
00000000
00100000
00010000
00000000
10000000
00000000
00000000
01000000
00100000
00000000
00000000
00000000
00010000
10000000
,
00010000
00000000
00000000
01000000
00001000
00000000
00010000
00000000
00000000
00000010
00001000
00000000
00000000
00000000
00000100
00000010
,
00000100
00000000
00000000
00001000
00000010
00000000
00010000
00000000
00000000
00001000
01000000
00000000
00000000
00000000
00100000
10000000
,
00100000
00000000
00000000
00010000
00001000
00000000
00000010
00000000
00000000
00000001
00000100
00000000
00000000
00000000
00000010
00001000
,
00000010
00000000
00000000
00000100
00001000
00000000
00010000
00000000
00000000
01000000
00100000
00000000
00000000
00000000
00010000
01000000
,
00010000
00000000
00000000
10000000
01000000
00000000
00010000
00000000
00000000
00001000
00000010
00000000
00000000
00000000
00000001
00000100
,
00000001
00000000
00000000
00000100
00001000
00000000
00020000
00000000
00000000
00030000
00000000
00001000
00010000
00000000
01000000
00000000
;
