#TITLE:Life During Wartime;
#ARTIST:Talking Heads;
#BANNER:Life During Wartime-bn.png;
#BACKGROUND:Life During Wartime-bg.png;
#JACKET:Life During Wartime-jacket.png;
#MUSIC:Life During Wartime.ogg;
#SAMPLESTART:42.96;
#SAMPLELENGTH:20;
#DISPLAYBPM:131:137;
#BPMS:0=132.93,12=134,16=135,24=133,32=134.65,40=133.25,52=134.37,60=132,66=135,68=132.573,74=131,80=133.4,92=134.6,96=133.679,100=131.875,112=133.145,116=135.46,124=133.275,128=131.92,144=132.27,160=132,176=132.5,196=132.04,204=133,216=132.175,228=134,236=132.785,242=132.2,244=133.215,246=132.54,248=131.8,251=133.333,253=137;
#BGCHANGES:;

//---------------dance-single - ----------------
#NOTES:
     dance-single:
     :
     Beginner:
     3:
     :
0000
0000
0000
0000
,
0000
0000
0000
0000
,
0000
0000
0000
0000
,
0000
0000
0000
0000
,
0100
0000
0001
0000
,
0010
0000
1000
0000
,
0000
0100
0100
0000
,
0010
0000
0000
0000
,
0001
0000
1000
0000
,
0100
0100
0100
0000
,
0000
0010
0010
0000
,
0001
0000
0000
0000
,
0000
1000
1000
0000
,
0000
0010
0010
0000
,
0000
0100
0100
0000
,
0001
0000
0000
0000
,
0000
0001
0001
0000
,
0000
1000
1000
0000
,
0000
0010
0010
0000
,
0100
0000
0000
0000
,
0000
0010
0010
0000
,
0000
0100
0100
0000
,
0000
0001
0001
0000
,
1000
0000
0000
0000
,
1001
0000
0100
0000
,
0110
0000
0010
0000
,
1001
0000
1000
0000
,
0001
0000
0000
0000
,
0110
0000
0010
0000
,
1001
0000
1000
0000
,
0110
0000
0100
0000
,
0001
0000
0000
0000
,
1000
0000
0001
0000
,
0010
0000
0010
0000
,
0001
0000
0100
0000
,
1000
0000
0000
0000
,
0010
0000
1000
0000
,
0010
0000
0100
0000
,
0001
0000
0010
0000
,
1000
0000
0000
0000
,
0000
0000
1001
0000
,
0000
0000
0110
0000
,
0000
1000
1000
0000
,
0001
0000
0000
0000
,
0000
0010
0010
0000
,
0000
0100
0100
0000
,
0000
0010
0010
0000
,
0001
0000
0000
0000
,
0000
0100
0100
0000
,
0000
0010
0010
0000
,
0000
1000
1000
0000
,
0100
0000
0000
0110
,
0000
0001
0001
0000
,
0000
1000
1000
0000
,
0000
0010
0010
0000
,
0100
0000
0000
0000
,
1001
0000
1000
0000
,
0110
0000
0010
0000
,
1001
0000
0001
0000
,
0100
0000
0000
0000
,
0110
0000
1000
0000
,
1001
0000
0010
0000
,
0110
0000
0001
0000
,
0010
0010
0010
0000
,
1001
0000
0000
0000
;

//---------------dance-single - ----------------
#NOTES:
     dance-single:
     :
     Easy:
     6:
     :
0000
0000
0000
0000
,
0000
0000
0000
0000
,
0000
0000
0000
0000
,
0000
0000
0000
0000
,
0100
0001
1000
0000
,
0010
1000
0100
0000
,
0000
1001
0001
0010
,
0100
1000
1000
1000
,
0010
1000
0001
0000
,
0010
0001
0100
0000
,
1000
0010
1000
0001
,
0200
0010
0010
0310
,
0000
0100
0001
0000
,
0010
0001
0100
0000
,
1000
0001
1000
0010
,
0200
0001
0001
0301
,
0000
0110
1001
0000
,
0010
1000
0100
0000
,
1000
0001
0010
0100
,
0020
0001
0001
0031
,
0000
1000
0010
0000
,
1000
0100
0110
0000
,
0001
0100
0001
1000
,
0010
0000
0010
0000
1000
0000
0000
0110
,
0000
0000
0001
0000
1000
0000
0000
1001
,
0000
0000
0100
0000
0010
0000
0000
0110
,
0000
0010
0001
0100
,
1000
0000
0010
0000
1000
0000
0000
1001
,
0000
0000
0001
0000
0010
0000
0000
0110
,
0000
0000
0100
0000
1000
0000
0000
1001
,
0000
0010
1000
0001
,
0010
0001
0100
0010
,
1000
0100
0001
0000
,
0010
0010
0010
0000
,
0001
0100
0001
1000
,
0020
0100
0100
0130
,
0001
0010
1000
0000
,
0100
1000
0010
0000
,
0100
0001
0010
0100
,
2000
0001
0001
3001
,
0000
1100
0101
0000
,
0000
0101
1100
0000
,
0000
1001
1000
0010
,
0200
0001
0001
0301
,
0000
0001
0010
1000
,
0000
0100
0110
0000
,
0001
1000
0100
0010
,
0002
0100
0100
0103
,
0010
1000
0100
0000
,
0010
0001
0100
0000
,
0001
0010
0001
1000
,
0020
0100
0100
0130
,
0000
0101
1100
0000
,
0000
1100
0101
0000
,
0000
0010
1000
0100
,
0001
0000
0010
0000
0001
0000
0000
1001
,
0000
0000
0010
0000
1000
0000
0000
0110
,
0000
0000
0001
0000
0100
0000
0000
1001
,
0000
0001
0010
0100
,
1000
0000
0010
0000
1000
0000
0000
0110
,
0000
0000
0010
0000
1000
0000
0000
0110
,
0000
0000
0100
0000
0001
0000
0000
1001
,
0000
0010
0001
0100
,
1000
0001
0100
0110
,
1001
0000
0000
0000
;

//---------------dance-single - ----------------
#NOTES:
     dance-single:
     :
     Medium:
     9:
     :
0000
0000
0000
0000
,
0000
0000
0000
0000
,
0000
0000
0000
0000
,
0000
0000
0000
0000
,
0100
0000
0001
0000
1000
0100
0000
0000
,
1000
0010
1000
0010
1000
0010
0000
0000
,
0000
0100
0001
0000
1000
0010
0000
0110
,
0000
0000
0001
0000
0001
0000
0001
1000
,
0000
0100
0010
0001
2000
0000
3000
0000
,
0010
1000
0100
1000
0001
0000
0000
0000
,
0000
1000
0010
1000
0100
0010
0001
0200
,
0000
0000
0010
0000
0010
0000
0310
1000
,
0000
1000
0100
1000
0001
0100
0000
0000
,
0000
0010
1000
0010
1000
0001
0000
0000
,
0000
0010
0001
1000
0001
0010
0100
2000
,
0000
0000
0001
0000
0001
0000
3001
0100
,
0000
0010
1000
0100
1000
0001
0000
0000
,
0000
0010
0001
0100
0010
1000
0000
0000
,
0000
0100
1000
0010
1000
0100
0010
0002
,
0000
0000
1000
0000
1000
0000
1003
0010
,
0000
0010
0100
0001
0000
1001
0000
0000
,
1000
0100
1000
0010
1000
0100
0000
0000
,
0000
0010
0001
0010
0100
1000
0010
0200
,
0000
0000
0001
0000
0010
0000
0301
2000
,
0000
0000
3010
0000
0100
0001
0000
0020
,
0000
0000
1030
0000
0010
0001
0010
0200
,
0000
0000
1300
0000
0010
1000
0000
0002
,
0000
0000
0013
0000
0001
0100
0010
2000
,
0000
0000
3100
0000
1000
0001
0000
0201
,
0000
0000
0301
0000
0010
0100
1000
0020
,
0000
0000
0031
0000
0010
1000
0000
1100
,
0000
0000
0001
0100
0001
0100
0001
0000
,
0000
0010
0000
0001
0000
0100
0000
1000
,
0000
0010
0000
0100
0000
0001
0000
1000
,
0000
0100
0000
0001
0000
0010
0000
1000
,
0000
0001
0000
0010
0000
0100
0000
1000
,
0000
0010
0000
1000
0000
0100
0000
0001
,
0000
1000
0000
0001
0000
0010
0000
0100
,
0000
0001
0000
1000
0000
0010
0000
0100
,
0000
0010
0000
1000
0000
0001
0000
0100
,
0000
0001
1000
0000
1000
0100
0000
0000
,
0000
1000
0001
0000
0001
0100
0000
0000
,
0000
0010
1000
0000
1000
0100
0010
0002
,
0000
0100
0000
0100
0000
0010
0000
0103
,
0000
0001
0010
0001
0200
0000
0310
1000
,
0000
0100
1000
0001
1000
0100
0000
0000
,
0000
1000
0001
1000
0010
0100
0010
2000
,
0000
0001
0000
0001
0000
0001
0000
3001
,
0000
0010
0001
0100
0001
1000
0000
0000
,
0000
0100
1000
0010
1000
0001
0000
0000
,
0000
0100
0001
0010
0001
1000
0010
0200
,
0000
0010
0000
0001
0000
0310
2000
0000
,
0000
3100
1000
0010
1000
0001
0000
0000
,
0000
0010
0001
1000
0010
0100
0000
0000
,
0000
0001
0010
0001
0100
0010
1000
0002
,
0000
0000
0000
0000
1003
0001
1000
0020
,
0000
0000
0130
0000
0001
1000
0000
2100
,
0000
0000
3001
0000
1000
0010
0100
0002
,
0000
0000
1003
0000
0010
0100
0000
0201
,
0000
0000
0310
0000
1000
0001
1000
0200
,
0000
0000
0310
0000
0001
0100
0000
0120
,
0000
0000
1030
0000
0010
1000
0001
0200
,
0000
0000
0301
0000
0010
0100
0000
1000
,
0010
0100
0010
0100
0010
0100
0010
0000
,
1001
0000
0000
0000
;

//---------------dance-single - ----------------
#NOTES:
     dance-single:
     :
     Hard:
     12:
     :
0000
0000
0000
0000
,
0000
0000
0000
0000
,
0000
0000
0000
0000
,
0000
0000
0000
0000
,
0100
0000
0001
0010
0001
1000
0100
0000
,
1000
0010
0001
0010
1000
0010
0100
0000
,
0001
0010
0010
0000
0001
0100
0010
1010
,
0000
0000
0100
1000
0100
1000
0100
1000
,
0000
0000
0000
0001
0000
0000
0010
0000
0100
0000
1000
0000
0000
0000
0000
1100
0000
0000
0001
0000
0000
0100
0000
0000
,
0010
1000
0010
0100
0010
1000
0001
0000
,
1000
0010
0010
1000
0100
0010
0001
0100
,
0101
0000
1000
0010
1000
0010
1000
0010
,
0000
0100
0001
1000
0001
0010
0000
0100
,
0001
0100
0010
0100
1000
0001
0100
0000
,
0010
1000
1000
0100
1000
0001
0100
0010
,
0110
0000
0000
0000
0001
1000
0001
0000
0010
0000
0001
0000
0100
0000
0010
0000
,
1000
0100
1000
0001
0100
0010
0000
1000
,
0100
0001
0100
1000
0100
0010
0001
0000
,
1000
0001
0010
0001
0100
0010
1000
0001
,
0011
0000
1000
0100
1000
0100
0010
0001
,
0100
0000
0001
0000
1000
0100
1000
0000
0000
0000
1001
0000
0010
0000
0000
0000
,
0100
0000
0001
0000
1000
0010
1000
0000
0100
0000
0010
0000
0001
0000
0000
0000
,
0100
0001
0010
0001
1000
0010
1000
0100
,
0010
0001
0000
0000
1000
0000
0010
0000
1000
0001
1000
0000
0100
0000
0110
0000
,
0000
0001
0001
0100
0010
0010
0000
1010
,
0000
1000
1000
0001
0100
0100
0000
0101
,
0000
0001
0001
0010
0001
0100
0010
2000
,
0000
0000
0000
0000
3100
0000
0010
0000
0001
1000
0001
0000
0100
0000
1001
0000
,
0000
0010
0010
1000
0001
0001
0000
0011
,
0000
0010
0001
0100
0001
1000
0000
1010
,
0000
0100
0010
0001
0001
1000
0010
0100
,
0001
1000
0010
1000
0100
0010
0001
0000
,
0100
0001
0010
0001
0100
0010
1000
0000
,
0001
0100
1000
0100
0001
0100
0010
0000
,
1000
0001
0010
0001
0100
0010
1000
0002
,
0000
0010
0000
1000
0000
0010
0000
0103
,
0000
0001
1000
0010
1000
0001
0000
0100
,
0010
0001
0010
0100
0010
1000
0000
0100
,
0000
1000
0001
0010
0001
0100
0010
2000
,
0000
0100
0000
0010
0000
0100
0000
3001
,
0000
0000
0010
0000
0001
0020
0000
0000
0100
0000
0130
0000
0000
0000
0000
0000
,
0000
0000
1000
0100
2000
0000
0000
0000
0001
0000
3001
0000
0000
0000
0000
0000
,
0000
0000
0100
0010
0100
0000
0000
0000
0001
0000
0001
0000
1000
0000
2100
0000
,
0000
0010
0000
3100
0001
0010
0001
0100
,
0000
1000
0100
1000
0001
0100
0010
0010
,
0000
0000
0000
0100
0000
0000
0001
0000
1000
0000
0001
0000
0000
0000
0000
0010
0000
0000
0100
0000
0000
1000
0000
0000
,
0000
0010
1000
0001
1000
0100
0010
0001
,
0011
0000
0101
0000
1000
0010
0100
0001
,
0000
0010
0010
0001
1000
1000
0010
0100
,
0000
0001
0100
1000
0100
0001
0010
0100
,
0000
1000
0100
0010
0100
1000
0001
1010
,
0000
0000
0010
0000
0100
0000
0001
0000
1000
0100
1000
0000
0010
0000
0100
0000
,
0000
0001
1000
0010
1000
0100
0000
0010
,
0001
1000
0001
0010
0001
0100
0010
0000
,
1000
0100
0010
0100
1000
0001
0100
0010
,
0000
1000
0010
1000
0100
0010
0001
1001
,
0000
0000
0010
0000
1000
0100
0000
1000
0000
0000
0001
0000
0100
0000
0110
0000
,
0000
0000
0010
0000
0100
0000
0001
1000
0000
0000
0100
0000
0010
0000
0011
0000
,
0000
0100
0001
0010
0100
1000
0010
2020
,
3000
0000
0000
0000
1030
0000
0010
0000
0100
0001
0100
0000
0010
0000
0110
0000
,
0000
0000
0100
0000
0001
1000
0000
0001
0000
0000
0010
0000
0100
0000
1100
0000
,
0000
0010
1000
0100
0010
0001
0100
0101
,
0000
1000
0010
1000
0100
0010
0001
0100
,
0001
0001
1000
1000
0100
0100
0010
0010
,
1001
0000
0000
0000
;
