#TITLE:Levitating;
#ARTIST:Dua Lipa;
#BANNER:Levitating-bn.png;
#BACKGROUND:Levitating-bg.png;
#JACKET:Levitating-jacket.png;
#MUSIC:Levitating.ogg;
#OFFSET:0.05;
#SAMPLESTART:74.513;
#SAMPLELENGTH:20;
#DISPLAYBPM:103;
#BPMS:0=103;
#BGCHANGES:;

//---------------dance-single - ----------------
#NOTES:
     dance-single:
     :
     Beginner:
     5:
     :
0000
0000
0000
0000
,
0000
0000
0000
0000
,
0001
0000
1000
0000
,
0010
0000
0100
0000
,
0110
0000
1001
0000
,
1000
1000
1000
0000
,
0110
0000
1001
0000
,
0001
0001
0001
0000
,
0110
0000
1001
0000
,
0010
0000
1001
0000
,
0110
0000
1001
0000
,
0100
0100
0100
0000
,
0110
0000
1001
0000
,
1001
0000
0110
0000
,
1001
0000
0110
0000
,
1001
1001
1001
0000
,
0110
0000
0001
0000
,
0010
0000
1000
0000
,
1001
0000
0010
0000
,
0110
0110
0000
1001
,
1001
0000
0001
0000
,
0010
0000
1000
0000
,
0110
0000
1000
0000
,
1001
1001
0000
0110
,
0110
0000
0001
0000
,
0110
0000
1000
0000
,
0110
0000
0001
0000
,
1001
1001
1001
0000
,
1001
0000
0010
0000
,
1001
0000
0100
0000
,
1001
0000
0010
0000
,
0110
0110
0110
0000
,
1001
0000
1001
0000
,
0110
0000
0110
0000
,
1001
0000
0110
0000
,
1001
0000
0110
0000
,
0110
0000
0001
0000
,
0001
0000
0001
0000
,
1001
0000
1000
0000
,
1001
1001
0000
0110
,
0110
0000
0001
0000
,
0110
0000
1000
0000
,
0110
0000
0010
0000
,
0110
0110
0110
0000
,
1001
0000
0100
0000
,
1001
0000
0010
0000
,
1001
0000
1000
0000
,
1001
1001
1001
0000
,
1001
0000
0010
0000
,
1000
0000
0100
0000
,
0110
0000
0001
0000
,
1001
1001
0000
0110
,
0110
0000
1000
0000
,
0001
0000
0010
0000
,
1001
0000
0100
0000
,
1001
1001
0000
0010
;

//---------------dance-single - ----------------
#NOTES:
     dance-single:
     :
     Easy:
     7:
     :
0000
0000
0000
0000
,
0000
0000
0000
0000
,
0001
1000
0001
1000
,
0010
0100
0010
1001
,
1000
0010
0001
0100
,
0010
0100
0001
1001
,
0010
0001
0100
1000
,
0010
1000
0100
0110
,
0001
0011
1000
1010
,
0100
0010
1000
0110
,
0001
0010
0001
0100
,
1000
0010
0100
1001
,
0101
0100
1010
0010
,
1100
1000
0011
0001
,
1001
0100
0110
0010
,
1100
0110
0011
1001
,
0110
0001
0011
0100
,
1010
0100
1100
0001
,
1001
0010
1010
0001
,
1100
0011
0100
0110
,
1001
0001
0011
0100
,
1100
0001
1010
0100
,
0110
0001
0011
1000
,
0101
1010
0100
0110
,
1001
0001
0010
1000
,
0110
1000
0100
0001
,
1010
0001
0100
1000
,
1100
0110
0011
1001
,
1100
0001
0010
1000
,
0101
1000
0010
0100
,
0011
0010
0001
0100
,
0011
0110
1100
1001
,
0101
0100
1010
0010
,
1100
1000
0011
0001
,
0110
0001
1001
0100
,
0011
0110
1100
0001
,
1001
0000
1010
0000
,
0101
0000
1100
0000
,
0110
0000
0011
0000
,
1001
0110
1000
0110
,
1001
0001
0010
1000
,
1100
0010
0100
0001
,
0101
1000
0010
0001
,
1100
0110
0011
1001
,
0110
0001
1000
0100
,
0011
0010
0001
0100
,
1010
1000
0001
0100
,
0011
0110
1100
1001
,
0110
0001
0011
0100
,
1010
0001
1100
0010
,
1001
0010
1100
0001
,
1001
1010
0100
0110
,
1001
0010
0011
0100
,
1010
0001
0110
0001
,
1001
1000
1100
0010
,
0101
1010
0001
0010
;

//---------------dance-single - ----------------
#NOTES:
     dance-single:
     :
     Medium:
     12:
     :
0000
0000
0000
0000
,
0000
0000
0000
0000
,
0001
1000
0001
1000
,
0010
0000
0100
0000
0010
0110
1001
0000
,
0010
0001
1000
0100
1000
0100
0001
0010
,
1000
0010
0100
0010
0001
0110
1001
0000
,
0001
1000
0100
1000
0010
0001
0010
0100
,
1000
0100
0001
0100
0010
0110
1001
0000
,
1000
0100
2010
0000
3001
0010
0102
0000
,
0013
0001
0100
1000
1000
1100
0011
0000
,
0001
1000
0001
0010
0100
0010
1000
0100
,
1000
0010
0001
0100
0100
0110
1001
0000
,
1010
0000
0000
0001
0010
0000
0100
0000
1100
0000
0000
1000
0001
0000
0100
0000
,
0101
0000
0000
1000
0001
0000
0010
0000
0011
0000
0000
0100
0010
0000
1000
0000
,
1001
0000
0000
0001
0010
0000
0100
0000
0110
0000
0000
1000
0010
0000
0001
0000
,
0011
0000
0110
0000
1100
0000
0110
0000
0011
0000
0000
0000
1000
0001
1000
0000
,
1001
0000
0010
0000
0100
0000
0000
0000
0101
0000
0000
0101
0000
0000
0010
0000
,
1010
0000
0000
1010
0000
0000
0100
0000
1100
0000
0000
1100
0000
1000
0001
0000
,
0110
0000
0001
0000
1000
0000
0000
0000
1100
0000
0000
1100
0000
0000
0000
0000
,
0010
0001
0000
1001
0000
1000
0100
0000
0000
0000
0000
1000
0010
0000
0100
0000
,
0101
0000
1000
0000
0001
0000
0000
0000
0110
0000
0000
0110
0000
0000
0000
0000
,
1001
0000
0000
1001
0000
0000
0000
0000
1100
0000
0000
1100
0000
1000
0010
0000
,
1010
0000
0100
0000
0010
0000
0000
0000
0101
0000
0000
0101
0000
0000
0000
0000
,
0010
0001
0000
1001
0000
1000
0100
0000
0000
0000
0000
0010
0001
0000
0100
0000
,
0110
0000
0000
0000
1000
0000
0010
0000
0100
0000
0000
0001
0000
0000
1000
0000
,
0100
0000
0000
0000
1000
0000
0010
0000
0100
0000
0000
0001
0000
0000
1000
0000
,
0001
0000
0000
0000
0010
0000
0001
0000
0100
0000
0000
1000
0000
0000
0010
0000
,
1100
0000
0110
0000
0011
0000
0110
0000
1100
0000
0000
0001
0100
0000
0010
0000
,
1001
0000
0000
0000
0010
0000
1000
0000
0100
0000
0000
1000
0000
0000
0001
0000
,
0010
0000
0000
0000
0001
0000
0100
0000
1000
0000
0000
0001
0000
0000
1000
0000
,
0010
0000
0000
0000
1000
0000
0100
0000
1000
0000
0000
0001
0000
0000
0010
0000
,
0011
0110
1100
0110
0011
0000
0000
0000
,
0201
0000
0301
0100
1020
0000
1030
0010
,
2100
0000
3001
0010
0021
0000
0130
1000
,
2001
0000
3010
0100
0210
0000
0301
1000
,
0010
0100
0010
1000
0001
0110
1001
0100
,
0110
0000
0000
0000
0000
0000
0000
0000
1000
0000
0000
1000
0000
0000
0000
0000
,
0001
0000
0000
0001
0000
0000
0000
0000
0100
0000
0000
0100
0000
0001
1000
0000
,
1001
0000
0000
0000
0000
0000
0000
0000
0010
0000
0000
0010
0000
0000
0000
0000
,
1000
0100
0000
0110
0000
0010
0001
0000
0000
0000
0000
0100
0010
0000
1000
0000
,
0101
0000
0000
0000
0010
0001
0010
0001
0010
0000
0000
0100
0000
0000
1000
0000
,
0010
0000
0000
0000
1000
0001
1000
0001
1000
0000
0000
0100
0000
0000
0010
0000
,
0001
0000
0000
0000
0100
0010
0100
0010
0100
0000
0000
0001
0000
0000
1000
0000
,
1100
0000
0110
0000
0011
0000
0110
0000
1100
0000
0000
1000
0001
0000
0010
0000
,
0011
0000
0000
0000
1000
0001
1000
0001
1000
0000
0000
0010
0000
0000
0100
0000
,
0001
0000
0000
0000
0010
0100
0010
0100
0010
0000
0000
0001
0000
0000
1000
0000
,
0100
0000
0000
0000
1000
0010
1000
0010
1000
0000
0000
0001
0000
0000
0100
0000
,
0011
0000
0110
0000
1100
0000
0110
0000
0011
0000
0000
0000
1000
0001
1000
0000
,
1001
0000
0100
0000
0010
0000
0000
0000
1010
0000
0000
0101
0000
0000
0001
0000
,
0011
0000
0000
1100
0000
0000
0010
0000
0110
0000
0000
1001
0000
1000
0100
0000
,
0110
0000
0001
0000
1000
0000
0000
0000
1100
0000
0000
0101
0000
0000
0000
0000
,
1000
0100
0000
0110
0000
0010
0001
0000
0000
0000
0000
0100
0001
0000
1000
0000
,
1001
0000
0010
0000
1000
0000
0000
0000
1100
0000
0000
0101
0000
0000
0100
0000
,
1010
0000
0000
0011
0000
0000
1000
0000
1001
0000
0000
0110
0000
0001
1000
0000
,
0110
0000
0001
0000
0100
0000
0000
0000
0011
0000
0000
1100
0000
0000
0010
0000
,
1000
0100
0000
0110
0000
0010
0001
0000
0000
0000
0000
1000
0001
0100
0001
0010
;

//---------------dance-single - ----------------
#NOTES:
     dance-single:
     :
     Hard:
     15:
     :
0000
0000
0000
0000
,
0000
0000
0000
0000
,
0001
1000
0001
1000
,
0010
0000
0100
0000
0010
0110
1001
0000
,
1000
0100
1000
0100
0010
0001
0010
0001
0100
0010
0100
0010
1000
0001
1000
0001
,
1000
0100
0010
0001
0100
0000
0010
0000
0010
0000
0110
0000
1001
0000
0000
0001
,
1000
0010
1000
0010
0100
0001
0100
0001
0010
0001
0010
0001
1000
0100
1000
0100
,
1000
0010
0100
0000
0001
0000
1000
0000
1000
0000
0110
0000
1001
0001
0100
0000
,
0001
0010
1000
0010
0002
0000
0000
0000
1003
0010
0001
0010
2000
0000
0000
0000
,
3100
0010
0001
0010
0100
0000
1000
0000
1000
0000
1100
0000
0011
0000
0000
0000
,
0100
0001
0100
0001
1000
0010
1000
0010
1000
0001
1000
0001
0010
0100
0010
0100
,
1000
0010
0100
0010
1000
0000
0001
0000
0001
0000
0011
0000
1100
0001
0100
0000
,
1010
0000
0000
0001
0100
0000
0010
0000
0101
0000
0000
1000
0100
0010
0001
0100
,
0110
0000
0000
0001
1000
0100
1000
0000
1001
0000
0000
0010
1000
0100
0010
0001
,
0011
0000
0000
1000
0010
0100
0001
0000
1010
0000
0000
1000
0100
0001
0100
1000
,
1100
0000
0110
0000
0011
0000
0110
0000
1100
0000
1001
0000
1001
0001
0100
0000
,
0110
1000
0100
0010
0001
0000
0000
0000
0100
0001
0100
0010
1000
0000
0000
0000
,
0100
1000
0001
1000
0010
0000
0000
0000
0100
0001
0000
0011
0000
0001
1000
0000
,
0110
0001
0010
0100
1000
0000
0000
0000
0010
1000
0010
0100
0001
0000
0000
0000
,
0010
0001
0000
1100
0000
0001
1000
0000
1010
0000
0000
0100
0001
0010
1000
0010
,
0001
0100
0010
0100
0001
0000
0000
0000
1000
0010
1000
0001
0100
0000
0000
0000
,
0010
1000
0100
0010
0001
0000
0000
0000
0100
0010
0000
1001
0000
0001
1000
0000
,
1100
0010
0001
1000
0100
0000
0000
0000
1000
0010
0100
0010
1000
0000
0000
0000
,
0001
0010
0000
0110
0000
0100
1000
0000
0011
0000
0000
0100
0010
1000
0010
0100
,
0001
0000
0000
0000
1000
0100
0001
0100
1000
0000
0010
0100
0000
0100
0001
0010
,
0100
0000
0000
0000
1000
0010
0001
0010
1000
0000
0100
0010
0000
0010
0001
1000
,
0001
0000
0000
0000
0010
0001
1000
0001
0100
0000
0010
1000
0000
1000
0100
0010
,
0011
0000
0110
0000
1100
0000
0110
0000
0011
0000
0100
0001
0010
0100
1000
0010
,
1001
0000
0000
0000
1000
0010
1000
0001
0010
0000
0100
1000
0000
0100
0010
0001
,
0100
0000
0000
0000
0001
1000
0010
1000
0001
0000
0010
0100
0000
0010
0001
0100
,
1000
0000
0000
0000
0010
1000
0001
0100
0001
0000
0010
0001
0000
0010
0100
1000
,
1100
0110
0011
0110
1100
1001
1001
0000
,
0101
0000
0000
0001
0010
0000
0100
0000
1100
0000
0000
1000
0001
1000
0010
0100
,
0101
0000
0000
0001
0010
0100
1000
0000
1010
0000
0000
0100
1000
0010
0001
0010
,
0110
0000
0001
0010
0100
0010
0001
0000
1001
0000
0100
0010
1000
0001
1000
0100
,
1000
0001
0100
0000
0011
0000
0001
0100
1000
0000
0110
0000
1001
0001
0100
0000
,
0110
0000
0000
0000
0000
0000
0000
0000
1010
0000
0000
1010
0000
0000
0000
0000
,
0101
0000
0000
0101
0000
0000
0000
0000
1100
0000
0000
1100
0000
0001
1000
0000
,
1001
0000
0000
0000
0000
0000
0000
0000
0011
0000
0000
0011
0000
0000
0000
0000
,
1000
0100
0000
1001
0000
0010
0001
0100
0010
0000
0000
1000
0001
1000
0100
0010
,
0110
0000
0000
0000
0001
0010
0100
1000
0010
0100
0010
1000
0001
1000
0001
0100
,
1010
0000
0000
0000
1000
0100
0010
0001
0010
0001
0100
0001
1000
0010
1000
0100
,
1100
0000
0000
0000
0001
0010
0001
1000
0100
0010
0100
1000
0001
1000
0100
0010
,
0011
0000
0110
0000
1100
0000
0110
0000
0011
0000
1000
0001
0100
1000
0100
0001
,
0011
0000
0000
0000
0010
0001
0010
0100
1000
0001
0100
0001
1000
0100
1000
0010
,
0110
0000
0000
0000
0010
0100
0001
0010
0001
0100
1000
0100
0001
1000
0010
1000
,
1010
0000
0000
0000
0100
0010
0100
1000
0001
0010
1000
0001
0100
1000
0001
0010
,
0011
0000
0110
0000
1100
0000
0110
0000
0011
0000
1001
0000
1001
0010
0100
0000
,
0110
0001
0010
0100
1000
0000
0000
0000
0010
1000
0100
0010
0001
0000
0000
0000
,
1000
0001
1000
0010
0100
0000
0000
0000
0001
1000
0000
0101
0000
0010
0100
0000
,
1010
0001
1000
0100
0010
0000
0000
0000
0001
0100
0010
0100
0001
0000
0000
0000
,
1000
0010
0000
1100
0000
0001
0100
0010
1000
0000
0000
0100
1000
0010
0100
0001
,
0010
1000
0010
0001
0100
0000
0000
0000
0010
1000
0001
1000
0100
0000
0000
0000
,
0010
0001
0100
0010
1000
0000
0000
0000
0100
1000
0000
0011
0000
0010
0001
0000
,
0101
0001
0010
0100
1000
0000
0000
0000
0010
1000
0100
0010
0001
0000
0000
0000
,
0100
0010
0000
1001
0000
0010
1000
0001
0100
0000
0010
1000
0100
0001
0100
0010
;
