#TITLE:Levels;
#SUBTITLE:(Skrillex Remix);
#ARTIST:Avicii;
#TITLETRANSLIT:;
#SUBTITLETRANSLIT:;
#ARTISTTRANSLIT:;
#GENRE:;
#CREDIT:;
#BANNER:Levels (Skrillex Remix)-bn.png;
#BACKGROUND:Levels (Skrillex Remix)-bg.png;
#LYRICSPATH:;
#CDTITLE:;
#MUSIC:Levels (Skrillex Remix).ogg;
#OFFSET:0.000000;
#SAMPLESTART:72.000000;
#SAMPLELENGTH:20.000000;
#SELECTABLE:YES;
#DISPLAYBPM:140.000000;
#BPMS:0.000000=140.000000
;
#STOPS:
;
#BGCHANGES:;
#KEYSOUNDS:;
#ATTACKS:;

//---------------dance-single - ----------------
#NOTES:
     dance-single:
     :
     Hard:
     15:
     0.653072,0.697756,0.495793,0.641614,0.280706,627.000000,559.000000,68.000000,88.000000,0.000000,0.000000,0.653072,0.697756,0.495793,0.641614,0.280706,627.000000,559.000000,68.000000,88.000000,0.000000,0.000000:
0000
0000
0000
0000
,
0000
0000
0000
0000
,
0000
0000
0000
0000
,
0000
0000
0000
0000
0000
0001
0010
0100
,
1000
0100
0001
0000
1001
0000
0100
0000
,
2000
0010
3010
0000
1001
0000
0100
0000
,
0001
0010
1000
0000
1001
0000
0100
0000
,
1010
0000
0000
1100
0000
0000
0101
0000
0000
0000
1000
0000
0010
0000
0100
0000
,
0001
0100
1000
0020
0100
0000
1030
0001
,
0020
0000
0100
0000
0100
0000
0000
0000
0031
0000
0100
0000
0010
1000
0010
0000
,
1000
0001
0010
0100
1100
0000
0001
2000
,
3010
0100
0100
0000
0110
0001
1000
0100
,
1000
0010
0001
0010
1000
0100
0010
0001
,
0100
0000
0010
1000
0000
1000
0100
0000
0010
0001
0000
0001
0100
0000
0010
0000
,
1000
0000
0001
0000
0010
0000
0100
0000
1000
0000
0010
0000
0100
0001
0100
0000
,
0001
0000
0010
0100
0000
0100
1000
0000
0010
0000
0100
0001
0100
0001
0100
0000
,
0001
1000
0010
0200
1000
0000
0301
0010
,
0200
0000
0001
0000
0001
0000
0000
0000
1300
0000
0010
0000
0100
0010
0100
0000
,
0001
0000
0010
0000
0100
0000
1000
0001
1000
0000
0010
0100
0010
0000
2000
0000
,
3001
0000
0100
0000
0100
0000
0000
0010
1000
0000
0001
0000
0100
0000
0001
0000
,
0010
0100
1000
0010
1000
0001
0100
0010
,
1000
0000
0001
0100
0000
0100
0010
0000
1000
0100
0000
0100
0010
0000
0001
0000
,
1000
0000
0001
0000
0100
0000
0010
0000
1000
0000
0100
0000
0010
0001
0010
0000
,
0100
0000
1000
0001
0000
0001
0100
0000
0010
0000
1000
0000
0001
0000
0100
0000
,
2020
0030
0002
0003
,
0002
0003
0002
0003
,
0002
0003
0002
0003
,
0002
0003
0002
3003
,
1001
0100
1000
0000
1001
0100
0010
0001
,
1000
0001
1000
0100
0000
0010
0010
0010
,
0011
0001
0100
0000
1010
1000
0100
0010
,
0001
1000
0001
0100
0000
0010
0010
0010
,
0101
1000
0001
0000
1100
0010
1000
0001
,
1000
0100
0010
0001
0000
0100
0100
0100
,
0110
1000
0001
0000
0110
0010
1000
0100
,
1000
0010
0100
0001
0000
1000
1000
1000
,
1001
0001
0200
0300
0110
0010
2000
3000
,
1100
0001
0200
0300
0101
0010
2000
3000
,
1010
0010
0200
0300
0101
0001
0020
0030
,
0011
0000
1000
0000
0200
0000
0300
0000
1001
0000
0100
0000
0020
0000
1030
0001
,
1000
0000
0100
0000
0001
0000
0100
0000
1000
0000
0100
0000
0001
0000
0100
1000
,
0001
0100
1000
0100
0001
0100
1000
0100
,
0002
0000
0000
2000
0000
0000
3003
0100
,
0220
0000
0000
0000
0030
0001
0301
0000
,
1100
0000
0001
0000
0100
0000
0000
0000
0010
0000
1000
0000
1000
0000
0001
1000
,
0001
0000
0010
0100
1000
0000
1000
0000
0001
0000
0101
0000
0101
0000
0101
0000
,
1010
0000
0100
0000
1000
0000
0000
0010
0100
0000
0001
0000
0001
0000
1000
0001
,
0020
0032
0203
0320
2030
3002
2003
3100
,
0011
0000
1000
0000
0001
0000
0000
0000
0010
0000
0100
0000
0100
0000
1000
0010
,
1000
0000
0001
0100
0010
0000
0010
0000
1000
0000
1100
0000
1100
0000
1100
0000
,
0110
0000
0001
0000
1000
0000
0000
0010
0200
0000
0000
0000
0302
0000
1003
0000
,
1100
0000
0000
0110
0000
0000
0012
0000
1003
0000
0010
0100
0010
0100
0010
0000
,
1001
0000
0100
0000
0010
0000
0000
0000
1000
0000
0001
0000
0001
0000
0010
0100
,
1000
0000
0010
1000
0001
0000
0001
0000
1010
0000
1010
0000
0101
0000
0101
0000
,
1001
0000
1000
0000
0010
0000
0000
0100
0001
0000
0010
0000
0010
0000
0001
1000
,
0002
0203
0320
0032
0023
2030
3200
0310
,
0011
0000
0100
0000
0010
0000
0000
1000
0001
0000
0100
0000
0100
0000
0001
0010
,
0100
0000
1000
0001
0010
0000
0010
0000
0001
0010
0100
1000
0100
0010
0001
0000
,
0101
0001
0010
0000
2100
0000
3002
0103
,
0110
0000
0000
1001
0000
0000
2100
0000
3001
0000
0010
1000
0100
1000
0010
0000
,
0102
0100
0100
0103
2001
0000
3020
0230
,
0301
0010
0001
0010
0001
0010
0100
1000
0100
0000
0010
0000
0010
0000
0010
0000
,
0021
0001
0001
0031
0201
0000
0320
2030
,
3100
1000
0100
1000
0100
1000
0001
0100
0001
0000
0010
0000
0010
0000
0010
0000
,
1002
1000
1000
1003
1200
0000
0302
0203
,
1300
0010
1000
0010
1000
0010
0100
0001
1000
0000
0100
0000
0100
0000
0100
0000
,
0020
0000
0032
0000
2003
0000
3020
0000
2030
0000
3200
0000
0310
0001
0010
0100
,
1000
0000
0000
1100
0000
0000
0102
0000
1003
0000
0010
0100
0001
1000
0100
0000
,
1020
0100
0100
0130
0210
0000
0302
2003
,
3010
1000
0010
1000
0010
1000
0100
0010
0001
0000
0001
0000
0001
0000
0001
0000
,
0201
0010
0010
0310
2010
0000
3200
0320
,
0031
0100
0001
0100
0001
0100
0010
1000
0010
0000
0010
0000
0010
0000
0010
0000
,
1002
0100
0100
0103
1020
0000
2030
3200
,
1300
0001
1000
0001
1000
0001
0010
0100
1000
0000
1000
0000
1000
0000
1000
0000
,
0020
2030
3002
0023
0230
0302
0203
2300
,
3010
0000
0000
1010
0000
0000
1100
0000
0011
0000
0100
0000
0010
0000
1000
0000
,
0002
0000
0000
0000
,
0000
0000
0000
0000
,
0000
0000
0000
0000
,
0000
0000
0000
0003
;

//---------------dance-single - ----------------
#NOTES:
     dance-single:
     :
     Medium:
     12:
     0.466629,0.523317,0.189568,0.583286,0.076556,448.000000,422.000000,26.000000,80.000000,0.000000,0.000000,0.466629,0.523317,0.189568,0.583286,0.076556,448.000000,422.000000,26.000000,80.000000,0.000000,0.000000:
0000
0000
0000
0000
,
0000
0000
0000
0000
,
0000
0000
0000
0000
,
0000
0000
0000
0000
0000
0001
0010
0100
,
1000
0100
0001
0000
1001
0000
0100
0000
,
0010
1000
1001
0100
,
0001
0010
1000
0000
1001
0000
0100
0000
,
2000
0000
0000
3002
0000
0000
0203
0000
0000
0000
0301
0000
0010
0000
0100
0000
,
2000
0000
0000
0002
0000
0000
3003
0100
,
0220
0000
0000
0000
0000
0000
0000
0000
0300
0000
1000
0000
1030
0001
1000
0000
,
0001
0200
0000
0000
0000
0000
0000
0320
,
1000
0000
1030
0000
0001
0100
0010
1000
,
0001
0010
0100
1000
0010
0100
0001
1000
,
0002
0000
0000
2003
0000
0000
3020
0000
0000
0230
0000
0000
0301
0000
1000
0000
,
2100
0000
0000
0000
0001
0000
3001
0000
0000
0000
1000
0000
0010
0100
0010
0000
,
2000
3001
0000
0102
0000
1003
0100
0010
,
0002
0000
0000
2000
0000
0000
3003
0010
,
0220
0000
0000
0000
0000
0000
0000
0000
0030
0000
0001
0000
0301
1000
0001
0000
,
0010
0200
0000
0000
0000
0000
0000
2300
,
0001
0000
3001
0000
1000
0010
0100
0001
,
0010
0100
0010
0001
0100
0010
1000
0001
,
2000
0000
0000
3200
0000
0000
0320
0000
0000
0032
0000
0000
0103
0000
0010
0000
,
2010
0000
0000
0000
0001
0000
3001
0000
0000
0000
1000
0000
0010
0100
0010
0000
,
2000
3001
0000
0021
0000
0031
0100
0010
,
2020
0030
0002
0003
,
0002
0003
0002
0003
,
0002
0003
0002
0003
,
0002
0003
0002
3003
,
1000
0100
0010
0000
0010
0001
0100
0001
,
1000
0100
0010
0001
0000
1000
0010
1000
,
0001
0010
0100
0000
0100
1000
0010
1000
,
0001
0010
0100
1000
0000
0010
0100
0010
,
1000
0100
0001
0000
0001
1000
0010
0100
,
0010
1000
0100
0010
0000
0001
0100
0001
,
1000
0010
0001
0000
0001
1000
0100
0010
,
0100
1000
0001
0100
0000
0010
1000
0010
,
1000
0100
0020
0000
0031
0100
0020
0000
,
1030
0001
0200
0000
0301
1000
0200
0000
,
0310
0001
2000
0000
3010
0100
0002
0000
,
0103
0010
2000
0000
3100
1000
0002
0000
,
1003
0000
0001
0000
1000
0000
0000
0000
0001
0000
0010
0000
0100
0000
1000
0001
,
1000
0010
1000
0000
0001
0010
0100
1000
,
0020
0000
0000
0200
0000
0000
0330
0002
,
2000
0000
0000
0000
0003
0100
3100
0000
,
1001
0000
0100
0000
0010
0000
0000
0000
0000
0000
1000
0000
1000
0000
0000
0001
,
0010
0000
0010
0100
1000
1000
0001
0001
,
0010
0001
0100
0000
0000
0010
0110
0000
,
2000
0000
3002
0000
1003
0100
0010
0001
,
0100
0000
0010
0000
1000
0000
0000
0000
0000
0000
0001
0000
0011
0000
0000
0010
,
0001
0000
0100
0001
0010
0010
0100
0100
,
1000
0010
0001
0000
1200
0000
1300
1000
,
0020
0000
0000
0230
0000
0000
0302
0000
0000
0000
0013
0000
0100
0000
1000
0000
,
0010
0000
1000
0000
0101
0000
0000
0000
0000
0000
0010
0000
0010
0000
0000
1000
,
0001
0000
0000
0001
0010
0000
0100
0000
1000
0000
1000
0000
0010
0000
0010
0000
,
0100
0000
0001
0000
1010
0000
0000
0000
0000
0000
0100
0000
0100
0000
0000
1000
,
0020
0000
0230
0000
0301
0010
0100
1000
,
0010
0000
1000
0000
0110
0000
0000
0000
0000
0000
0001
0000
0001
0000
0000
1000
,
0100
0000
0000
0100
0010
0000
0001
0000
2000
0000
3020
0000
0230
0000
0302
0000
,
0013
0100
1000
0000
0012
0000
0103
0100
,
0002
0000
0000
2003
0000
0000
3200
0000
0000
0000
1300
0000
0010
0000
0100
0000
,
2020
0000
0030
0000
0001
0000
3010
0010
,
1000
1000
1000
0001
0100
0100
0010
0010
,
0202
0000
0300
0000
0010
0000
0103
0100
,
0010
0010
0010
1000
0001
0001
0100
0100
,
2002
0000
0003
0000
0100
0000
3001
0001
,
1000
1000
1000
0010
1000
1000
0001
0001
,
0010
0001
0010
0100
1000
0010
1000
0001
,
0100
0000
0000
0100
0000
0000
0100
0000
0000
0000
0001
0000
1000
0000
0001
0000
,
2200
0000
3000
0000
0001
0000
1300
1000
,
0010
0010
0010
1000
0100
0100
0010
0010
,
0022
0000
0003
0000
1000
0000
0031
0001
,
0100
0100
0100
0001
1000
1000
0010
0010
,
0220
0000
0030
0000
1000
0000
0310
0010
,
1000
1000
1000
0001
0010
0010
0001
0001
,
0100
0010
1000
0001
1000
0010
0100
0001
,
0010
0000
0000
0011
0000
0000
1100
0000
0000
0000
1000
0000
0100
0000
0020
0000
,
0002
0000
0000
0000
,
0000
0000
0000
0000
,
0000
0000
0000
0000
,
0000
0000
0000
0033
;

//---------------dance-single - ----------------
#NOTES:
     dance-single:
     :
     Easy:
     9:
     0.361429,0.407024,0.349972,0.422882,0.007291,347.000000,299.000000,48.000000,58.000000,0.000000,0.000000,0.361429,0.407024,0.349972,0.422882,0.007291,347.000000,299.000000,48.000000,58.000000,0.000000,0.000000:
0000
0000
0000
0000
,
0000
0000
0000
0000
,
0000
0000
0000
0000
,
0000
0000
0000
0000
,
0001
0100
1000
0000
1001
0000
0010
0000
,
1000
0100
1001
0001
,
1000
0010
0001
0000
1001
0000
0100
0000
,
0010
0010
0010
1001
,
1000
0100
0010
0000
0110
0000
0001
0000
,
0100
0010
0110
1000
,
0001
0100
0010
0000
0110
0000
1000
0000
,
0100
0010
0110
0001
,
1000
0001
0100
0000
1001
0000
0010
0000
,
1000
0100
0110
0100
,
0010
0001
0100
0000
1001
0000
0100
0000
,
0001
0001
0001
0110
,
0010
1000
0100
0000
1100
0000
0001
0000
,
0100
0010
0101
1000
,
0001
0010
1000
0000
1010
0000
0001
0000
,
0100
0001
0011
1000
,
0001
0010
0100
0000
1100
0000
0010
0000
,
1000
0001
0011
0100
,
1000
0100
0001
0000
0101
0000
0100
0000
,
1000
1000
1000
1010
,
0220
0000
0000
0000
,
0000
0000
0000
0000
,
0000
0000
0000
0000
,
0000
0000
0000
0030
,
0302
0103
1000
0010
,
1000
0100
0010
0001
0000
0100
0010
0000
,
2000
3010
0100
0001
,
0010
0100
1000
0001
0000
1000
0100
0000
,
0020
0130
1000
0001
,
0100
0010
1000
0001
0000
0010
0001
0000
,
0200
0301
0010
1000
,
0001
0100
0010
1000
0000
0001
1000
0000
,
0010
1010
0010
1010
,
0001
0011
0001
0011
,
0100
0101
0100
0101
,
1000
1100
1000
1100
,
0010
0110
0100
0110
,
0001
1001
1000
1001
,
0020
0000
0000
0200
0000
0000
0330
0002
,
2000
0000
3003
1001
,
0010
0100
0010
0000
0000
0000
0120
0000
,
1000
1000
0001
0031
,
1000
0100
1000
0000
0000
0000
1001
0000
,
0020
2030
3002
0203
,
0310
1000
0010
0000
0000
0000
1002
0000
,
0100
0100
0010
0013
,
0001
1000
0001
0000
2010
0000
3010
0010
,
2000
0000
0001
0003
0100
0000
3010
0000
,
1000
0100
0010
0000
0000
0000
0021
0000
,
1000
1000
0001
0031
,
0100
0010
1000
0000
0000
0000
1100
0000
,
0002
2003
3020
0230
,
0310
1000
0001
0000
0000
0000
2001
0000
,
0100
3100
2000
3002
,
0013
0001
0100
0000
0102
0000
1003
1000
,
0020
0100
0001
1030
,
2200
0000
0300
0000
0001
0000
3001
0001
,
2000
0000
0000
3010
0100
0010
0100
0000
,
0202
0000
0300
0000
1000
0000
1003
1000
,
0020
0000
0000
0130
0001
0100
0001
0000
,
2002
0000
0003
0000
0100
0000
3100
0100
,
0020
0000
0000
0031
1000
0001
1000
0000
,
0020
0230
0302
2003
,
3200
0000
0000
0320
0000
0000
0032
0000
0000
0000
0000
0000
1003
0000
0000
0000
,
2020
0000
3000
0000
0100
0000
0130
0100
,
0002
0000
0000
1003
0100
1000
0100
0000
,
0022
0000
0030
0000
1000
0000
1003
1000
,
0020
0000
0000
1030
0001
1000
0001
0000
,
0220
0000
0030
0000
0010
0000
0310
0010
,
2000
0000
0000
3001
0010
0001
0010
0000
,
2000
3002
0023
0230
,
1300
0000
0000
1000
0000
0000
1000
0000
0000
0000
0000
0000
0100
0000
0000
0000
,
0002
0000
0000
0000
,
0000
0000
0000
0000
,
0000
0000
0000
0000
,
0000
0000
0000
0003
;

//---------------dance-single - ----------------
#NOTES:
     dance-single:
     :
     Beginner:
     5:
     0.166653,0.290732,0.102075,0.174986,0.000000,160.000000,146.000000,14.000000,24.000000,0.000000,0.000000,0.166653,0.290732,0.102075,0.174986,0.000000,160.000000,146.000000,14.000000,24.000000,0.000000,0.000000:
// measure 0
0000
0000
0000
0000
,  // measure 1
0000
0000
0000
0000
,  // measure 2
0000
0000
0000
0000
,  // measure 3
0000
0000
0000
0000
,  // measure 4
0001
0001
0001
0000
,  // measure 5
1000
0000
0010
0000
,  // measure 6
1000
1000
1000
0000
,  // measure 7
0020
0000
0030
0000
,  // measure 8
0200
0000
0300
0000
,  // measure 9
0002
0000
0003
0000
,  // measure 10
1000
1000
1000
0000
,  // measure 11
0001
0000
0100
0000
,  // measure 12
0010
0010
0010
0000
,  // measure 13
1000
1000
1000
0000
,  // measure 14
0001
0001
0001
0000
,  // measure 15
0100
0000
0010
0000
,  // measure 16
2000
0000
3000
0000
,  // measure 17
0002
0000
0003
0000
,  // measure 18
0010
0010
0010
0000
,  // measure 19
0001
0000
0100
0000
,  // measure 20
0001
0001
0001
0000
,  // measure 21
1000
1000
1000
0000
,  // measure 22
0100
0100
0100
0000
,  // measure 23
0010
0000
0001
0000
,  // measure 24
0200
0000
0000
0000
,  // measure 25
0000
0000
0000
0000
,  // measure 26
0000
0000
0000
0000
,  // measure 27
0300
0000
0000
0000
,  // measure 28
0001
0001
0001
0000
,  // measure 29
1000
0000
1000
0000
,  // measure 30
0010
0010
0010
0000
,  // measure 31
0100
0000
0100
0000
,  // measure 32
1000
1000
1000
0000
,  // measure 33
0010
0000
0010
0000
,  // measure 34
0100
0100
0100
0000
,  // measure 35
0001
0000
0001
0000
,  // measure 36
1001
0000
1001
0000
,  // measure 37
1001
0000
1001
0000
,  // measure 38
0110
0000
0110
0000
,  // measure 39
0110
0000
0110
0000
,  // measure 40
1000
1000
1000
0000
,  // measure 41
0001
0001
0001
0000
,  // measure 42
0200
0000
0300
0000
,  // measure 43
0020
0000
0030
0000
,  // measure 44
1000
1000
0000
0000
,  // measure 45
0001
0001
0001
0000
,  // measure 46
0010
0010
0000
0000
,  // measure 47
0100
0100
0100
0000
,  // measure 48
0010
0010
0000
0000
,  // measure 49
0001
0001
0001
0000
,  // measure 50
1000
1000
0000
0000
,  // measure 51
0200
0000
0300
0000
,  // measure 52
0010
0010
0000
0000
,  // measure 53
0001
0001
0001
0000
,  // measure 54
0100
0100
0000
0000
,  // measure 55
0010
0010
0010
0000
,  // measure 56
1000
1000
0000
0000
,  // measure 57
0001
0001
0001
0000
,  // measure 58
1000
1000
0000
0000
,  // measure 59
0020
0000
0030
0000
,  // measure 60
2001
0000
3001
0000
,  // measure 61
0200
0000
0300
0000
,  // measure 62
0210
0000
0310
0000
,  // measure 63
2000
0000
3000
0000
,  // measure 64
1002
0000
1003
0000
,  // measure 65
0020
0000
0030
0000
,  // measure 66
1000
0000
0001
0000
,  // measure 67
0100
0100
0100
0000
,  // measure 68
0120
0000
0130
0000
,  // measure 69
0002
0000
0003
0000
,  // measure 70
2001
0000
3001
0000
,  // measure 71
0020
0000
0030
0000
,  // measure 72
0120
0000
0130
0000
,  // measure 73
2000
0000
3000
0000
,  // measure 74
0001
0001
0001
0000
,  // measure 75
0020
0000
0030
0000
,  // measure 76
0002
0000
0000
0000
,  // measure 77
0000
0000
0000
0000
,  // measure 78
0000
0000
0000
0000
,  // measure 79
0000
0000
0000
0003
;
