#TITLE:Let's talk it over;
#SUBTITLE:;
#ARTIST:SHIN Murayama feat.Argie Phine;
#TITLETRANSLIT:;
#SUBTITLETRANSLIT:;
#ARTISTTRANSLIT:;
#GENRE:;
#CREDIT:;
#BANNER:Let's talk it over.png;
#BACKGROUND:Let's talk it over-bg.png;
#LYRICSPATH:;
#CDTITLE:;
#MUSIC:Let's talk it over.ogg;
#OFFSET:0.000000;
#SAMPLESTART:61.500000;
#SAMPLELENGTH:20.000000;
#SELECTABLE:YES;
#DISPLAYBPM:100.000000;
#BPMS:0.000000=100.000000
;
#STOPS:
;
#BGCHANGES:;
#KEYSOUNDS:;
#ATTACKS:;

//---------------dance-single - ----------------
#NOTES:
     dance-single:
     :
     Easy:
     4:
     0.148811,0.157409,0.000000,0.000000,0.000000,90.000000,90.000000,0.000000,0.000000,0.000000,0.000000,0.148811,0.157409,0.000000,0.000000,0.000000,90.000000,90.000000,0.000000,0.000000,0.000000,0.000000:
0000
0000
0000
0000
,
0000
0000
0000
0000
,
0000
0000
0000
0000
,
1000
0100
0001
0100
,
0000
0001
0000
0001
,
0000
1000
0100
0010
,
0000
0010
0001
0001
,
1000
0100
0001
0100
,
0000
0001
0000
0001
,
0000
1000
0010
0100
,
0001
0000
0001
0000
,
1000
0010
0100
0010
,
1000
0000
1000
0000
,
0001
0100
0010
1000
,
0001
0000
0001
0000
,
1000
0100
0010
0001
,
1000
0000
0100
0000
,
0010
0010
0010
0010
,
0001
0000
0001
0000
,
1000
0000
1000
0000
,
0100
0000
0100
0000
,
0010
0001
0100
0000
,
0010
0000
0010
0000
,
1000
0000
1000
0000
,
0100
0010
0001
0100
,
0010
0000
0010
0000
,
1000
1000
1000
0000
,
0001
0001
0001
0000
,
0010
0010
0100
0000
,
0010
0100
0010
0000
,
0001
0001
0001
0000
,
1000
1000
1000
0000
,
0010
0100
0001
0000
,
1000
0100
0010
0001
,
1000
0000
0000
0000
;

//---------------dance-single - ----------------
#NOTES:
     dance-single:
     :
     Medium:
     7:
     0.256286,0.275466,0.000000,0.000000,0.000000,155.000000,155.000000,0.000000,0.000000,0.000000,0.000000,0.256286,0.275466,0.000000,0.000000,0.000000,155.000000,155.000000,0.000000,0.000000,0.000000,0.000000:
0000
0000
0000
0000
,
0000
0000
0000
0000
,
0000
0000
0000
0000
,
1000
0100
0010
0001
,
1000
1000
1000
0000
0001
0001
0001
0000
,
1000
0100
0001
0100
,
0010
0010
0100
0100
,
0001
0010
0100
1000
,
0001
0001
0001
0000
1000
1000
1000
0000
,
0001
0010
1000
0010
,
0100
0000
0001
0010
0001
0000
1000
0000
,
0010
0000
0100
0001
0100
0000
0010
0000
,
1000
0000
0100
0010
0100
0000
1000
0000
,
0001
0100
1000
0100
,
0010
0000
0001
1000
0001
0000
0100
0000
,
0010
0000
1000
0100
1000
0000
0001
0000
,
0100
0000
0010
1000
0010
0000
0100
0000
,
0001
0000
1000
0100
0010
0001
0100
0000
,
0010
1000
0100
0010
,
0001
0000
1000
0000
0010
0100
0010
0000
,
1000
0100
0010
0001
,
0100
0010
0100
0000
0001
1000
0100
0000
,
0010
0001
1000
0010
,
0100
0000
0001
0000
1000
0100
1000
0000
,
0001
0100
0010
1000
,
0100
0000
0010
0001
0100
0000
0010
0000
,
1000
1000
1000
0000
0100
0000
0010
0000
,
0001
0001
1000
1000
0010
0010
0100
0100
,
0001
1000
0100
0001
,
0100
0000
0010
0000
1000
0100
1000
0000
,
0001
0001
0001
0000
0100
0000
0010
0000
,
1000
1000
0100
0100
0010
0010
0001
0001
,
1000
0000
0100
0000
0001
0100
0010
0000
,
1000
0000
0001
0000
0010
0100
0010
0000
,
0001
0000
0000
0000
;

//---------------dance-single - ----------------
#NOTES:
     dance-single:
     :
     Hard:
     9:
     0.322424,0.334495,0.023148,0.000000,0.023148,195.000000,193.000000,2.000000,0.000000,0.000000,0.000000,0.322424,0.334495,0.023148,0.000000,0.023148,195.000000,193.000000,2.000000,0.000000,0.000000,0.000000:
0000
0000
0000
0000
,
0000
0000
0000
0000
,
0000
0000
0000
0000
,
1000
0100
0010
0001
0100
0010
1000
0000
,
0001
0100
0010
0000
1000
0100
0010
0000
,
0001
1000
0100
0010
0001
0100
0010
0000
,
1000
0001
0001
0100
0010
1000
0100
0000
,
0010
0001
0100
0010
1000
0100
1000
0000
,
0001
0100
0100
0000
1000
0100
0100
0000
,
0000
1001
0000
0110
0000
1000
0001
0100
,
0010
0000
1000
0000
0100
0000
0010
0000
0001
0000
0000
0100
0000
0000
0000
0000
,
0010
0000
1000
0000
0100
0000
0010
0000
0001
0000
0000
1000
0000
0000
0000
0000
,
0010
0000
0100
0001
0010
0100
1000
0001
,
0010
0010
0100
0100
1000
0010
0100
0001
,
0010
0000
0100
0000
1000
0000
0001
0000
0100
0000
0000
0010
0000
0000
0000
0000
,
1000
0000
0100
0000
0010
0000
0001
0000
0100
0000
0000
0010
0000
0000
0000
0000
,
1000
0000
0100
0010
0001
0100
0010
1000
,
0100
0100
0010
0010
0001
1000
0010
0100
,
0001
0000
1000
0000
0100
0010
0001
0000
,
1000
0000
0010
0000
0100
0001
0010
0000
,
0100
0000
1000
0001
0100
0010
1000
0001
,
0010
0000
0100
1000
0001
0000
0100
0000
,
0010
0000
1000
0100
0010
0001
0100
0000
,
0010
0000
1000
0100
1000
0000
0001
0000
,
0100
0100
0010
0010
1000
1000
0100
0100
,
0010
0000
0001
1000
0010
0000
0100
0000
,
0001
0010
0100
1000
0001
0000
0100
0000
,
1000
0100
0010
0001
0100
0000
0010
0000
,
0001
0000
1000
0100
0010
0000
0001
0000
,
1000
0100
1000
0000
0001
0100
0001
0000
,
1000
0010
0100
0001
0010
0000
0100
0000
,
1000
0010
0100
0001
0010
0000
0100
0000
,
1000
0000
0001
0100
0001
0000
1000
0000
,
0100
0010
0001
0000
0100
0010
1000
0100
,
0010
0000
0000
0000
;

//---------------dance-double - ----------------
#NOTES:
     dance-double:
     :
     Easy:
     4:
     0.124009,0.137733,0.000000,0.000000,0.000000,75.000000,75.000000,0.000000,0.000000,0.000000,0.000000,0.124009,0.137733,0.000000,0.000000,0.000000,75.000000,75.000000,0.000000,0.000000,0.000000,0.000000:
00000000
00000000
00000000
00000000
,
00000000
00000000
00000000
00000000
,
00000000
00000000
00000000
00000000
,
00000000
10000000
00010000
01000000
,
00000000
00001000
00000000
00010000
,
00000000
00000100
00001000
00000001
,
00000000
00000100
00000000
00000010
,
00000000
00010000
00001000
01000000
,
00000000
00010000
00000000
10000000
,
00000000
01000000
00100000
00001000
,
00010000
00000000
00000100
00000000
,
00000010
00000000
00000001
00000000
,
00001000
00001000
00001000
00000000
,
00000010
00000010
00000010
00000000
,
00010000
00000000
00001000
00000000
,
00100000
00000000
00010000
00000000
,
10000000
10000000
10000000
00000000
,
01000000
00000000
00100000
00000000
,
00001000
00000000
00001000
00000000
,
00010000
00000000
00010000
00000000
,
00000100
00000000
00000100
00000000
,
00000010
00000000
00000001
00000000
,
00001000
00000000
00001000
00000000
,
00000100
00000000
00000100
00000000
,
00010000
00000000
00001000
00000000
,
00100000
00000000
01000000
00000000
,
10000000
10000000
10000000
00000000
,
00010000
00000000
01000000
00000000
,
00001000
00001000
00001000
00000000
,
00010000
00000000
00000100
00000000
,
00000010
00000010
00000010
00000000
,
00000001
00000000
00001000
00000000
,
00000100
00000100
00000100
00000000
,
00010000
00000000
00001000
00010000
,
00001000
00000000
00000000
00000000
;

//---------------dance-double - ----------------
#NOTES:
     dance-double:
     :
     Medium:
     7:
     0.223217,0.236114,0.000000,0.000000,0.000000,135.000000,135.000000,0.000000,0.000000,0.000000,0.000000,0.223217,0.236114,0.000000,0.000000,0.000000,135.000000,135.000000,0.000000,0.000000,0.000000,0.000000:
00000000
00000000
00000000
00000000
,
00000000
00000000
00000000
00000000
,
00000000
00000000
00000000
00000000
,
00010000
00000000
00010000
00000000
00001000
00010000
00001000
00000000
,
01000000
00100000
10000000
00010000
,
01000000
00000000
00001000
00000000
00010000
00000100
00001000
00000010
,
00000100
00000100
00000001
00000001
,
00001000
00000000
00001000
00000000
00000100
00010000
00001000
00000000
,
00100000
00100000
00010000
00010000
,
10000000
00000000
01000000
00100000
00010000
01000000
00001000
00000000
,
00010000
00000000
00010000
00010000
00010000
00000000
00000000
00000000
,
00000100
00000000
00001000
00001000
00001000
00000000
00000000
00000000
,
00000001
00000000
00000100
00000100
00000100
00000000
00000000
00000000
,
00000010
00000000
00010000
00000000
00001000
00010000
00001000
00000000
,
00100000
00000000
00010000
00010000
00010000
00000000
00000000
00000000
,
10000000
00000000
01000000
01000000
01000000
00000000
00000000
00000000
,
00100000
00000000
00001000
00001000
00001000
00000000
00000000
00000000
,
00010000
00000000
00000100
00000000
00000010
00000001
00000100
00000010
,
00001000
00001000
00001000
00000000
,
00000100
00000100
00000100
00000000
,
00010000
00010000
00010000
00000000
,
00001000
00001000
00010000
00010000
00001000
00001000
00010000
00000000
,
00000100
00000100
00000100
00000000
,
00001000
00001000
00001000
00000000
,
00000010
00000010
00010000
00010000
00001000
00001000
01000000
00000000
,
00010000
00000000
10000000
01000000
00100000
00000000
00000000
00000000
,
00001000
00000000
00010000
00000100
00001000
00000000
00000000
00000000
,
00000001
00000100
00000010
00001000
,
00000100
00000000
00010000
00001000
00100000
00000000
00000000
00000000
,
00010000
10000000
01000000
00100000
,
00010000
00000000
01000000
00001000
00010000
00000000
00000000
00000000
,
00000010
00001000
00000001
00000100
,
00000010
00000000
00001000
00000100
00010000
00000000
00000000
00000000
,
00001000
00100000
00010000
01000000
,
00001000
00000000
00000000
00000000
;

//---------------dance-double - ----------------
#NOTES:
     dance-double:
     :
     Hard:
     9:
     0.335652,0.334495,0.000000,0.000000,0.000000,203.000000,203.000000,0.000000,0.000000,0.000000,0.000000,0.335652,0.334495,0.000000,0.000000,0.000000,203.000000,203.000000,0.000000,0.000000,0.000000,0.000000:
00000000
00000000
00000000
00000000
,
00000000
00000000
00000000
00000000
,
00000000
00000000
00000000
00000000
,
10000000
01000000
10000000
01000000
10000000
01000000
10000000
01000000
,
00100000
00010000
01000000
00001000
00010000
00000100
00000010
00000001
,
00000100
00000010
00001000
00000100
00010000
00000000
00010000
00000000
,
00001000
00100000
00010000
10000000
00100000
01000000
00010000
10000000
,
01000000
00100000
00010000
01000000
00001000
00010000
00000100
00000010
,
00000001
00000100
00000010
00001000
00000100
00000000
00000010
00000000
,
00000001
00000100
00000010
00001000
00000100
00010000
00001000
00100000
,
01000000
10000000
00100000
01000000
00010000
00000000
10000000
00000000
,
00100000
01000000
00001000
00010000
00000100
00000000
00001000
00000000
,
00000001
00000100
00000010
00001000
00000100
00000000
00010000
00000000
,
00001000
00001000
00100000
00100000
00010000
10000000
01000000
00000000
,
00100000
00001000
00010000
00000100
00000010
00000000
00000001
00000000
,
00001000
00000010
00010000
00001000
01000000
00000000
00010000
00000000
,
10000000
01000000
00100000
00010000
01000000
00001000
00010000
00000100
,
00000010
00000001
00001000
00000000
,
00000100
00000100
00010000
00010000
00001000
00000000
00100000
00000000
,
00010000
00010000
10000000
10000000
01000000
00000000
00100000
00000000
,
00001000
00001000
00010000
00010000
00000100
00000000
00000010
00000000
,
00000001
00000001
00000100
00000100
00000010
00000010
00010000
00010000
,
00001000
00001000
00100000
00100000
00010000
00000000
10000000
00000000
,
01000000
01000000
00100000
00100000
00001000
00000000
00010000
00000000
,
00000100
00000100
00000010
00000010
00000001
00000000
00001000
00000000
,
00000010
00000010
00000000
00000000
00010000
00001000
00010000
00001000
,
00100000
00010000
10000000
00100000
01000000
00000000
01000000
00000000
,
00001000
00010000
00000100
00000010
00000001
00000000
00000001
00000000
,
00001000
00000100
00010000
00001000
00100000
00000000
00100000
00000000
,
00010000
10000000
00100000
01000000
00001000
00010000
00000100
00000010
,
00000001
00001000
00000100
00010000
00001000
00000000
00001000
00000000
,
00100000
00010000
10000000
00100000
01000000
00000000
01000000
00000000
,
00001000
00010000
00000100
00000010
00000001
00000000
00000001
00000000
,
00000100
00000010
00001000
00000100
00010000
00001000
00100000
00010000
,
10000000
00000000
00000000
00000000
;

//---------------dance-couple - ----------------
#NOTES:
     dance-couple:
     :
     Medium:
     1:
     0.148811,0.255790,0.000000,0.000000,0.000000,90.000000,90.000000,0.000000,0.000000,0.000000,0.000000,0.148811,0.275466,0.000000,0.000000,0.000000,90.000000,90.000000,0.000000,0.000000,0.000000,0.000000:
00000000
00000000
00000000
00000000
,
00000000
00000000
00000000
00000000
,
00000000
00000000
00000000
00000000
,
10000000
01000000
00100000
00010000
,
00000001
00000001
00000001
00000000
10000000
10000000
10000000
00000000
,
00001000
00000010
00000001
00000010
,
01000000
01000000
00000100
00000100
,
10000000
00100000
01000000
00010000
,
00001000
00001000
00001000
00000000
10000000
10000000
10000000
00000000
,
00000001
00000010
00001000
00000010
,
00010100
00000000
00010000
00000000
,
10000100
00100000
01000000
00100000
,
10000100
00000000
10000000
00000000
,
00010100
01000000
00100000
10000000
,
01000001
00000000
00000001
00000000
,
01001000
00000010
00000100
00000010
,
01001000
00000000
00001000
00000000
,
01000001
00000100
00000010
00001000
,
00010001
00100000
01000000
10000000
,
00010001
00000000
01000000
00000000
00100000
10000000
00100000
00000000
,
01000001
00010000
00100000
01000000
,
10000001
00010000
10000000
00000000
01000000
00100000
00010000
00000000
,
10000010
00000100
00001000
00000001
,
10000100
00000010
00000100
00000000
00000001
00001000
00000100
00000000
,
10000010
00000001
00001000
00000100
,
10000010
00000000
00000001
00000100
00000001
00000000
00001000
00000000
,
00010001
00100000
01000000
10000000
00010001
00000000
01000000
00000000
,
10000001
01000000
00100000
00010000
01000001
00000000
00100000
00000000
,
00010001
00000000
10000000
01000000
00100001
00000000
00010000
00000000
,
10000001
01000000
10000000
00000000
00011000
01000100
00011000
00000000
,
10000001
00000010
00000100
00001000
10000010
00000000
00000100
00000000
,
10000001
00000010
00000100
00001000
10000010
00000000
00000100
00000000
,
10000001
00000000
00001000
00000100
10001000
00000000
00000001
00000000
,
10000100
00000010
00001000
00000000
01000100
00100010
00010001
01000100
,
00100010
00000000
00000000
00000000
;

//---------------dance-solo - ----------------
#NOTES:
     dance-solo:
     :
     Easy:
     2:
     0.115742,0.137733,0.000000,0.000000,0.000000,70.000000,70.000000,0.000000,0.000000,0.000000,0.000000,0.115742,0.137733,0.000000,0.000000,0.000000,70.000000,70.000000,0.000000,0.000000,0.000000,0.000000:
000000
000000
000000
000000
,
000000
000000
000000
000000
,
000000
000000
000000
000000
,
000000
010000
010000
010000
,
000000
000001
000000
000001
,
000000
001000
000000
001000
,
000000
000010
000000
000010
,
000000
000100
000100
000100
,
000000
100000
000000
100000
,
000000
000010
010000
010000
,
000001
000000
000000
000000
,
000100
000000
000100
000000
,
001000
100000
000100
000000
,
001000
000000
001000
000000
,
000010
000000
000000
000000
,
100000
000000
100000
000000
,
000001
010000
001000
000000
,
000100
000100
000100
000000
,
000001
000000
010000
000000
,
000010
000000
100000
000000
,
000100
000000
001000
000000
,
000010
100000
000001
010000
,
001000
000000
001000
000000
,
000100
000000
000100
000000
,
000001
000001
000001
000000
,
100000
000000
100000
000000
,
000010
000010
000000
000000
,
001000
000000
001000
000000
,
000100
000000
100000
000000
,
000010
000000
010000
000000
,
000001
000001
000000
000000
,
000100
000000
000010
000000
,
010000
000000
000100
000000
,
100000
000000
001000
000000
,
000100
000000
000000
000000
;

//---------------dance-solo - ----------------
#NOTES:
     dance-solo:
     :
     Medium:
     5:
     0.205029,0.196762,0.000000,0.000000,0.000000,124.000000,124.000000,0.000000,0.000000,0.000000,0.000000,0.205029,0.196762,0.000000,0.000000,0.000000,124.000000,124.000000,0.000000,0.000000,0.000000,0.000000:
000000
000000
000000
000000
,
000000
000000
000000
000000
,
000000
000000
000000
000000
,
000000
000000
010000
000000
000001
001000
000001
000000
,
000000
100000
001000
000100
,
000001
000000
001000
000000
000100
100000
001000
000000
,
000000
010000
000001
000001
,
000000
000000
100000
000000
000010
001000
000010
000000
,
000000
100000
001000
000100
,
000001
000000
001000
000000
000010
100000
000010
000000
,
001000
000000
000100
000100
,
100000
001000
010000
000000
000001
000000
000001
000000
,
000100
000000
001000
000000
,
010000
000001
001000
000000
000100
000000
000100
000000
,
100000
000000
000010
000010
,
010000
000001
000100
000000
001000
000000
001000
000000
,
100000
000000
000001
000000
,
010000
000010
000100
000000
,
000001
001000
000010
000000
100000
000000
000000
000000
,
000100
010000
000010
000000
000100
000000
000000
000000
,
000001
001000
000100
000000
100000
000000
000000
000000
,
001000
010000
000001
000000
000100
000000
000100
000000
,
000010
010000
000100
000000
001000
000000
000000
000000
,
000001
100000
001000
000000
010000
000000
000000
000000
,
000100
100000
000001
000000
000100
000000
000100
000000
,
000010
000000
010000
000001
,
100000
000000
001000
000100
001000
000000
010000
000000
,
000001
000001
001000
001000
,
000010
000000
100000
000100
100000
000000
000000
000000
,
001000
000000
010000
000001
010000
000000
000000
000000
,
000010
000000
001000
000100
001000
000000
000001
000000
,
100000
100000
001000
001000
,
010000
000000
000001
000100
000001
000000
000000
000000
,
010000
000000
000010
000100
000010
000000
001000
000000
,
000100
000000
000000
000000
;

//---------------dance-solo - ----------------
#NOTES:
     dance-solo:
     :
     Hard:
     7:
     0.333999,0.314818,0.000000,0.000000,0.000000,202.000000,202.000000,0.000000,0.000000,0.000000,0.000000,0.333999,0.314818,0.000000,0.000000,0.000000,202.000000,202.000000,0.000000,0.000000,0.000000,0.000000:
000000
000000
000000
000000
,
000000
000000
000000
000000
,
000000
000000
000000
000000
,
000000
010000
000001
001000
000100
100000
001000
000100
,
000001
010000
000010
100000
000100
000000
001000
000000
,
000001
000100
001000
010000
000001
000000
100000
000000
,
000010
001000
000100
100000
001000
000000
010000
000000
,
000000
000001
000100
000010
010000
000100
100000
001000
,
000100
000001
010000
000010
100000
000000
001000
000000
,
000100
000001
010000
000100
100000
001000
000100
000001
,
100000
000100
001000
000010
100000
000000
000001
000000
,
000100
001000
010000
000001
100000
000000
000010
000000
,
001000
001000
000100
000100
100000
001000
010000
000000
,
000001
000100
001000
010000
000001
100000
000100
000000
,
001000
000010
100000
001000
000100
000000
000001
000000
,
010000
000010
001000
000100
100000
000000
000001
000000
,
010000
010000
000010
000010
000100
000001
001000
000100
,
100000
001000
010000
000000
,
000001
000001
000100
000100
000010
000000
010000
000000
,
000100
000100
100000
100000
000010
000000
010000
000000
,
000001
000001
100000
100000
001000
000000
000100
000000
,
000001
000001
001000
001000
000100
000100
100000
100000
,
000010
000010
010000
010000
000001
000000
000100
000000
,
001000
001000
010000
010000
000001
000000
100000
000000
,
000100
000100
001000
001000
000010
000010
100000
100000
,
000001
000001
000000
000000
000100
000000
001000
000000
,
010000
000001
100000
000010
001000
000100
100000
000000
,
000010
010000
001000
000100
000001
001000
000100
000000
,
100000
001000
010000
000000
000001
001000
000010
000000
,
100000
001000
000100
000001
010000
000010
001000
000100
,
100000
001000
010000
000001
000100
000010
001000
000000
,
000100
100000
001000
010000
000001
100000
000010
000000
,
001000
000100
100000
000000
001000
010000
000001
000000
,
000100
000010
010000
000100
001000
000001
000100
001000
,
010000
000000
000000
000000
;

//---------------dance-single - ----------------
#NOTES:
     dance-single:
     :
     Beginner:
     2:
     0.084326,0.098381,0.034723,0.000000,0.000000,51.000000,48.000000,3.000000,0.000000,0.000000,0.000000,0.084326,0.098381,0.034723,0.000000,0.000000,51.000000,48.000000,3.000000,0.000000,0.000000,0.000000:
0000
0000
0000
0000
,
0000
0000
0000
0000
,
0000
0000
0000
0000
,
0000
0000
0000
0000
,
0001
0000
0000
0000
,
1000
0000
0000
0000
,
0010
0000
0010
0000
,
0100
0000
0100
0000
,
0001
0000
0000
0000
,
1000
0000
0000
0000
,
0010
0000
1000
0000
,
0010
0000
0100
0000
,
0001
0000
1000
0000
,
0001
0000
0010
0000
,
0100
0000
1000
0000
,
0001
0000
0100
0000
,
0010
0000
0100
0000
,
0001
0000
1000
0000
,
0100
0000
0010
0000
,
0100
0000
0000
0000
,
1000
0000
0001
0000
,
1000
0000
0010
0000
,
0000
0000
0001
0000
,
1000
0000
0100
0000
,
0000
0000
0010
0000
,
0001
0000
0100
0000
,
1001
0000
0000
0000
,
1000
0000
0001
0000
,
1000
0000
0000
0000
,
0010
0000
0000
0000
,
0110
0000
0000
0000
,
0001
0000
0100
0000
,
1000
0000
0000
0000
,
0001
0000
0000
0000
,
1001
0000
0000
0000
;

//---------------dance-single - ----------------
#NOTES:
     dance-single:
     :
     Challenge:
     12:
     0.500998,0.526626,0.381949,0.277781,0.474543,303.000000,270.000000,33.000000,24.000000,0.000000,0.000000,0.500998,0.526626,0.381949,0.277781,0.474543,303.000000,270.000000,33.000000,24.000000,0.000000,0.000000:
// measure 0
0000
0000
0000
0000
,  // measure 1
0000
0000
0000
0000
,  // measure 2
0000
0000
0000
0000
,  // measure 3
0000
0000
0000
0000
,  // measure 4
0001
0000
1000
0001
0000
0000
0100
0000
0000
0100
0000
0000
0100
0000
1000
0010
0000
0000
1000
0000
0001
0100
0000
0001
,  // measure 5
0100
0000
0000
0110
0000
0000
0001
0000
0000
1000
0000
0000
1100
0000
0000
0001
0000
0000
1000
0000
0010
0100
0000
0001
,  // measure 6
0000
0000
0010
0100
0000
0000
1000
0000
0000
1000
0000
0000
1000
0000
0000
0001
0000
0010
0000
0000
0001
0100
0000
0010
,  // measure 7
0000
0000
0010
1000
0000
0000
1001
0000
0000
0010
0000
0000
0101
0000
0000
1000
0000
0000
1100
0000
0000
0010
0000
0100
,  // measure 8
0000
0000
0001
0100
0000
0000
0010
0000
0000
0010
0000
0000
0010
0000
1000
0100
0000
0000
1000
0000
0001
0100
0000
0001
,  // measure 9
0100
0110
1000
0100
0011
0001
1100
0000
,  // measure 10
1001
0000
0000
0010
0000
0000
0010
0000
0000
1000
0000
0000
0002
0000
0000
0000
0000
0103
0000
0000
0010
1000
0000
0001
,  // measure 11
1000
0000
0100
0000
0000
0010
0000
0000
0002
1000
0000
0000
0023
0000
0000
0100
0000
0000
0130
0000
0000
1000
0000
0002
,  // measure 12
0000
0000
0000
0010
0000
0000
0013
0000
0000
0001
0000
0000
0201
0000
0000
0000
0000
0000
0310
0000
1000
0000
0000
1100
,  // measure 13
0000
0000
0000
0001
0000
0000
1000
0000
0000
0010
0000
0200
0000
0000
0001
0000
0000
0000
0310
0000
0000
1000
0000
0100
,  // measure 14
0000
0000
0100
1000
0000
0000
1000
0000
0000
0001
0000
0000
0210
0000
0000
0000
0000
0301
0000
0000
1000
0010
0000
0000
,  // measure 15
0100
0000
0001
0000
0000
0010
0000
0000
0200
1000
0000
0000
0301
0000
0200
0000
0000
0000
1300
0000
0010
0000
0000
1002
,  // measure 16
0000
0000
0000
0100
0000
0000
0103
0000
0000
0010
0000
0000
2000
0000
0000
3001
0000
0000
0010
0000
0000
0100
0000
1000
,  // measure 17
0000
0000
0000
0001
0000
0000
0010
0000
0001
0000
0000
0200
0000
0000
0310
2000
0000
0000
3001
0000
1000
0010
0000
0000
,  // measure 18
0201
0000
0000
0000
0000
0000
1000
0000
0000
1000
0000
0000
0301
0000
0000
0000
0000
0000
0011
0000
0000
0000
0000
0010
,  // measure 19
0100
0000
1000
0001
0000
0000
1020
0000
0000
0001
0000
0000
0001
0000
0000
0000
0000
0000
0130
0000
0000
0000
0000
0010
,  // measure 20
2000
0000
0000
0000
0000
0000
0100
0000
0000
0100
0000
0000
3100
0000
0000
1000
0000
0000
1000
0000
0000
0001
0000
0100
,  // measure 21
0010
0000
0000
0000
0000
0000
1001
0000
0000
0100
0000
0020
0000
0000
0000
1000
0000
0000
1030
0000
0001
1000
0000
0010
,  // measure 22
0000
0000
1000
0001
0000
0000
0011
0000
0000
0110
0000
0000
1100
0000
0000
0010
0000
0000
1000
0000
0000
0001
0000
0100
,  // measure 23
0020
0000
0000
0000
0000
0000
1030
0000
0000
0001
0000
0000
0200
0000
0000
0000
0000
0000
0310
0000
1000
0100
0000
0010
,  // measure 24
0002
0000
0000
0000
0000
0000
0100
0000
0000
0100
0000
0000
0103
0000
0000
0010
0000
0000
0010
0000
0000
1000
0000
0001
,  // measure 25
0100
0000
0000
0000
0000
0100
0010
0000
0000
1000
0000
0010
0000
0000
1000
0001
0000
0000
0001
0000
0000
0001
0000
0100
,  // measure 26
0000
0000
0100
0010
0000
0000
0010
0000
0000
1000
0000
0000
0110
0000
0000
0000
0000
0000
1001
0000
0000
0000
0000
0001
,  // measure 27
0010
0000
0010
0100
0000
0000
1100
0000
0000
1001
0000
0000
0102
0000
0000
1000
0000
0000
0103
0000
0000
0001
0000
0010
,  // measure 28
0000
0000
0001
1000
0000
0000
0010
0000
0000
0010
0000
0000
1100
0000
0000
0000
0000
0001
0100
0000
0010
0100
0000
0001
,  // measure 29
0000
0000
1000
0100
0000
0000
0010
0000
0000
0010
0000
0000
0001
0000
0001
0100
0000
0100
0010
0000
1000
0001
0000
0100
,  // measure 30
0000
0000
1000
0010
0000
0000
0001
0000
0000
0001
0000
0000
0011
0000
0000
0000
0000
0000
1010
0000
0000
0000
0000
0100
,  // measure 31
1000
0000
1000
0001
0000
0000
0011
0000
0000
0110
0000
0000
1200
0000
0000
0001
0000
0000
1300
0000
0000
0010
0000
0100
,  // measure 32
0000
0000
0001
0010
0000
0000
0100
0000
0000
0100
0000
0000
1001
0000
0000
0000
0000
0001
1000
0000
0010
1000
0000
0001
,  // measure 33
0000
0000
0010
0100
0000
0000
1000
0000
0000
1000
0000
0000
1010
0000
0000
0000
0000
0000
0001
0000
1000
0010
0000
2000
,  // measure 34
0002
0000
0000
0000
,  // measure 35
3003
0000
0000
0000
;
