#TITLE:Let's Get Loud;
#ARTIST:Jennifer Lopez;
#BANNER:Let's Get Loud-bn.png;
#BACKGROUND:Let's Get Loud-bg.png;
#JACKET:Let's Get Loud-jacket.png;
#MUSIC:Let's Get Loud.ogg;
#OFFSET:0.458;
#SAMPLESTART:15.115;
#SAMPLELENGTH:20;
#DISPLAYBPM:131;
#BPMS:0=131;
#BGCHANGES:;

//---------------dance-single - ----------------
#NOTES:
     dance-single:
     :
     Beginner:
     4:
     :
0000
0000
0000
0000
,
0000
0000
0000
0000
,
0000
0000
0000
0000
,
0000
0000
0000
0000
,
0000
0000
0000
0000
,
1000
1000
1000
0000
,
0010
0000
0100
0000
,
0001
0001
0000
0100
,
0100
0000
0010
0010
,
0010
0000
1000
0000
,
1001
0000
0000
0000
,
0010
0010
0010
0000
,
1000
0000
0100
0100
,
0100
0000
1000
0000
,
0110
0000
0000
0000
,
0010
0010
0010
0000
,
0001
0000
1000
1000
,
1000
0000
0010
0000
,
1001
0000
0000
0000
,
0100
0100
0100
0000
,
0001
0001
0001
0000
,
0010
0000
0001
0000
,
0100
0000
1000
0000
,
0010
0010
0010
0000
,
1000
0000
0001
0000
,
1000
0000
0010
0000
,
0100
0000
0001
0000
,
0100
0100
0100
0000
,
0010
0000
1000
0000
,
0001
0001
0000
0000
,
1000
1000
0000
0000
,
1000
1000
0000
0000
,
0001
0001
0000
0000
,
0100
0100
0000
0000
,
0010
0010
0000
0000
,
0010
0010
0000
0000
,
0100
0100
0000
0000
,
0001
0000
1001
0000
,
0010
0000
0110
0000
,
0001
0001
0001
0000
,
0010
0000
0100
0000
,
1000
0000
0010
0000
,
0100
0000
0001
0000
,
1000
1000
0000
0000
,
0000
0000
0000
0000
,
0010
0010
0000
0000
,
1000
1000
0000
0000
,
0001
0001
0000
0000
,
0100
0100
0000
0000
,
0001
0001
0000
0000
,
0010
0010
0000
0000
,
0100
0100
0000
0000
,
1000
0000
0001
0001
,
0001
0000
0100
0000
,
0110
0000
0000
0000
,
0010
0010
0010
0000
,
0001
0000
0100
0100
,
0100
0000
0010
0000
,
0110
0000
0000
0000
,
1000
1000
1000
0000
,
0010
0010
0010
0000
,
1001
0000
0000
0000
;

//---------------dance-single - ----------------
#NOTES:
     dance-single:
     :
     Easy:
     7:
     :
0000
0000
0000
0000
,
0000
0000
0000
0000
,
0000
0000
0000
0000
,
0000
0000
0000
0000
,
0000
0000
0000
0000
,
0000
1000
0000
0010
0000
1000
0000
0010
,
0000
0100
0000
0001
0000
0100
0000
0001
,
0000
0010
0000
0001
0000
1000
0000
0100
,
0000
0000
1001
1001
,
0110
0000
0000
0000
1000
0001
0000
0100
,
0000
0010
0000
0000
1000
0000
1000
0000
,
0001
0010
0001
0100
,
1000
1000
0110
0110
,
1001
0000
0000
0000
0010
0001
0000
1000
,
0000
0100
0000
0000
0010
0000
0010
0000
,
0001
0010
0001
0100
,
1000
1000
1010
1010
,
0101
0000
0000
0000
0010
0001
0000
0100
,
0000
1000
0000
0000
0001
0000
0001
0000
,
0010
0001
0100
0010
,
1000
0100
0110
0010
,
0001
0100
0001
0010
,
0100
1000
0001
0100
,
1001
0110
0001
0010
,
0001
0100
1000
1000
,
0010
1000
0100
1000
,
0001
0010
0100
0010
,
0011
1100
0010
1000
,
0100
0100
1000
0001
,
0200
0002
0303
0100
,
0010
0010
0000
1000
,
0002
0020
0033
0010
,
0001
0001
0000
1000
,
0020
2000
3030
0001
,
0100
0100
0000
0010
,
2000
0200
3300
1000
,
0001
0100
0000
0010
,
1000
0100
1001
0000
,
0010
0001
0110
0001
,
0101
1010
0010
1000
,
0100
1000
0001
0010
,
0001
0100
0010
1000
,
0100
1000
0010
0001
,
0110
0000
1001
0000
0000
0010
0000
0100
,
0000
0001
0000
1000
0000
0000
0010
0000
,
2000
0200
3300
0001
,
1000
0010
0000
0100
,
0002
0020
0033
0100
,
0010
0001
0000
1000
,
0002
0200
0303
0010
,
0100
0001
0000
0001
,
2000
0020
3030
0100
,
0010
0010
1001
1001
,
0110
0000
0000
0000
1000
0010
0000
0100
,
0000
0001
0000
0000
0010
0000
0010
0000
,
0100
0010
0001
0100
,
1000
1000
0110
0110
,
1001
0000
0000
0000
0010
1000
0000
0001
,
0000
0100
0000
0000
0001
0000
0001
0000
,
0010
0001
0100
0010
,
1000
0100
0010
0110
,
1001
0000
0000
0000
;

//---------------dance-single - ----------------
#NOTES:
     dance-single:
     :
     Medium:
     10:
     :
0000
0000
0000
0000
,
0000
0000
0000
0000
,
0000
0000
0000
0000
,
0000
0000
0000
0000
,
0000
0000
0000
0000
,
1001
0000
0001
0100
0010
0100
0000
0001
,
0000
1000
0000
0010
2000
0000
3100
0010
,
0001
0000
0110
0000
0000
0001
1000
0100
,
0000
0010
0000
0000
1001
0000
1001
0000
,
0110
0000
0000
0000
1000
0001
0000
0200
,
0000
0320
0000
1030
0001
0000
1000
0100
,
1000
0100
0010
0001
0100
0010
0000
2000
,
0000
3001
1000
0010
0110
0000
0110
0000
,
1001
0000
0000
0000
0010
1000
0001
0200
,
0000
0320
0000
1030
0100
0000
1000
0001
,
1000
0001
0010
0100
1000
0001
0000
2000
,
0000
3020
0000
0030
1010
0000
1010
0000
,
0101
0000
0000
0000
0010
1000
0001
0020
,
0000
0230
0000
1300
0010
0000
0010
0100
,
0001
0010
0001
0100
1000
0010
0000
0110
,
0000
1000
0001
0100
0010
0000
1000
0100
,
0001
0100
1000
0010
0100
0000
0000
0001
,
0000
0001
0010
0100
1000
0000
0010
1000
,
1001
0000
1001
0000
0010
1000
0000
0001
,
0000
0100
0000
0010
0100
0000
0001
1000
,
0100
0001
0100
1000
0010
0000
0000
1000
,
0000
1000
0001
0010
0001
0000
0100
0010
,
0110
0000
0110
0001
0000
0001
0000
1000
,
0000
1000
0000
0010
0100
0001
1000
0001
,
0200
0000
0320
0000
0030
1000
0010
0100
,
0001
0010
0001
1000
0000
0001
0100
0010
,
2000
0000
3002
0000
0003
0010
0001
1000
,
0001
0100
0010
1000
0000
0100
1000
0001
,
2000
0000
3200
0000
0300
0010
0001
0100
,
0001
0010
0100
1000
0000
0010
0100
0010
,
0200
0000
0302
0000
0003
0010
0001
1000
,
0001
0100
0010
1000
0000
0000
0100
0010
,
0001
0100
0001
0100
1001
0000
0000
1100
,
0000
0010
1000
0100
1000
0010
0100
0001
,
0011
0000
0011
0000
1000
0002
0000
0023
,
0000
0032
0000
1003
0200
0000
1300
0010
,
0100
1000
0100
0001
0010
0000
0000
0001
,
0000
1000
0001
0100
0010
0000
1000
0001
,
0020
0000
0032
0000
0003
1000
0000
0010
,
0000
1000
0000
0001
0000
0100
0010
0100
,
0002
0000
0023
0000
0030
0001
1000
0010
,
1000
0100
0010
0001
0000
0100
0010
0100
,
0020
0000
2030
0000
3000
0100
1000
0001
,
1000
0001
1000
0100
0000
1000
0010
0100
,
0002
0000
0203
0000
0300
0010
0100
0010
,
1000
0100
1000
0001
0000
0010
0001
1000
,
0200
0000
2300
0000
3000
0010
1000
0001
,
1000
0010
0100
0001
1001
0000
1001
0000
,
0110
0000
1000
0010
1000
0001
0000
0200
,
0000
0320
0000
1030
0100
0000
1000
0001
,
0100
0001
0010
1000
0010
0001
0000
2000
,
0000
3020
0000
0030
0101
0000
0101
0000
,
1100
0000
0001
1000
0001
1000
0000
0020
,
0000
0230
0000
0310
1000
0000
1000
0001
,
0010
1000
0010
0001
0100
0010
0000
1000
,
0000
1000
0100
0010
0001
0000
0110
0000
,
1001
0000
0000
0000
;

//---------------dance-single - ----------------
#NOTES:
     dance-single:
     :
     Hard:
     12:
     :
0000
0000
0000
0000
,
0000
0000
0000
0000
,
0000
0000
0000
0000
,
0000
0000
0000
0000
,
0000
0000
0000
0000
,
1001
0000
0100
0001
0100
0010
1000
0100
,
0001
0100
0010
0100
0001
0100
1000
0010
,
0100
0000
0001
0000
0010
0000
0100
0000
0001
0000
0100
0000
1000
0000
0010
0100
,
0010
1000
0001
0000
1001
0000
1001
0000
,
0110
0000
1001
0010
1000
1000
0001
0100
,
0010
0001
0010
1000
0200
0000
1300
0001
,
1000
0100
0010
0100
0001
0100
1000
0001
,
0100
0010
1000
0001
0101
0000
0101
0000
,
1100
0000
0101
0010
0100
0100
1000
0100
,
0001
0010
0001
0100
2000
0000
3001
0100
,
1000
0100
0010
0100
0001
0010
0001
1000
,
0100
0010
0001
1000
1010
0000
1010
0000
,
0011
0000
1010
0100
0001
0001
0010
0100
,
0001
0100
0010
0100
2000
0000
3001
0100
,
0010
0100
0001
0010
1000
0010
0000
0110
,
0000
0001
0100
0010
2000
0000
3001
1000
,
0010
0100
0010
1000
0100
0010
0001
1000
,
0000
1000
0010
0100
1000
0100
0001
0010
,
1001
0000
1100
0010
0001
0001
0100
1010
,
0000
0101
0000
1100
0101
0100
0010
1000
,
0001
0010
0001
0100
1000
0100
0001
0010
,
0000
0010
0001
0100
1000
0010
1000
0001
,
0011
0000
0110
0001
0100
0010
1000
0001
,
0000
0010
0001
0100
1000
0100
0001
0010
,
0200
1000
2300
0001
3001
0100
0010
0100
,
1000
0100
0001
0010
0000
0001
0100
1000
,
0002
0010
0023
1000
1030
0010
0001
0100
,
0010
1000
0100
0001
0010
0001
1000
0100
,
2000
0000
3002
0100
0103
0010
0100
0001
,
1000
0100
0010
0001
0000
0100
0010
1000
,
0002
0100
0203
0010
0310
1000
0100
0001
,
0100
0010
0100
1000
0010
0100
0001
1000
,
0010
1000
0100
0001
1001
0000
0010
0101
,
0000
1000
0100
1000
0001
0010
0100
0010
,
0011
0000
1010
0100
1000
1000
0001
0011
,
0000
1100
0000
0101
1100
0010
1000
0001
,
0010
1000
0010
0001
0100
0010
1000
0001
,
0000
0001
0100
1000
0100
0010
0100
0001
,
0010
0011
0000
1100
0000
0101
0000
1010
,
0000
1001
0000
0110
0000
1000
0100
0001
,
0020
0100
0230
0001
0301
0100
1000
0010
,
0100
1000
0100
0001
0000
0001
0010
0100
,
2000
0010
3020
0100
0130
0010
1000
0001
,
0010
0001
0100
1000
0000
1000
0010
0100
,
0002
0000
2003
0000
3010
1000
0100
0010
,
1000
0010
0001
0100
0000
0010
1000
0001
,
0200
0000
0320
1000
1030
0100
1000
0001
,
1000
0100
0010
0001
1001
0000
1001
0000
,
0110
0000
1001
0010
1000
1000
0100
0010
,
1000
0010
0001
0100
0020
0000
1030
0001
,
0100
0001
0010
1000
0010
0100
0010
0001
,
0100
0010
1000
0001
0011
0000
0011
0000
,
1100
0000
0101
0010
0100
0100
0001
1000
,
0100
0001
0100
1000
0020
0000
0130
0001
,
0010
0001
0100
0001
1000
0100
1000
0010
,
0100
0000
0000
1000
0000
0000
0100
0000
0000
0001
0000
0000
0011
0000
0000
0000
0110
0000
0000
0000
1100
0000
0000
0000
,
1001
0000
0000
0000
;
