#TITLE:Let the Music Play;
#ARTIST:Shannon;
#BANNER:Let the Music Play-bn.png;
#BACKGROUND:Let the Music Play-bg.png;
#JACKET:Let the Music Play-jacket.png;
#MUSIC:Let the Music Play.ogg;
#OFFSET:1.4;
#SAMPLESTART:77.855;
#SAMPLELENGTH:20;
#LASTBEATHINT:0.771;
#DISPLAYBPM:118;
#BPMS:0=118.07;
#BGCHANGES:;

//---------------dance-single - ----------------
#NOTES:
     dance-single:
     :
     Beginner:
     2:
     :
0000
0000
0000
0000
,
0000
0000
0000
0000
,
0000
0000
0000
0000
,
0000
0000
1000
0000
,
0010
0000
0100
0000
,
0001
0000
0000
0000
,
0010
0000
0001
0000
,
1000
0000
0000
0000
,
0010
0000
1000
0000
,
0100
0000
0000
0000
,
0000
0000
0000
0000
,
0000
0000
1000
0000
,
0010
0000
1000
0000
,
0001
0000
0000
0000
,
0010
0000
0001
0000
,
0100
0000
0000
0000
,
0000
0000
0000
0000
,
0000
0000
0010
0000
,
1000
0000
0001
0000
,
0100
0000
0000
0000
,
0001
0000
0010
0000
,
0001
0000
0000
0000
,
0000
0000
0000
0000
,
1000
0000
0010
0000
,
0100
0000
0001
0000
,
0010
0000
0100
0000
,
1000
0000
0000
0000
,
0001
0000
1000
0000
,
0010
0000
0100
0000
,
0010
0000
1000
0000
,
0001
0000
0000
0000
,
0010
0000
0001
0000
,
0100
0000
0001
0000
,
1000
0000
0000
0000
,
0010
0000
1000
0000
,
0100
0000
0000
0000
,
1000
0000
0001
0000
,
1000
0000
0000
0000
,
0000
0000
1001
0000
,
0000
0000
0010
0010
,
0000
0000
1000
1000
,
0000
0100
0000
0010
,
0000
0001
0000
1000
,
0000
0000
0001
0001
,
0000
0000
0010
0010
,
0000
0000
0001
0000
,
0100
0000
0010
0000
,
1000
0000
0000
0000
,
0001
0000
1000
0000
,
0010
0000
1000
1000
,
0000
0000
0001
0001
,
0000
0000
0010
0000
,
0001
0000
0100
0000
,
0000
0000
0001
0001
,
0000
0000
1000
1000
,
0000
0000
0001
0000
,
1000
0000
0010
0000
,
1001
0000
0000
0000
;

//---------------dance-single - ----------------
#NOTES:
     dance-single:
     :
     Easy:
     6:
     :
0000
0000
0000
0000
,
0000
0000
0000
0000
,
0000
0000
0000
0000
,
0000
1000
0001
0010
,
0001
0100
0010
1000
,
0002
0100
0000
0103
,
0010
1000
0001
1000
,
0200
0010
0000
0310
,
0001
0010
0001
0100
,
2000
0001
0000
3001
,
0000
0010
1000
0100
,
0000
1000
0010
1000
,
0100
0010
0001
0100
,
0010
1000
0000
0001
,
0010
0001
0100
0010
,
1000
0100
0001
0100
,
0010
0010
1000
0001
,
0000
0000
0010
0001
,
0100
0001
0010
0100
,
1000
0001
0000
0010
,
0001
0010
0001
0100
,
1000
0010
0000
0100
,
0000
0001
1000
0001
,
0010
0001
0010
0100
,
1000
0010
1000
0100
,
0001
0010
1000
0100
,
0020
0030
0002
0003
,
0100
0010
0100
0001
,
1000
0010
1000
0001
,
0010
0001
0100
1000
,
0002
0003
0100
0110
,
1000
0010
1000
0100
,
0010
0001
0100
0001
,
0010
0001
0100
1000
,
0010
1000
0100
0010
,
1001
0010
1000
0001
,
1000
0100
0010
0001
,
0100
0010
0100
0001
,
0010
0100
1001
0110
,
1000
0010
1000
0001
,
0010
0010
0010
0010
,
0010
0001
0100
0010
,
1000
0100
1000
1001
,
0110
0010
0100
0001
,
1000
1000
1000
1000
,
1000
0010
1000
0100
,
0010
0001
0100
0010
,
1000
1001
0000
0110
,
0002
0023
0230
2300
,
3010
0100
0010
1000
,
0100
0100
0100
0100
,
0100
0010
0001
0100
,
0001
0010
1000
0001
,
0110
0001
0010
1000
,
0001
0001
0001
0001
,
0001
0010
0001
0100
,
0010
1000
0001
0100
,
1001
0000
0000
0000
;

//---------------dance-single - ----------------
#NOTES:
     dance-single:
     :
     Medium:
     9:
     :
0000
0000
0000
0000
,
0000
0000
0000
0000
,
0000
0000
0000
0000
,
0000
0000
1000
0000
0100
0000
0010
0000
0001
0000
0000
0100
0000
0000
0001
0000
,
0010
0000
0000
0100
0000
0000
1000
0000
0001
0000
0000
1000
0000
0000
0010
0000
,
0200
0000
0000
0000
,
0301
0000
0000
1000
0000
0000
0001
0000
0010
0000
0000
0100
0000
0000
1000
0000
,
0002
0000
0000
0000
,
0013
0000
0000
0001
0000
0000
0100
0000
0001
0000
0000
1000
0000
0000
0100
0000
,
0020
0000
0000
0000
,
0031
0100
0010
1000
0100
0010
0001
0000
,
0000
0000
1000
0000
0100
0000
1000
0000
0010
0000
0000
0100
0000
0000
0001
0000
,
0010
0000
0000
0001
0000
0000
1000
0000
0010
0000
0000
0100
0000
0000
0001
0000
,
2000
0000
0000
0000
0000
0000
0000
3010
,
1000
0000
0000
0100
0000
0000
1000
0000
0001
0000
0000
0100
0000
0000
0001
0000
,
0010
0101
0010
1100
,
0001
0100
0010
1000
0100
0010
0001
0000
,
0000
0000
0010
0000
0001
0000
0010
0000
0100
0000
0000
1000
0000
0000
0001
0000
,
1000
0000
0000
0010
0000
0000
0100
0000
0020
0000
0000
0000
1030
0000
0001
0000
,
0200
0000
0000
0000
0000
0000
0000
0301
,
1000
0000
0000
0100
0000
0000
0010
0000
0001
0000
0000
1000
0000
0000
0001
0000
,
0100
1010
0100
0011
,
1000
0001
0100
0000
1001
0000
0110
0000
,
1000
0000
0010
1000
0200
0000
0310
0001
,
0000
0001
1000
0001
0200
0000
0310
1000
,
0000
1000
0100
0010
0100
2000
0000
0002
,
0000
0000
3000
0000
0000
0000
0000
1003
,
0001
0010
0001
0010
0002
0000
1003
0100
,
0000
1000
0010
1000
0200
0000
0310
0001
,
0000
0100
0001
0010
0200
0000
1300
0002
,
0000
0000
0000
0000
1003
0000
0100
1000
,
0001
0000
0000
0010
0000
0000
0001
0000
1000
0000
0000
0100
0000
0000
0010
0000
,
0100
0000
0000
1000
0000
0000
0001
0000
1000
0000
0000
0010
0000
0000
0100
0000
,
0002
0000
0000
0000
0000
0000
0000
1003
,
0010
0000
0000
1000
0000
0000
0001
0000
0010
0000
0000
0100
0000
0000
2000
0000
,
0000
0000
3001
0000
0010
0000
0001
0000
0100
0000
0000
0010
0000
0000
1000
0000
,
0100
0000
0000
0010
0000
0000
0001
0000
1000
0000
0000
0001
0000
0000
1000
0000
,
0010
0101
0010
1100
,
0001
0100
1000
0000
1001
0000
0110
0000
,
0000
0000
0000
0000
0010
0000
0000
1000
0000
0000
0001
0000
0100
0000
0000
0000
,
0002
0023
0230
2300
,
3001
1000
0010
0000
1000
0100
0001
0000
,
0010
0000
0001
0000
0100
0000
0000
0000
1010
0000
0000
0000
1000
0001
0000
1000
,
0000
0000
0000
0000
0010
0000
0000
0100
0000
0000
0001
0000
1000
0000
0000
0000
,
0002
0023
0230
2300
,
3010
1000
0100
0000
1000
0010
0001
0000
,
0100
0000
0001
0000
0010
0000
0000
0000
0011
0000
0000
0000
1000
0001
0000
1000
,
0000
0010
0000
0010
,
1100
0000
0000
0101
0000
0000
1100
0000
0000
0101
0000
0000
1100
0000
0000
0000
,
0000
0000
0000
0000
0001
0000
0000
0100
0000
0000
0010
0000
1000
0000
0000
0000
,
0002
0023
0230
2300
,
3100
0010
0001
0000
0100
0010
1000
0000
,
0001
1000
0010
0000
0100
0010
1000
0000
,
0000
0000
0000
0000
1000
0000
0000
0001
0000
0000
0010
0000
0100
0000
0000
0000
,
0002
0023
0230
2300
,
3001
0010
0001
0000
0100
0010
1000
0000
,
0100
1000
0001
0000
1000
0010
0100
0000
,
1001
0000
0000
0000
;

//---------------dance-single - ----------------
#NOTES:
     dance-single:
     :
     Hard:
     11:
     :
0000
0000
0000
0000
,
0000
0000
0000
0000
,
0000
0000
0000
0000
,
1000
0000
0010
0000
0100
0000
0010
0000
1000
0000
0000
0100
0000
0000
1000
0000
,
0001
0000
0000
0100
0000
0000
0001
0000
0010
0000
0000
0100
0000
0000
1000
0000
,
0001
0000
0000
0000
0101
0000
0000
0000
1000
0100
0000
0100
0000
0000
0000
0000
,
1000
0000
0000
0010
0000
0000
0100
0000
0001
0000
0000
0010
0000
0000
0100
0000
,
1000
0000
0000
0000
1100
0000
0000
0000
0001
0100
0000
0100
0000
0000
0000
0000
,
0010
0000
0000
1000
0000
0000
0001
0000
0010
0000
0000
0001
0000
0000
1000
0000
,
0100
0000
0000
0000
0110
0000
0000
0000
0001
1000
0000
1000
0000
0000
0000
0000
,
0010
0000
1000
0000
0010
1000
0000
0001
0000
0001
0000
0001
0100
0000
0000
0100
,
0000
0000
0010
0000
1000
0000
0100
0000
1000
0000
0000
0010
0000
0000
0100
0000
,
0001
0000
0000
0010
0000
0000
0100
0000
1000
0000
0000
0001
0000
0000
1000
0000
,
0010
0000
1001
0000
0010
0100
0100
0001
,
0010
0000
0000
0001
0000
0000
1000
0000
0100
0000
0000
0010
0000
0000
0100
0000
,
1000
0010
0000
0000
1010
0000
0000
0000
0100
0001
0000
0001
0000
0000
0000
1000
,
0100
0000
0010
0000
0100
0010
0000
0001
0000
0001
0000
0001
0000
0000
0000
0000
,
1000
0000
0010
0000
1000
0000
0001
0000
0010
0000
0000
0100
0000
0000
1000
0000
,
0001
0000
0000
1000
0000
0000
0010
0000
1000
0000
0000
0000
0100
0000
1000
0001
,
0000
0000
0011
0000
0100
0010
1000
0001
,
0010
0000
0000
0001
0000
0000
0100
0000
0010
0000
0000
1000
0000
0000
0001
0000
,
0100
0000
0000
0000
0110
0000
0000
0010
1000
0000
0001
0000
1001
0000
0000
0000
,
1000
0000
1000
0000
1000
0000
0000
0000
0010
0100
0000
0010
0100
0000
0000
0000
,
0001
0000
0001
0100
0010
1000
0100
0010
,
0000
0010
0001
0100
0001
0010
0100
1000
,
0000
0010
1000
0100
1000
0001
0010
0100
,
1000
0000
0010
0000
1000
0001
0000
0100
0010
0000
0000
1000
0010
0000
0100
0000
,
0001
0010
1000
0010
0001
1000
0100
0010
,
0000
0010
0001
1000
0100
0001
0100
0010
,
0000
0010
0100
1000
1000
0001
0100
0010
,
1000
0000
0001
0000
0010
0001
0000
1000
0100
0000
0000
1000
0001
0000
0100
0000
,
0010
0000
0000
1000
0000
0000
0010
0000
1000
0000
0000
0100
0000
0000
0010
0000
,
0001
0000
0000
0100
0000
0000
0001
0000
0010
0000
0000
0100
0000
0000
1000
0000
,
0001
0100
0000
0000
0101
0000
0000
0000
0010
1000
0000
0010
1000
0000
0001
0000
,
1000
0000
0000
0100
0000
0000
0010
0000
0001
0000
0000
1000
0000
0000
0001
0000
,
0100
0010
0000
0000
1010
0000
0000
0000
1000
0001
0000
1000
0001
0000
0010
0000
,
0001
0000
0000
0100
0000
0000
0010
0000
1000
0000
0000
0100
0000
0000
1000
0000
,
0001
0010
0000
0000
0011
0000
0000
0000
1000
0001
0000
0100
0010
0000
0000
0100
,
0001
1000
1010
0000
1001
0000
0110
0000
,
1001
0000
0000
0000
0010
0000
1000
0002
0000
0000
0100
0000
0103
0000
0000
0000
,
0101
0000
0000
0000
1000
0010
0000
2000
0000
0000
0001
0000
3001
0000
0000
0000
,
0010
0000
1000
0000
0100
0000
1000
0002
0000
0000
0010
0000
0013
0000
0000
0000
,
0001
0000
1000
0000
0010
0000
1000
0200
0000
0000
0010
0000
0310
0000
0000
0000
,
0110
0000
0000
0000
0001
0000
1000
0020
0000
0000
0100
0000
0130
0000
0000
0000
,
1010
0000
0000
0000
1000
0001
0000
0020
0000
0000
0100
0000
0130
0000
0000
0000
,
0010
0000
0001
0000
0100
0000
0001
2000
0000
0000
0100
0000
3100
0000
0000
0000
,
1000
0000
0010
0000
1000
0000
0001
0200
0000
0000
0010
0000
0310
0000
1000
0000
,
0001
0011
1000
1010
,
1100
0000
0000
0101
0000
0000
1100
0000
0000
0101
0000
0000
1100
0000
0000
0000
,
1001
0000
0000
0000
0001
0000
0010
0200
0000
0000
1000
0000
1300
0000
0000
0000
,
0110
0000
0000
0000
0010
0001
0000
2000
0000
0000
0100
0000
3100
0000
0000
0000
,
1000
0000
0001
0000
0010
0000
0100
0020
0000
0000
0001
0000
0031
0000
0000
0000
,
0100
0000
0001
0000
0010
0000
0001
2000
0000
0000
0010
0000
3010
0000
0000
0000
,
0101
0000
0000
0000
0010
0000
0001
2000
0000
0000
0100
0000
3100
0000
0000
0000
,
1010
0000
0000
0000
1000
0100
0000
0020
0000
0000
0001
0000
0031
0000
0000
0000
,
0100
0000
0001
0000
0010
0000
0001
0020
0000
0000
0100
0000
0130
0000
0000
0000
,
0010
0000
0001
0000
1000
0000
0100
2000
0000
0000
0001
0000
3001
0000
0000
0000
,
1001
0000
0000
0000
;

//---------------dance-single - ----------------
#NOTES:
     dance-single:
     :
     Challenge:
     13:
     :
0000
0000
0000
0000
,
0000
0000
0000
0000
,
0000
0000
0000
0000
,
1000
0000
0010
0000
0100
0000
0010
0000
2000
0000
0000
3002
0000
0000
0203
0000
,
0302
0000
0000
0023
0000
0000
0230
0000
2300
0000
0000
3020
0000
0000
0230
0000
,
0301
0000
0100
0000
0101
0000
0000
0000
1000
0010
0000
1000
0010
0000
0000
0000
,
0200
0000
0000
0302
0000
0000
0023
0000
0032
0000
0000
2003
0000
0000
3020
0000
,
1030
0100
0000
0000
0011
0000
0000
0000
0100
0001
0000
0100
0001
0000
0000
1000
,
0020
0000
0000
0230
0000
0000
0302
0000
2003
0000
0000
3200
0000
0000
0320
0000
,
0031
1000
0000
0000
0110
0000
0000
0000
0010
1000
0000
0010
1000
0000
0000
0001
,
0100
0000
0100
0000
0100
0001
0000
0000
1000
0001
0000
0001
0100
0000
0000
1010
,
0000
0000
0001
0000
1000
0000
0001
0000
0010
0000
0000
0100
0000
0000
1000
0000
,
0010
0000
0000
1000
0000
0000
0001
0000
1000
0000
0000
0100
0000
0000
0010
0000
,
0001
0000
0000
0000
1100
0000
0000
0001
1000
0000
0100
0000
1001
0000
0010
0000
,
1000
0000
0000
0001
0000
0000
1000
0000
0100
0000
0000
0010
0000
0000
0001
0000
,
1000
0010
0000
0000
0101
0000
0000
0000
0010
1000
0000
0010
1000
0000
0000
0001
,
0010
0000
0010
0000
0010
0001
0000
1000
0000
1000
0000
1000
0001
0000
0000
0000
,
0100
0000
0010
0000
0100
0000
0001
0000
1000
0000
0000
0010
0000
0000
0100
0000
,
0001
0000
0000
0010
0000
0000
0001
0000
2000
0000
0000
0000
3010
0000
0100
0001
,
0100
0000
0000
0000
1001
0000
0000
0010
1000
0000
0001
0000
1010
0000
0100
0000
,
0001
0000
0000
0010
0000
0000
0100
0000
1000
0000
0000
0010
0000
0000
1000
0000
,
0001
0000
0000
0000
0011
0000
0000
1000
0010
0000
0100
0000
0110
0000
0000
0001
,
0100
0000
0010
0000
1010
0000
0000
0000
1000
0001
0000
1000
0001
0000
0100
0000
,
0110
0000
0001
0010
1000
0100
1000
0001
,
0100
0010
0100
1000
0100
0001
0010
0100
,
0001
0100
0010
0100
1000
0010
1000
0001
,
0010
0000
0010
0000
1001
0000
0000
0000
0100
0001
0000
0100
0001
0000
1000
0000
,
0010
1000
0100
0010
1000
0010
0001
0100
,
0010
0100
1000
0100
0001
0010
0001
1000
,
0100
0001
0100
0010
0001
0100
0010
1000
,
0100
0000
0100
0000
1100
0000
0000
0001
1000
0000
0000
0010
0100
0000
0001
0000
,
0010
0000
0000
0100
0000
0000
1000
0000
0010
0000
0000
1000
0000
0000
0001
0000
,
1000
0000
0000
0010
0000
0000
1000
0000
0100
0000
0000
0010
0000
0000
0001
0000
,
1000
0001
0000
0000
0011
0000
0000
0000
0100
0010
0000
0100
0010
0000
1000
0000
,
0001
0000
0000
1000
0000
0000
0100
0000
1000
0000
0000
0001
0000
0000
0101
0000
,
0000
0000
1010
0000
0001
0000
0100
0000
0020
0000
0000
2030
0000
0000
3002
0000
,
2003
0000
0000
3020
0000
0000
0230
0000
0302
0000
0000
2003
0000
0000
3020
0000
,
1030
0100
0000
0000
0001
0100
0000
0000
0010
1000
0000
0010
1000
0000
0000
0000
,
0001
0000
0001
0000
0001
1000
0000
0000
1001
0000
0000
0000
0110
0000
0000
0000
,
1001
0000
0000
0000
1010
0000
0010
1000
0000
1000
0100
0000
0200
0000
0000
0000
,
0310
0000
0000
0000
0010
0001
0000
0001
1000
0000
0010
0000
1000
0000
0100
0000
,
0010
0000
0100
0000
0100
0000
1000
0001
0000
1000
0001
0000
0001
0000
0000
0010
,
0001
0000
0100
0000
0100
0000
0010
1000
0000
0010
1000
0000
0001
0100
0000
0110
,
0000
0000
0000
0000
0101
0000
1000
0001
0000
0001
0010
0000
0200
0000
0000
0000
,
1300
0000
0000
0000
1000
0010
0000
0010
0100
0000
0001
0000
1000
0000
0001
0000
,
0010
0000
0001
0000
0001
0000
0100
0010
0000
0010
1000
0000
0001
0000
1000
0100
,
1000
0000
0010
0000
0100
0001
0000
0001
1000
0000
0010
0000
0100
0001
0000
1000
,
0001
0000
0011
0100
1000
0001
1010
0000
,
1100
0000
0000
0101
0000
0000
1100
0000
0000
0101
0000
0000
1100
0000
0000
0000
,
1001
0000
0000
0000
0010
0000
1000
0100
0000
0100
0010
0000
0002
0000
0000
0000
,
0103
0000
0000
0000
0001
0010
0000
0001
1000
0000
0010
0000
1000
0000
0100
0000
,
0010
0000
0100
0000
0100
0000
0010
0001
0000
0001
1000
0000
0100
0000
0000
1000
,
0010
0000
1000
0000
1000
0000
0100
0010
0000
0010
0001
0000
0200
0000
0000
0000
,
0310
0000
0100
0000
0001
0000
1000
0100
0000
0100
0010
0000
0002
0000
0000
0000
,
0013
0000
0001
0000
0100
0010
0000
0010
1000
0000
0100
0000
1000
0000
0001
0000
,
0010
0000
0001
0000
0001
0000
1000
0010
0000
0010
0100
0000
0001
0000
1000
0100
,
1000
0000
0010
0000
1000
0001
0000
0001
0100
0000
0010
0000
0110
0000
0000
0000
,
1001
0000
0000
0000
;
