#VERSION:0.83;
#TITLE:Let It Go;
#SUBTITLE:;
#ARTIST:Idina Menzel;
#TITLETRANSLIT:;
#SUBTITLETRANSLIT:;
#ARTISTTRANSLIT:;
#GENRE:;
#ORIGIN:;
#TAGS:;
#CREDIT:;
#BANNER:Let It Go-bn.png;
#BACKGROUND:Let It Go-bg.png;
#PREVIEWVID:;
#JACKET:Let It Go-jacket.png;
#CDIMAGE:;
#DISCIMAGE:;
#LYRICSPATH:;
#CDTITLE:;
#MUSIC:Let It Go.ogg;
#OFFSET:0.000000;
#SAMPLESTART:37.923000;
#SAMPLELENGTH:20.000000;
#SELECTABLE:YES;
#DISPLAYBPM:137.000000;
#BPMS:0.000000=137.000000,
87.750000=147.000000,
88.000000=137.000000,
211.750000=147.000000,
212.000000=137.000000;
#STOPS:;
#DELAYS:;
#WARPS:;
#TIMESIGNATURES:0.000000=4=4;
#TICKCOUNTS:0.000000=4;
#COMBOS:0.000000=1;
#SPEEDS:0.000000=1.000000=0.000000=0;
#SCROLLS:0.000000=1.000000;
#FAKES:;
#LABELS:0.000000=Song Start;
#BGCHANGES:;
#KEYSOUNDS:;
#ATTACKS:
;

//---------------dance-single - ----------------
#NOTEDATA:;
#CHARTNAME:;
#CHARTHASH:2909512709:
#STEPSTYPE:dance-single;
#BANNER:;
#DESCRIPTION:;
#CHARTSTYLE:;
#DIFFICULTY:Hard;
#METER:12;
#METERF:0.000000;
#RADARVALUES:0.452760,0.512199,0.209143,0.707868,0.028154,394.000000,368.000000,26.000000,88.000000,0.000000,0.000000,0.000000,0.000000,0.000000,0.452760,0.512199,0.209143,0.707868,0.028154,394.000000,368.000000,26.000000,88.000000,0.000000,0.000000,0.000000,0.000000,0.000000;
#CREDIT:;
#DISPLAYBPM:137.000000;
#NOTES:
// measure 0
0000
0000
0000
0000
,  // measure 1
0000
0000
0000
0000
,  // measure 2
0000
0000
0000
0000
,  // measure 3
0000
0000
0000
0000
,  // measure 4
0001
0000
0001
0000
0001
0000
0010
0100
,  // measure 5
1000
0010
0100
0002
0000
0000
1003
0001
,  // measure 6
1000
0020
0000
0000
0000
0130
0001
1000
,  // measure 7
0002
0003
0200
0300
,  // measure 8
0010
1000
0010
0200
0000
0000
0301
2000
,  // measure 9
0000
3001
0000
0000
0000
0000
0010
0100
,  // measure 10
0010
0002
0000
0000
0000
1003
0001
0100
,  // measure 11
0020
0030
2000
3000
,  // measure 12
1001
0000
0010
2000
0000
3002
0000
0203
,  // measure 13
0000
0302
0000
0023
0000
0230
0000
1300
,  // measure 14
0000
0000
1100
0001
0100
0100
0000
0010
,  // measure 15
2000
0001
0000
0010
0000
3100
0000
1000
,  // measure 16
0001
0000
0100
0020
0000
2030
0000
3001
,  // measure 17
0000
0000
0010
0100
0000
2000
0000
3002
,  // measure 18
0100
0100
0010
0010
,  // measure 19
1000
0000
1000
0000
0010
0000
0103
0020
,  // measure 20
0000
1000
1030
0000
0200
0010
0010
0000
,  // measure 21
0301
0001
1000
1000
0001
0010
0100
0010
,  // measure 22
0021
0000
1000
0000
0031
0100
0010
2000
,  // measure 23
0001
0000
0100
0000
3100
1000
0010
1000
,  // measure 24
0001
0010
0001
0100
0010
1000
0001
1000
,  // measure 25
0020
0100
0230
0000
0301
1000
0100
1000
,  // measure 26
1020
0000
0001
0000
0130
0010
1000
0002
,  // measure 27
0010
0000
0100
0000
1003
0000
0001
0100
,  // measure 28
0010
1000
0010
1000
0001
0100
0010
0100
,  // measure 29
0002
0000
1000
0000
1003
0000
0000
0000
0010
0000
0100
0000
0001
0010
0001
0010
,  // measure 30
0002
0000
1003
2100
0000
3100
0201
0000
,  // measure 31
1000
0000
1000
0000
0301
0100
0010
0000
,  // measure 32
0120
0000
1030
2010
0000
3001
0012
0000
,  // measure 33
0100
0000
0010
0000
0103
0000
0001
0001
,  // measure 34
0002
0000
0013
0100
1000
0000
1020
0000
,  // measure 35
0100
0000
0000
0000
0001
0000
0000
0000
1000
0000
0000
0000
0130
0010
0100
0010
,  // measure 36
0100
0000
0001
0002
0000
2003
0000
3020
,  // measure 37
0000
2030
0000
3200
0000
0320
0000
0032
,  // measure 38
0000
0203
0000
0302
0000
2003
0000
3010
,  // measure 39
1000
0000
0100
0000
1000
0000
0001
0000
0100
0000
0010
0000
1000
0000
0001
1000
,  // measure 40
0001
0000
0100
0200
0000
0320
0000
2030
,  // measure 41
0000
3200
0000
2300
0000
3002
0000
0203
,  // measure 42
0000
0010
0000
1000
0000
0301
0000
0011
,  // measure 43
0000
0110
0000
1100
0000
0001
1000
0010
,  // measure 44
0110
0000
0100
0002
0000
2003
0000
3002
,  // measure 45
0000
0023
0000
0230
0000
2300
0000
3020
,  // measure 46
0000
2030
0000
3002
0000
0023
0000
0130
,  // measure 47
1000
0010
1000
0001
0010
0100
1000
0001
,  // measure 48
0011
0000
0001
2000
0000
3001
0000
0102
,  // measure 49
0000
0000
1003
2000
0000
0000
0000
3010
,  // measure 50
1001
0000
0100
0020
0000
2030
0000
3002
,  // measure 51
1000
0010
1000
0010
,  // measure 52
1003
1000
0001
0001
1000
0010
0100
0010
,  // measure 53
2010
0000
0100
0000
3001
1000
0010
0200
,  // measure 54
1000
0000
0001
0000
0310
0100
0010
1000
,  // measure 55
0100
0010
0100
0010
0001
0100
0010
1000
,  // measure 56
0002
0100
0203
0000
0310
0100
0001
1000
,  // measure 57
1200
0000
0010
0000
1300
0001
0100
0020
,  // measure 58
0001
0000
0100
0000
1030
0000
0001
0100
,  // measure 59
0010
0100
0001
1000
0100
0010
0001
1000
,  // measure 60
0020
0000
1000
0000
1030
0000
0000
0000
0001
0000
0100
0000
0010
1000
0010
1000
,  // measure 61
0020
0000
0130
0001
1000
0000
0012
0000
,  // measure 62
0100
0000
0013
1000
0002
0100
0103
0000
,  // measure 63
1020
0000
1030
0100
0001
0000
0201
0000
,  // measure 64
0310
1000
0002
0000
0103
0010
0100
0000
,  // measure 65
0001
0010
0100
1000
0010
0100
0001
1000
,  // measure 66
2100
0000
3001
1002
0000
0103
0201
0000
,  // measure 67
1000
1000
0001
0301
,  // measure 68
1000
1000
0001
0001
0100
0100
0100
0010
,  // measure 69
1001
0000
1000
0001
1000
0010
0100
0001
,  // measure 70
0020
0200
0000
0000
0000
0000
0330
0000
;

//---------------dance-single - ----------------
#NOTEDATA:;
#CHARTNAME:;
#CHARTHASH:0:
#STEPSTYPE:dance-single;
#BANNER:;
#DESCRIPTION:;
#CHARTSTYLE:;
#DIFFICULTY:Medium;
#METER:9;
#METERF:0.000000;
#RADARVALUES:0.345890,0.398377,0.225231,0.450461,0.000000,301.000000,273.000000,28.000000,56.000000,0.000000,0.000000,0.000000,0.000000,0.000000,0.345890,0.398377,0.225231,0.450461,0.000000,301.000000,273.000000,28.000000,56.000000,0.000000,0.000000,0.000000,0.000000,0.000000;
#CREDIT:;
#DISPLAYBPM:137.000000;
#NOTES:
0000
0000
0000
0000
,
0000
0000
0000
0000
,
0000
0000
0000
0000
,
0000
0000
0000
0000
,
0001
0010
0001
0100
0000
0200
0000
0000
,
0310
1000
0001
0020
0000
0230
0000
0000
,
1300
0010
1000
0002
0000
0103
0000
0000
,
0020
0030
2000
3000
,
0001
1000
0001
2000
0000
3020
0000
0000
,
1030
0100
1000
0001
0000
0002
0000
0000
,
0013
0001
1000
0002
0000
0103
0000
0000
,
0002
0003
2000
3000
,
1001
0000
0000
0010
0000
0100
0000
0001
,
0000
0000
0000
1000
0000
0100
0000
0000
,
0110
0000
0000
0001
0000
1000
0000
0000
,
0020
1000
0000
0001
0000
1000
0000
0130
,
0001
0000
0000
0010
0000
0100
0000
1000
,
0000
0000
0000
0001
0000
0100
0000
0002
,
1000
1000
1000
1000
,
0010
0010
0010
0013
,
0100
0010
0100
0010
,
1000
0000
1000
0000
1000
0010
0100
0020
,
0000
0000
0000
0000
0000
1030
0001
0200
,
0000
0000
0000
0000
0000
0310
0100
0002
,
0000
1003
0100
0020
0000
0032
0000
2003
,
0000
3010
0200
0000
0000
0301
1000
0002
,
0000
0000
0000
0000
0000
0013
0100
2000
,
0000
0000
0000
0000
0000
0000
3010
0200
,
0000
0320
0000
0230
0000
0302
0000
2003
,
0001
0000
0100
0000
3100
0000
0010
0100
,
0101
0000
0000
1100
0000
0000
0102
0000
,
1000
0010
1000
0103
,
1010
0000
0000
0011
0000
0000
2010
0000
,
0001
0000
0010
0000
3001
0000
1000
0100
,
1100
0000
0000
0110
0000
0000
0011
0000
,
2000
0000
3002
0000
1003
0100
0010
0001
,
1001
0010
0010
0010
,
1000
1000
0001
0001
,
1000
0100
0010
0001
,
0100
0020
0000
2030
0000
3002
0000
0103
,
0110
1000
1000
1000
,
0001
0001
0010
0010
,
0001
0100
0100
0100
,
0010
0000
0010
0000
1000
0001
1000
0100
,
1100
0001
0001
0001
,
1000
0001
0100
0100
,
0001
0010
0100
1000
,
0001
2000
0000
3020
0000
2030
0000
3001
,
1001
0000
0000
0100
0000
0010
0000
0100
,
0000
0001
1000
0000
0000
0000
0000
0010
,
2000
0000
3100
1000
0000
0101
0000
0020
,
1000
1000
0001
0031
,
0100
0010
0100
0010
0100
0010
0100
0020
,
0000
0000
0000
0000
0000
1030
0001
0020
,
0000
0000
0000
0000
0000
0031
0100
0010
,
0000
1000
0001
1000
0000
1100
0000
0101
,
0000
0001
2000
0000
0000
3010
0100
0002
,
0000
0000
0000
0000
0000
0013
0001
0200
,
0000
0000
0000
0000
0000
0000
0301
0020
,
0000
0230
0000
2300
0000
3002
1000
0000
,
0203
0000
0010
0000
0310
0000
1000
0001
,
0011
0000
0000
1010
0000
0000
0022
0000
,
0000
0030
0100
0103
,
0101
0000
0000
1100
0000
0000
0102
0000
,
0000
1003
0020
0000
0100
0000
0100
0000
,
1030
0001
1000
0001
1000
0000
0010
0100
,
0110
0000
0000
1001
0000
0000
0120
0000
,
1000
1000
0001
0001
,
1030
0001
1000
0001
0100
0010
0100
0000
,
1001
0000
0010
0000
0010
0000
1000
0001
,
0010
0200
0000
0000
0000
0000
0300
0000
;

//---------------dance-single - ----------------
#NOTEDATA:;
#CHARTNAME:;
#CHARTHASH:0:
#STEPSTYPE:dance-single;
#BANNER:;
#DESCRIPTION:;
#CHARTSTYLE:;
#DIFFICULTY:Easy;
#METER:6;
#METERF:0.000000;
#RADARVALUES:0.255108,0.313010,0.128703,0.386110,0.000000,222.000000,206.000000,16.000000,48.000000,0.000000,0.000000,0.000000,0.000000,0.000000,0.255108,0.313010,0.128703,0.386110,0.000000,222.000000,206.000000,16.000000,48.000000,0.000000,0.000000,0.000000,0.000000,0.000000;
#CREDIT:;
#DISPLAYBPM:137.000000;
#NOTES:
0000
0000
0000
0000
,
0000
0000
0000
0000
,
0000
0000
0000
0000
,
0000
0000
0000
0000
,
0001
0001
0001
0010
,
0001
0100
2000
3000
,
0020
0000
0000
1030
,
0002
0000
0000
0003
,
0010
0010
0001
0100
,
1000
2000
0000
3001
,
0020
0000
0000
0130
,
2000
0000
0000
3000
,
1001
0000
0100
0100
,
1000
0000
0001
0001
,
0010
1001
0200
0300
,
0002
1003
2000
3001
,
0100
0000
0010
1000
,
0001
0000
0010
0100
,
2000
0000
0010
0000
,
0100
0000
0001
3000
,
0010
1000
0002
0000
,
0100
0010
0103
0000
,
1002
1000
0100
1003
,
0120
0100
1000
0130
,
0001
0001
0010
0010
,
0002
0100
0000
1003
,
2100
0010
0100
3001
,
0102
0010
1000
0103
,
0001
0001
1000
1000
,
0020
0000
1000
0130
,
2000
0000
0000
3002
0000
0000
0023
0000
,
0000
0000
0000
0130
,
0002
0000
0000
2003
0000
0000
3200
0000
,
0000
0000
0000
0000
0000
0000
1300
0001
,
2000
0000
0000
3020
0000
0000
0230
0000
,
0001
0001
1000
0301
,
1001
0000
0100
0000
,
1000
0000
0001
0000
,
0010
0010
0100
0100
,
0020
0000
0001
0130
,
0110
0000
1000
0000
,
0010
0000
0100
0000
,
0001
0001
1000
1000
,
0010
0100
0002
0003
,
0011
0000
1000
0000
,
0010
0000
0100
0000
,
0001
0001
0010
0010
,
0200
0000
0010
0310
,
0110
0000
1000
0000
,
0001
0100
1000
0000
,
0010
0010
1000
0001
,
0200
0010
0010
0010
,
0001
1000
0301
0000
,
1020
0001
0100
1030
,
0201
0010
1000
0301
,
1000
0100
0010
0001
,
0200
0320
0000
1030
,
1200
0010
0001
1300
,
0012
0100
0010
1003
,
0001
0001
1000
0100
,
2002
0003
0010
3010
,
2000
0000
0000
3002
0000
0000
0023
0000
,
0000
0000
1000
0130
,
0002
0000
0000
0203
0000
0000
0320
0000
,
0000
2000
0000
3000
,
0100
0000
0100
0000
0100
0000
1030
0001
,
2000
0000
0000
3100
0000
0000
2100
0000
,
0001
0001
0100
0100
,
0010
0000
3010
0000
1000
0001
1000
0000
,
0010
0000
0010
0000
0010
0000
1000
0001
,
0000
0200
0000
0000
0000
0000
0300
0000
;

//---------------dance-single - ----------------
#NOTEDATA:;
#CHARTNAME:;
#CHARTHASH:0:
#STEPSTYPE:dance-single;
#BANNER:;
#DESCRIPTION:;
#CHARTSTYLE:;
#DIFFICULTY:Beginner;
#METER:3;
#METERF:0.000000;
#RADARVALUES:0.101124,0.170733,0.080440,0.289582,0.000000,88.000000,78.000000,10.000000,36.000000,0.000000,0.000000,0.000000,0.000000,0.000000,0.101124,0.170733,0.080440,0.289582,0.000000,88.000000,78.000000,10.000000,36.000000,0.000000,0.000000,0.000000,0.000000,0.000000;
#CREDIT:;
#DISPLAYBPM:137.000000;
#NOTES:
0000
0000
0000
0000
,
0000
0000
0000
0000
,
0000
0000
0000
0000
,
0000
0000
0000
0000
,
0002
0000
0003
0000
,
2000
0000
3000
0000
,
0020
0000
0030
0000
,
1000
0000
0001
0000
,
2000
0000
3000
0000
,
0200
0000
0300
0000
,
0020
0000
0030
0000
,
0001
0000
1000
0000
,
1001
0000
0000
0000
,
0010
0000
0000
0000
,
1000
0000
0000
0000
,
0001
0000
0001
0000
,
1001
0000
0000
0000
,
0100
0000
0000
0000
,
0020
0000
0000
0000
,
0000
0000
0030
0000
,
1000
0000
0002
0000
,
0000
0000
0003
0000
,
0200
0000
0300
0000
,
0020
0000
0030
0000
,
1000
0000
0001
0000
,
2000
0000
3000
0000
,
0020
0000
0030
0000
,
0200
0000
0300
0000
,
0001
0000
0010
0000
,
0002
0000
0003
0000
,
1000
0000
0000
2002
,
0000
0000
3003
0000
,
0001
0000
0000
2002
,
0000
0000
3003
0000
,
0010
0000
0000
0020
,
0000
0000
0030
0000
,
1001
0000
0100
0000
,
0100
0000
0100
0000
,
0001
0000
1000
0000
,
0002
0000
0003
0000
,
1001
0000
0100
0000
,
0100
0000
0100
0000
,
0020
0000
0030
0000
,
2000
0000
3000
0000
,
1001
0000
0001
0000
,
0001
0000
0001
0000
,
1000
0000
0010
0000
,
0200
0000
0300
0000
,
1001
0000
0000
0000
,
1000
0000
0000
0000
,
0001
0000
1000
0000
,
0200
0000
0000
0000
,
0000
0000
0300
0000
,
2000
0000
3000
0000
,
0002
0000
0003
0000
,
0010
0000
0001
0000
,
0200
0000
0300
0000
,
0002
0000
0003
0000
,
0020
0000
0030
0000
,
0001
0000
0100
0000
,
2000
0000
3000
0000
,
0010
0000
0000
2002
,
0000
0000
3003
0000
,
0100
0000
0000
2002
,
0000
0000
0000
0000
,
0000
0000
3003
0000
,
1000
0000
0000
0002
,
0000
0000
0000
0000
,
0000
0000
0003
0000
,
0200
0000
0000
0000
,
0000
0000
0000
0300
;
