#TITLE:Less Is More;
#ARTIST:lim's Sculpture;
#BANNER:Less Is More-bn.png;
#BACKGROUND:Less Is More-bg.png;
#JACKET:Less Is More-jacket.png;
#MUSIC:Less Is More.ogg;
#OFFSET:-0.033;
#SAMPLESTART:38.368;
#SAMPLELENGTH:20;
#DISPLAYBPM:125;
#BPMS:0=125;
#BGCHANGES:;

//---------------dance-single - ----------------
#NOTES:
     dance-single:
     :
     Beginner:
     3:
     :
0000
0000
0000
0000
,
0000
0000
0000
0000
,
0000
0000
0000
0000
,
0000
0000
0000
0000
,
1000
0000
1000
0000
,
1000
0000
0000
0000
,
0010
0000
0010
0000
,
0010
0000
0000
0000
,
0100
0000
0100
0000
,
0100
0000
0000
0000
,
0001
0000
0001
0000
,
0001
0000
0000
0000
,
0200
0000
0000
0300
,
0100
0000
0000
0010
,
0000
0000
0010
0000
,
0000
1000
0000
0000
,
1000
0000
0000
0001
,
0000
0000
0001
0000
,
0000
0010
0000
0000
,
0010
0000
0000
0000
,
1001
0000
1001
0000
,
0020
0000
0000
0030
,
0010
0000
2000
0000
,
0000
3000
0000
0000
,
0002
0000
0000
0003
,
0000
0000
0200
0000
,
0000
0300
0000
0000
,
1000
1000
1000
0000
,
1000
0000
0000
0000
,
0001
0001
0001
0000
,
0001
0000
0000
0000
,
0100
0100
0100
0000
,
0100
0000
0000
0000
,
0010
0010
0010
0000
,
0010
0000
0000
0000
,
1001
0000
0000
0000
,
1000
0000
1000
0000
,
1000
0000
1000
0000
,
0001
0000
0001
0000
,
0001
0000
0001
0000
,
0100
0000
0100
0000
,
0010
0000
0010
0000
,
0100
0000
0010
0000
,
1000
0000
0001
0000
,
1001
0000
0000
0000
;

//---------------dance-single - ----------------
#NOTES:
     dance-single:
     :
     Easy:
     5:
     :
0000
0000
0000
0000
,
0000
0000
0000
0000
,
0000
0000
0000
0000
,
0000
0000
0000
0000
,
1000
0001
1000
0001
,
1000
0000
0000
0000
,
0010
0100
0010
0100
,
0010
0000
0000
0000
,
0100
0010
0100
0010
,
0100
0000
0000
0000
,
0001
1000
0001
1000
,
0001
0000
0000
0000
,
0210
0000
0000
0300
,
0020
0000
0000
0130
,
0000
0000
0002
0000
,
0000
1003
0000
0000
,
2000
0000
0000
3001
,
0000
0000
0200
0000
,
0000
0310
0000
0000
,
2000
0000
0000
3001
,
0001
1000
1000
0000
,
0100
0010
0010
0000
,
0001
0001
1000
0000
,
1000
1000
0001
0000
,
0100
1000
1000
0000
,
0100
0001
0001
0000
,
0000
0000
0000
0000
,
1000
0001
1000
0000
,
1000
0000
1000
0000
,
0001
1000
0001
0000
,
0001
0000
0001
0000
,
0100
0010
0100
0000
,
0100
0000
0100
0000
,
0010
0100
0010
0000
,
0010
0000
0010
0000
,
1001
0000
0000
0000
,
1000
0001
1000
0001
,
1000
0000
1000
0000
,
0100
0010
0100
0010
,
0100
0000
0100
0000
,
0001
1000
0001
1000
,
0001
0000
0001
0000
,
0100
0100
0010
0010
,
1000
1000
0001
0001
,
1001
0000
0000
0000
;

//---------------dance-single - ----------------
#NOTES:
     dance-single:
     :
     Medium:
     8:
     :
0000
0000
0000
0000
,
0000
0000
0000
0000
,
0000
0000
0000
0000
,
0000
0000
0000
0000
,
0010
0001
0100
1000
,
0110
0000
0000
0000
,
0010
1000
0100
0001
,
0110
0000
0000
0000
,
0001
0010
0100
1000
,
1100
0000
0000
0000
,
1000
0010
0100
0001
,
0101
0000
0000
0000
,
0020
0000
1000
0000
0000
1030
0000
0000
,
0200
0000
0000
0001
0000
0000
0301
0000
,
0000
0020
0000
0000
0100
0000
0000
0130
,
0000
0000
0010
0000
0000
1000
0000
0000
,
0100
0000
0000
0001
0000
0000
0010
0000
,
0000
0001
0000
0000
0100
0000
0000
2000
,
0000
0000
0001
0000
0000
0010
0000
0000
,
0001
0000
0000
0010
0000
0000
3000
0000
,
0010
0000
1000
0100
1000
0000
0010
0000
,
0100
0000
0010
0100
0010
0000
0100
0000
,
0001
0000
0010
0001
0010
0000
0100
0000
,
0010
0000
0100
0010
0100
0000
1000
0000
,
0001
0000
0100
0010
0100
0000
0001
0000
,
1000
0000
0010
1000
0010
0000
0100
0000
,
0010
0000
0001
1000
0001
0000
0100
0000
,
0010
0000
1000
0001
1000
0000
0100
0000
,
0110
0000
0010
0100
0010
0000
0000
0000
,
1001
0000
0001
1000
0002
0000
0003
0000
,
1010
0000
1000
0010
2000
0000
3000
0000
,
0101
0000
0001
0100
0002
0000
0003
0000
,
0011
0000
0010
0001
0020
0000
0030
0000
,
1100
0000
1000
0100
2000
0000
3000
0000
,
1001
0000
0001
1000
0001
0000
0110
0000
,
1001
0000
0100
0100
0100
0000
0000
0000
,
2000
0000
3000
0100
0200
0000
0310
0000
,
0002
0000
0003
0100
0200
0000
0301
0000
,
2000
0000
3000
0010
0020
0000
1030
0000
,
0020
0000
0030
0100
0200
0000
0300
0000
,
0001
0001
0100
0000
0001
0001
0100
0000
,
0010
0010
1000
0000
0010
0010
1000
0000
,
0100
1000
0100
1000
0100
1000
0100
0000
,
0010
0001
0010
0001
0010
0001
0010
0000
,
0220
0000
0000
0000
,
0000
0000
0000
0000
,
0330
0000
0000
0000
;

//---------------dance-single - ----------------
#NOTES:
     dance-single:
     :
     Hard:
     12:
     :
0000
0000
0000
0000
,
0000
0000
0000
0000
,
0000
0000
0000
0000
,
0000
0000
0000
0000
,
1000
0000
0000
0000
0000
0001
1000
0000
0000
0000
0000
0000
0100
0000
0000
0000
0000
0010
0100
0000
1000
0000
0000
0001
,
0000
0000
1000
0000
0000
0001
0100
0000
0000
0000
0000
0000
1000
0000
0000
0100
0000
0000
0001
0000
0000
0000
0000
0000
,
1000
0000
0000
0000
0000
0001
1000
0000
0000
0000
0000
0000
0001
0000
0000
0000
0000
0100
0010
0000
1000
0000
0000
0001
,
0000
0000
1000
0000
0000
0000
0001
0000
0000
0100
0000
0000
1000
0000
0000
0100
0000
0000
0001
0000
1000
0000
0000
1000
,
0100
0000
0000
0000
0000
0001
0010
0000
0000
0000
0000
1000
0100
0000
0000
0000
0000
0001
1000
0000
0010
0000
0000
0100
,
0000
0000
0010
0000
0000
0100
0001
0000
0000
0000
0000
0000
1000
0000
0000
0010
0000
0000
0001
0000
0000
0000
0000
0000
,
1000
0000
0000
0000
0000
0001
1000
0000
0000
0000
0000
0000
0010
0000
0000
0000
0000
1000
0001
0000
0100
0000
0000
0010
,
0000
0000
0100
0000
0000
0010
0100
0000
0010
0100
0000
0001
0000
0000
1000
0000
0000
0010
0100
0000
0000
0110
0000
0000
,
0000
0000
0001
0000
0000
1000
0000
0000
,
0100
0000
0000
0010
0000
0000
0001
0000
,
0000
0020
0000
0000
2030
0000
0000
3002
,
0000
0000
0203
0000
0000
2300
0000
0000
,
3010
0000
0010
0100
0000
0100
0001
0000
,
0001
1000
0000
1000
0100
0000
0100
1000
,
0000
1000
0001
0000
0001
0100
0000
0100
,
0010
0000
0000
0110
0000
0000
1001
0000
,
0110
0000
0001
0100
1000
0100
0000
0010
,
0001
0010
1000
0100
0000
0010
0001
0010
,
1000
0001
0000
0100
1000
0100
0010
0001
,
0000
1000
0001
0010
0100
1000
0000
0010
,
0001
0010
1000
0001
0000
0100
1000
0100
,
0001
1000
0000
0100
0010
0100
1000
0001
,
0000
0010
1000
0010
0001
1000
0000
0100
,
0001
0100
1000
0010
0000
0100
0001
1000
,
0001
0100
1000
0100
0001
0010
0000
1000
,
0001
0100
1000
0010
0000
0100
1000
0001
,
0010
1000
0000
0100
1000
0010
0100
1000
,
0000
0001
0010
0100
0001
0010
0000
0100
,
0001
1000
0010
0100
0000
1000
0001
0010
,
0100
0001
0000
1000
0010
0100
1000
0010
,
0000
0100
1000
0001
0010
1000
0000
0001
,
0010
0100
1000
0001
0010
0100
1000
0001
,
1001
0000
0000
0000
0000
0100
0001
0000
0000
0000
0000
0000
1000
0000
0000
0000
0010
0000
0100
0000
0001
0000
0100
0000
,
0010
0000
0000
0000
0000
1000
0100
0000
0000
0000
0000
0000
0010
0000
0000
0000
0001
0000
0010
0000
0100
0000
0010
0000
,
0001
0000
0000
0000
0000
1000
0100
0000
0000
0000
0000
0000
0010
0000
0000
0000
0001
0000
1000
0000
0010
0000
1000
0000
,
0001
0000
0100
0001
1000
0001
0100
0000
0010
1000
0001
0100
,
0010
0000
0000
1000
0000
0000
0010
0000
0000
0001
0000
0000
0010
0000
0000
1000
0000
0000
0010
0000
0100
0000
0001
0000
,
1000
0000
0000
0100
0000
0000
0001
0000
0000
0100
0000
0000
1000
0000
0000
0100
0000
0000
0001
0000
0100
0000
0010
0000
,
0001
0000
0000
0100
0000
0000
1000
0000
0100
0000
0010
0000
1000
0000
0000
0100
0000
0000
0010
0000
0100
0000
1000
0000
,
0001
0000
0000
0100
0000
0000
0010
0000
1000
0000
0001
0000
0010
0000
0000
0100
0000
0000
1000
0000
0001
0000
0100
0000
,
0020
0000
0000
0000
,
0000
0000
0000
0000
,
0030
0000
0000
0000
;

//---------------dance-single - ----------------
#NOTES:
     dance-single:
     :
     Challenge:
     14:
     :
0000
0000
0000
0000
,
0000
0000
0000
0000
,
0000
0000
0000
0000
,
0000
0000
0000
0000
,
0011
0000
0000
0000
0000
0100
0001
0000
1000
0000
0000
1000
0100
0000
0010
0000
0000
0010
0001
0000
0100
0001
0000
1000
,
0000
0000
1010
0000
0000
0010
1000
0000
0001
0000
0000
0001
0100
0000
0010
0000
0000
0010
1000
0000
0100
0000
0000
1100
,
0000
0000
1100
0000
0000
0010
0001
0000
1000
0010
0000
0000
0100
0000
0001
0000
0000
0001
1000
0000
0010
1000
0000
0100
,
0000
0000
0110
0000
0000
0010
0001
0000
0100
0000
0000
0001
1000
0000
0000
0000
0000
0010
1000
0000
0010
0100
0000
0001
,
1000
0000
0000
0100
0000
0010
0000
0000
0001
0000
0000
0101
0000
0000
0000
1000
0000
0001
1000
0000
0100
0010
0000
0001
,
0000
0000
0011
0000
0000
0100
0010
0000
1000
0000
0000
1000
0100
0000
0010
0000
0000
0010
0001
0000
0100
0000
0000
0101
,
0000
0000
0101
0000
0000
1000
0010
0000
0100
0010
0000
0100
0000
0000
0000
0100
0000
0001
1000
0000
0001
0010
0000
0100
,
0000
0000
1100
0000
0000
0010
0100
0000
1000
0100
0000
0010
0001
0000
0100
0001
0000
1000
0001
0000
0100
0010
0000
1000
,
0001
0000
0020
0001
0031
2000
0010
3010
,
0200
0001
0301
2000
0100
3100
0020
0100
,
0130
2000
0001
3001
2000
0100
3100
0002
,
0010
0013
0200
0001
0301
0200
1000
1300
,
0020
0100
0130
0002
0010
0013
0200
1000
,
1300
0002
1000
1003
0020
0100
0130
0002
,
0100
0103
2000
0001
3001
0020
0100
0130
,
0020
0000
0000
0001
0000
0000
0031
0000
0000
2000
0000
0000
0100
0000
0000
3100
0000
0000
0010
0000
0001
0100
0000
0001
,
1000
0000
0000
0000
0000
0010
1000
0000
0100
0010
0000
0001
0000
0000
0000
0100
0000
0010
0100
0000
0001
0000
0000
1000
,
0010
0000
1000
0100
0000
0010
0000
0000
0000
0001
0000
1000
0001
0000
0100
0000
0000
0010
1000
0000
0001
1000
0000
0100
,
0000
0000
0000
0010
0000
0001
0010
0000
0100
1000
0000
0010
1000
0000
0000
0001
0000
1000
0100
0000
0010
0001
0000
0000
,
0100
0000
0001
1000
0000
0001
0010
0000
0000
0100
0000
1000
0010
0000
1000
0001
0000
0010
0001
0000
1000
0100
0000
0000
,
0010
0000
0001
1000
0000
0001
1000
0000
0000
0100
0000
0010
0100
0000
1000
0001
0000
0000
0010
0000
0001
1000
0000
0010
,
1000
0000
0100
1000
0000
0001
0010
0000
0001
0100
0000
0000
0010
0000
1000
0001
0000
0100
0010
0000
0000
1000
0000
0100
,
1000
0000
0010
0100
0000
0001
0010
0000
0100
1000
0000
0001
0000
0000
0000
0100
0000
0001
0010
0000
0001
0000
0000
1000
,
0010
0000
0100
0010
0000
1000
0000
0000
0000
0001
0000
0010
0001
0000
0100
0000
0000
0010
1000
0000
0100
1000
0000
0001
,
0100
0000
0000
0000
0000
0010
1000
0000
1000
0100
0000
0010
0001
0000
0000
0100
0000
0001
0010
0000
0010
0100
0000
1000
,
0010
0000
1000
0100
0000
1000
0100
0000
0000
0010
0000
0001
1000
0000
1000
0001
0000
0001
0010
0000
0100
0010
0000
0100
,
0000
0000
1000
0010
0000
0100
0001
0000
1000
0000
0000
0100
0010
0000
0010
0001
0000
1000
0010
0000
0100
0001
0000
0000
,
0010
0000
0001
1000
0000
1000
0001
0000
0000
0100
0000
0010
0100
0000
0000
0001
0000
1000
0010
0000
1000
0100
0000
0000
,
0010
0000
0001
1000
0000
1000
0100
0000
0000
1000
0000
0001
0010
0000
0010
0000
0000
0100
1000
0000
0010
1000
0000
0001
,
0000
0000
0100
0010
0000
0100
0001
0000
0001
0000
0000
1000
0001
0000
1000
0100
0000
0010
0000
0000
0001
0100
0000
0000
,
0010
0000
1000
0010
0000
1000
0100
0000
0010
0001
0000
0100
0000
0000
0001
0010
0000
0100
1000
0000
0010
0000
0000
1000
,
0001
0000
0001
0100
0000
0100
0010
0000
0000
1000
0000
1000
0001
0000
0001
0010
0000
0000
0001
0000
1000
0100
0000
0000
,
1001
0000
0000
0000
0000
0000
1000
0000
0010
0000
0000
1000
0002
0000
0000
0000
0000
0000
0013
0000
0001
0000
0000
0100
,
0020
0000
0000
0000
0000
0000
1030
0000
0100
0000
0000
0010
0002
0000
0000
0000
0000
0000
0103
0000
0001
0000
0000
1000
,
0020
0000
0000
0000
0000
0000
0130
0000
0001
0000
0000
1000
0100
0000
0000
0000
0000
0100
1000
0000
0010
0000
0000
0001
,
0100
0000
0000
0001
1000
0001
0010
0000
0000
0001
0100
0010
,
1000
0000
0000
0100
0010
0100
1000
0000
0000
0001
0010
0001
,
1000
0000
0000
0010
0000
0100
0001
0000
0010
0000
0001
0000
1000
0000
0000
0010
0000
1000
0100
0000
0010
0000
0001
0000
,
0100
0000
0000
0001
0000
0010
0001
0000
1000
0000
0100
0000
0010
0000
0000
0001
0000
1000
0100
0000
1000
0000
0010
0000
,
0100
0000
0001
0100
0000
0001
0100
0000
0001
0100
0000
0001
1000
0000
0010
1000
0000
0010
1000
0000
0010
1000
0000
0010
,
0100
0000
0000
0000
0000
0001
1000
0000
0000
0100
0000
0000
0010
0000
0001
0010
0000
0001
1000
0000
0000
0100
0000
0000
,
1000
0000
0000
0000
0000
0010
0100
0000
0000
0001
0000
0000
0010
0000
0100
0010
0000
0100
0010
0000
0001
1000
0000
0000
,
0220
0000
0000
0000
,
0000
0000
0000
0000
0000
0000
0000
0300
,
0030
0000
0000
0000
;

//---------------dance-double - ----------------
#NOTES:
     dance-double:
     :
     Easy:
     4:
     :
00000000
00000000
00000000
00000000
,
00000000
00000000
00000000
00000000
,
00000000
00000000
00000000
00000000
,
00000000
00000000
00000000
00000000
,
00000010
00000100
00000010
00000100
,
00000010
00000000
00000000
00000000
,
00010000
00001000
00010000
00001000
,
00010000
00000000
00000000
00000000
,
00001000
00010000
00001000
00010000
,
00001000
00000000
00000000
00000000
,
00100000
01000000
00100000
01000000
,
00100000
00000000
00000000
00000000
,
20000000
00000000
00000000
30000000
,
02000000
00000000
03000000
00100000
,
00000000
00000000
00020000
00000000
,
00000000
00031000
00000000
00000000
,
00002000
00000000
00003000
00010000
,
00000000
00000000
00000200
00000000
,
00000000
00000310
00000000
00000000
,
00000020
00000000
00000000
00000031
,
00000001
00000100
00000100
00000000
,
00000001
00000100
00000100
00000000
,
00001000
00001000
00010000
00000000
,
00010000
00010000
00001000
00000000
,
00010000
01000000
01000000
00000000
,
00010000
01000000
01000000
00000000
,
00000000
00000000
00000000
00000000
,
10000000
00010000
10000000
00000000
,
01000000
00000000
01000000
00000000
,
00010000
00001000
00010000
00000000
,
00001000
00000000
00001000
00000000
,
00000100
00000010
00000100
00000000
,
00000010
00000000
00000010
00000000
,
00001000
00000001
00001000
00000000
,
00000001
00000000
00000001
00000000
,
00000110
00000000
00000000
00000000
,
00001000
00000100
00001000
00000100
,
00010000
00000000
00010000
00000000
,
00010000
00001000
00010000
00001000
,
00100000
00000000
00100000
00000000
,
01000000
10000000
01000000
10000000
,
00010000
00000000
00010000
00000000
,
01000000
01000000
00001000
00001000
,
00010000
00010000
00001000
00001000
,
00011000
00000000
00000000
00000000
;

//---------------dance-double - ----------------
#NOTES:
     dance-double:
     :
     Medium:
     8:
     :
00000000
00000000
00000000
00000000
,
00000000
00000000
00000000
00000000
,
00000000
00000000
00000000
00000000
,
00000000
00000000
00000000
00000000
,
00001000
00000010
00000001
00000100
,
00001001
00000000
00000000
00000000
,
00010000
00100000
10000000
01000000
,
10010000
00000000
00000000
00000000
,
00001000
00000100
00000001
00000010
,
00000110
00000000
00000000
00000000
,
00010000
01000000
10000000
00100000
,
01100000
00000000
00000000
00000000
,
00020000
00000000
00100000
00000000
00000000
00130000
00000000
00000000
,
00002000
00000000
00000000
00010000
00000000
00000000
00013000
00000000
,
00000000
00000200
00000000
00000000
00001000
00000000
00000000
00001300
,
00000000
00000000
00000010
00000000
00000000
00000001
00000000
00000000
,
00001000
00000000
00000000
00000001
00000000
00000000
00000100
00000000
,
00000000
00001000
00000000
00000000
00010000
00000000
00000000
00100000
,
00000000
00000000
10000000
00000000
00000000
00010000
00000000
00000000
,
10000000
00000000
00000000
01000000
00000000
00000000
00000000
00000000
,
00010000
00000000
00001000
00010000
00001000
00000000
00000100
00000000
,
00000010
00000000
00000100
00000010
00000100
00000000
00001000
00000000
,
00000100
00000000
00000010
00000001
00000010
00000000
00000001
00000000
,
00001000
00000000
00000100
00001000
00000100
00000000
00010000
00000000
,
00001000
00000000
00010000
00001000
00010000
00000000
00100000
00000000
,
01000000
00000000
00100000
10000000
00100000
00000000
01000000
00000000
,
00010000
00000000
00100000
00010000
00100000
00000000
01000000
00000000
,
00100000
00000000
01000000
00010000
01000000
00000000
00010000
00000000
,
00011000
00000000
00001000
00010000
00002000
00000000
00003000
00000000
,
00000110
00000000
00000100
00000010
00000200
00000000
00000300
00000000
,
00000011
00000000
00000001
00000010
00000002
00000000
00000003
00000000
,
00001100
00000000
00001000
00000100
00002000
00000000
00003000
00000000
,
00011000
00000000
00010000
00001000
00020000
00000000
00030000
00000000
,
00011000
00000000
00100000
00010000
00200000
00000000
00300000
00000000
,
10100000
00000000
00100000
10000000
00100000
00000000
01000000
00000000
,
01100000
00000000
00010000
00100000
00010000
00000000
00000000
00000000
,
00002000
00000000
00003000
00010000
00020000
00000000
00030100
00000000
,
00000200
00000000
00000300
00000010
00000020
00000000
00000031
00000000
,
00002000
00000000
00003000
00000100
00000200
00000000
00010300
00000000
,
00020000
00000000
00030000
00001000
00020000
00000000
00030000
00000000
,
00100000
00100000
10000000
00000000
00100000
00100000
10000000
00000000
,
01000000
01000000
00010000
00000000
01000000
01000000
00010000
00000000
,
00001000
00010000
00001000
00010000
00001000
00000100
00000010
00000000
,
00001000
00000010
00001000
00000010
00000100
00000001
00001000
00000000
,
00000220
00000000
00000000
00000000
,
00000000
00000000
00000000
00000000
,
00000330
00000000
00000000
00000000
;

//---------------dance-double - ----------------
#NOTES:
     dance-double:
     :
     Hard:
     12:
     :
00000000
00000000
00000000
00000000
,
00000000
00000000
00000000
00000000
,
00000000
00000000
00000000
00000000
,
00000000
00000000
00000000
00000000
,
10010000
00000000
00000000
00000000
00000000
01000000
00000000
00000000
10000000
00000000
00000000
00010000
00000000
00000000
00000000
00000000
00000000
00000000
01000000
00000000
00001000
00000000
00000000
00100000
,
00000000
00000000
00010000
00000000
00000000
01000000
00001000
00000000
00000000
00000000
00000000
00010000
00100000
00000000
00000000
00000000
00000000
01000000
00001000
00000000
00000000
00010000
00000000
00000000
,
00000100
00000000
00000000
00000000
00000000
00000010
00000000
00000000
00000001
00000000
00000000
00001000
00000000
00000000
00000000
00000000
00000000
00000000
00000010
00000000
00010000
00000000
00000000
00000100
,
00000000
00000000
00001000
00000000
00000000
00000010
00010000
00000000
00000000
00000000
00000000
00001000
00000100
00000000
00000000
00000000
00000000
00000010
00010000
00000000
00000000
00001000
00000000
00000000
,
00010000
00000000
00000000
00000000
00000000
00001000
00100000
00000000
00001000
00000000
00000000
01000000
00010000
00000000
01000000
00000000
00000000
00100000
10000000
00000000
00100000
00000000
00000000
00010000
,
00000000
00000000
00001000
00000000
00000000
00000000
00000100
00000000
00000000
00000001
00000000
00000000
00000010
00000000
00000000
00000001
00000000
00000000
00000100
00000000
00000000
00001000
00000000
00000000
,
00010000
00000000
00000000
00000000
00000000
00100000
10000000
00000000
00100000
00000000
00000000
10000000
00010000
00000000
10000000
00000000
00000000
00010000
01000000
00000000
00010000
00000000
00000000
00100000
,
00000000
00000000
00001000
00000000
00000000
00010000
00001000
00000000
00010000
00000100
00000000
00001000
00000100
00000000
00001000
00000001
00000000
00001000
00000010
00000000
00010000
00000010
00000000
00010000
,
00001000
00000000
00020000
00000000
00030000
02000000
00000000
03000000
,
00200000
00000000
00300000
00002000
00000000
00003000
00020000
00000000
,
00030000
00000020
00000000
00000030
00000200
00000000
00000300
00000002
,
00000000
00000003
00000020
00000000
00000030
00001000
00000000
00000000
,
00010000
00000000
00001000
01000000
00000000
01000000
00100000
00000000
,
00100000
10000000
00000000
10000000
01000000
00000000
01000000
00010000
,
00000000
00010000
00000100
00000000
00000100
00000010
00000000
00000010
,
00000001
00000000
00000001
00001000
00000000
00000000
00001001
00000000
,
00000001
00000010
00000001
00000010
00000001
00001000
00000001
00001000
,
00000100
00001000
00000100
00010000
00000100
00010000
00001000
00010000
,
00001000
01000000
00001000
01000000
00100000
01000000
00100000
10000000
,
00100000
10000000
00010000
10000000
00010000
00100000
00010000
00100000
,
00001000
00100000
00001000
00010000
00001000
00010000
00000100
00010000
,
00000100
00001000
00000100
00001000
00000001
00001000
00000001
00000100
,
00000001
00000100
00000010
00000100
00000010
00001000
00000010
00001000
,
00000100
00001000
00000100
00010000
00000100
00010000
00001000
00010000
,
00001000
01000000
00100000
01000000
00010000
00100000
00010000
01000000
,
10000000
01000000
00100000
00010000
00100000
01000000
00001000
01000000
,
00010000
00100000
00010000
01000000
00100000
01000000
00001000
00010000
,
00001000
00000010
00000100
00000010
00001000
00000001
00001000
00000010
,
00000001
00000010
00000100
00001000
00000100
00010000
00001000
00010000
,
00000010
00001000
00000010
00000100
00001000
00000100
00000010
00000001
,
00000010
00001000
00000100
00001000
00000010
00000100
00000010
00010000
,
00000100
00010000
00001000
00001000
00001000
00000000
00010000
00010000
,
00011000
00000000
00000000
00000000
00000000
01000000
00010000
00000000
00000000
00000000
00000000
00000000
10000000
00000000
00000000
00000000
00000000
01000000
10000000
00000000
00000000
00000000
00000000
00000000
,
00010000
00000000
00000000
00000000
00000000
01000000
00100000
00000000
00000000
00000000
00000000
00010000
00001000
00000000
00000000
00000000
00000000
00000100
00000010
00000000
00000000
00001000
00000000
00000000
,
00000001
00000000
00000000
00000000
00000000
00000100
00000001
00000000
00000000
00000000
00000000
00000000
00001000
00000000
00000000
00000000
00000000
00000100
00001000
00000000
00000000
00000000
00000000
00000000
,
00000001
00000000
00000000
00000000
00000000
00000100
00001000
00000000
00000000
00000000
00000000
00010000
01000000
00000000
00000000
00000000
00000000
10000000
00010000
00000000
00000000
01000000
00000000
00000000
,
00100000
00000000
00000000
10000000
00000000
00000000
00100000
00000000
00000000
00010000
00000000
00000000
00100000
00000000
00000000
10000000
00000000
00000000
01000000
00000000
00010000
00000000
00001000
00000000
,
00000010
00000000
00000000
00000001
00000000
00000000
00000010
00000000
00000000
00001000
00000000
00000000
00000010
00000000
00000000
00000001
00000000
00000000
00000100
00000000
00001000
00000000
00010000
00000000
,
00100000
00000000
00000000
01000000
00000000
00000000
00100000
00000000
00010000
00000000
00001000
00000000
00000100
00000000
00000000
00000010
00000000
00000000
00000100
00000000
00001000
00000000
00010000
00000000
,
01000000
00000000
00000000
00100000
00000000
00000000
01000000
00000000
00010000
00000000
00001000
00000000
00000010
00000000
00000000
00000100
00000000
00000000
00000010
00000000
00001000
00000000
00010000
00000000
,
00002000
00000000
00000000
00000000
,
00000000
00000000
00000000
00000000
,
00003000
00000000
00000000
00000000
;
