#TITLE:Lean On;
#ARTIST:Major Lazer & DJ Snake ft. MØ;
#BANNER:Lean On-bn.png;
#BACKGROUND:Lean On-bg.png;
#JACKET:Lean On-jacket.png;
#MUSIC:Lean On.ogg;
#SAMPLESTART:46.789;
#SAMPLELENGTH:20;
#DISPLAYBPM:98;
#BPMS:0=98;
#BGCHANGES:;

//---------------dance-single - ----------------
#NOTES:
     dance-single:
     :
     Beginner:
     2:
     :
0000
0000
0000
0000
,
0000
0000
0000
0000
,
0000
0000
0000
0000
,
0000
0000
0000
0000
,
2000
0000
3000
0000
,
0002
0000
0003
0000
,
0200
0000
0300
0000
,
0020
0000
0030
0000
,
1000
0000
0100
0000
,
0001
0000
0010
0000
,
0002
0000
0003
0000
,
2000
0000
3000
0000
,
0010
0000
0010
0000
,
0100
0000
0001
0000
,
1000
0000
0001
0000
,
1000
0000
0100
0000
,
0010
0000
0001
0000
,
0001
0000
1000
0000
,
1000
0000
0010
0000
,
0100
0000
0000
0000
,
0000
0001
0000
0001
,
0000
1000
0000
1000
,
0000
0010
0000
0010
,
0000
0100
0000
0100
,
0000
0001
0000
0001
,
0000
0010
0000
0010
,
0000
0100
0000
0100
,
0000
1000
0000
1000
,
0000
0000
0000
0000
,
0000
0000
0000
0000
,
0001
0000
0100
0000
,
0001
0000
1000
0000
,
0000
0000
0010
0000
,
0100
0000
0000
0000
,
0001
0000
0010
0000
,
0001
0000
1000
0000
,
0000
0000
0100
0000
,
1000
0000
0001
0000
,
0010
0000
0010
0000
,
0001
0000
1000
0000
,
1000
0000
0001
0000
,
0100
0000
0100
0000
,
0001
0000
0010
0000
,
0100
0000
1000
0000
,
0010
0000
1000
0000
,
0001
0000
0000
0100
;

//---------------dance-single - ----------------
#NOTES:
     dance-single:
     :
     Easy:
     6:
     :
0000
0000
0000
0000
,
0000
0000
0000
0000
,
0000
0000
0000
0000
,
0000
0000
0000
0000
,
0000
1000
0000
0001
,
0000
0010
0001
1000
,
0000
0010
0000
0100
,
0000
0001
1000
0001
,
0100
0000
0001
0010
,
0001
0001
1000
0100
,
0000
1000
0000
0010
,
0000
0100
0001
0010
,
0000
0001
0000
1000
,
0000
0010
1000
0100
,
0000
0010
0000
0001
,
0000
0100
0001
1000
,
0000
0010
0000
0100
,
0000
0001
0010
1000
,
0000
0100
0000
1000
,
0000
0010
0100
0001
,
0000
1000
0000
0100
0000
1000
0000
0001
,
0000
0010
0000
0001
0000
0100
0000
0010
,
0000
1000
0000
0100
0000
1000
0000
0001
,
0000
0010
0000
0001
0000
1000
0000
0010
,
0000
0100
0000
0010
0000
0100
0000
0001
,
0000
0010
0000
0100
0000
1000
0000
0010
,
0000
1000
0000
0001
0000
0010
0000
0100
,
0000
1000
0001
0100
,
0110
0000
1000
0000
,
0001
0000
0000
0000
0000
2002
3000
0000
,
0013
0001
0100
0001
,
0010
0001
0100
0100
,
0000
0010
1000
0100
,
1000
0001
0100
0110
,
1000
1000
0001
0010
,
0001
0100
0010
1000
,
0000
0100
1000
0001
,
0100
0100
0010
1001
,
0000
1000
0000
0001
,
0000
0010
0001
0100
,
0000
0001
0000
0010
,
0000
0001
0100
1000
,
0000
0001
0000
1000
,
0000
0100
0010
0100
,
0000
1000
0000
0001
,
0000
0010
1000
0100
;

//---------------dance-single - ----------------
#NOTES:
     dance-single:
     :
     Medium:
     9:
     :
0000
0000
0000
0000
,
0000
0000
0000
0000
,
0000
0000
0000
0000
,
0000
0000
0000
0000
,
0000
0000
1000
1000
0000
0000
0001
0001
,
0000
0000
0010
0001
0100
0010
1000
0001
,
0000
0000
0100
0100
0000
0000
0010
0010
,
0000
0000
1000
0100
0010
0001
0100
0010
,
1000
0000
0000
0001
1000
0001
0100
0000
,
0020
0000
0230
0000
0301
1000
0100
0000
,
0000
0000
1000
0001
0000
0000
0100
0010
,
0000
1000
0100
1000
0010
0100
0001
1000
,
0010
0000
1000
0001
0010
0000
0001
0100
,
0010
1000
0002
0000
0103
0010
0100
0001
,
0010
0000
0001
1000
0010
0000
1000
0100
,
0010
0000
0001
1000
0001
0100
0010
1000
,
0100
0000
1000
0001
0010
0000
0001
0100
,
0010
1000
0002
0000
1003
0001
0010
0100
,
1000
0000
0010
0100
0001
0000
0010
0001
,
1000
0000
0100
0010
0100
1000
0001
0100
,
0000
0001
1000
0100
0000
0010
0001
1000
,
0000
0010
0100
0001
0001
1000
0001
0100
,
0000
0010
1000
0100
0000
0010
0001
1000
,
0000
0010
0100
0001
0001
1000
0100
0010
,
0000
0001
0100
0010
0000
1000
0001
1000
,
0000
0100
0020
0000
0031
1000
0001
0100
,
0000
0010
1000
0100
0000
1000
0001
0010
,
0000
0001
0100
0010
1000
0001
1000
0100
,
0010
0010
0010
0010
,
0010
0000
0000
1001
0000
0220
0000
0300
,
0031
0001
0001
0100
0010
1000
0100
0010
,
0001
0100
0001
1000
0100
0010
0001
0001
,
0000
1000
0010
1000
0001
0000
0001
0010
,
0200
0000
0000
1300
0000
0000
0000
0000
0000
0000
0000
0000
0000
0000
0000
0000
,
0001
1000
0010
0000
1000
1000
0100
0010
,
0001
0100
0001
0010
0100
0000
1000
0001
,
0000
1000
0010
0100
0001
0000
0001
1000
,
0010
0000
0000
0010
0000
0000
2000
0000
0000
3002
0000
0000
1003
0000
0000
0000
,
0010
0000
1000
0001
0010
0000
0001
0100
,
0010
1000
0200
0000
1300
0010
0100
0001
,
0010
0000
0001
1000
0001
0000
0010
0100
,
1000
0000
0010
0100
0010
1000
0001
0100
,
0001
0000
0010
0001
0100
0000
0010
1000
,
0001
1000
0020
0000
1030
0001
0010
0100
,
1000
0000
0100
1000
0010
0000
0100
0001
,
0010
0000
0001
0100
1000
0001
1000
0100
;

//---------------dance-single - ----------------
#NOTES:
     dance-single:
     :
     Hard:
     12:
     :
0000
0000
0000
0000
,
0000
0000
0000
0000
,
0000
0000
0000
0000
,
0000
0000
0000
0000
,
0000
0000
0000
1000
0100
1000
0001
0000
0000
0000
0000
0010
0001
0100
0001
0000
,
0000
0000
0000
0000
0010
0000
0001
1000
0000
0010
0000
1000
0001
0000
0100
0000
,
0000
0000
0000
0000
1000
0001
1000
0000
0000
0000
0000
0010
0100
0000
0001
0000
,
0000
0000
0000
0000
0010
0000
0001
0100
0000
0000
0010
0000
1000
0000
0001
1000
,
0100
0010
0000
0000
0000
0000
0001
0100
0002
0000
1000
0000
1003
0000
0000
0000
,
0020
0000
0230
0000
0301
1000
0200
0000
,
0300
0000
0000
0000
0010
0001
1000
0000
0000
0000
0000
0100
1000
0000
0001
0000
,
0000
0000
0010
0001
0010
0000
0100
1000
0000
0001
0000
1000
0010
0000
0100
0000
,
0110
0000
0000
0000
0001
1000
0100
0000
0010
0000
0000
0000
0001
0100
0010
1000
,
0000
0000
0100
1000
0002
0000
0000
0010
0000
0013
0000
0001
1000
0000
0100
0000
,
0010
0000
0000
0000
0001
1000
0010
0000
0100
0000
0000
0000
0001
0010
0100
1000
,
0000
0000
0010
0100
0010
1000
0001
0100
0000
0100
0000
0001
1000
0000
0010
0000
,
0100
0000
0001
0000
0010
0100
1000
0000
0010
0000
1000
0000
0001
1000
0010
0100
,
0001
0000
0010
0100
2000
0000
0000
0001
0000
3001
0000
1000
0010
0000
0100
0000
,
0001
0000
0010
0000
0001
0100
1000
0000
0010
0000
0100
0000
0001
1000
0100
0010
,
0000
0000
0001
1000
0001
0010
0100
1000
0000
1000
0000
0001
0100
0000
0010
0000
,
0110
0000
1000
0010
0000
0100
0001
0000
0000
0000
0010
0001
0000
1000
0100
0000
,
0000
0000
1000
0001
0000
0100
0010
0000
1001
0000
0100
0001
0000
1000
0010
0000
,
0000
0000
0001
1000
0000
0100
0010
0000
0000
0000
0100
1000
0000
0001
0010
0000
,
0000
0000
0001
0100
0000
0010
1000
0000
1001
0000
1000
0001
0000
0010
0100
0000
,
0000
0000
1000
0100
0000
0010
0001
0000
0000
0000
0100
0010
0000
1000
0001
0000
,
0000
0000
0010
0001
0100
0000
0000
0101
0000
0101
0000
0010
1000
0000
0001
0000
,
0000
0000
0010
0100
0000
1000
0001
0000
0000
0000
1000
0010
0000
0100
0001
0000
,
0000
0000
0010
0001
0010
0100
1000
0001
0000
0001
0000
0100
0010
0000
1000
0000
,
0001
0100
0001
0100
1000
0100
1000
0100
,
0001
0100
0010
1010
0000
0202
0000
0300
,
1003
0000
1000
0000
0001
0000
0001
0000
0100
0000
0010
0000
1000
0100
0001
0100
,
1000
0000
0001
0100
1000
0100
0001
0000
0010
0001
0100
0001
1000
0000
1000
0000
,
0000
0000
0001
1000
0001
0000
0100
0000
0100
0000
0000
0000
0010
1000
0010
0100
,
0001
0000
0000
1000
0000
0000
2100
0000
0000
0000
0001
0000
3002
0000
0000
0000
,
1003
0010
0001
0010
1000
0000
0000
0000
0001
0100
1000
0000
1000
0010
1000
0001
,
0010
0000
0001
0100
0000
0001
1000
0000
0010
0000
0010
0000
1000
0100
0010
0001
,
0000
0000
0100
0001
1000
0000
1000
0000
1000
0000
0000
0000
0001
0010
0001
0100
,
0001
0000
0000
1000
0000
0000
1100
0000
0000
0011
0000
0000
1001
0000
0000
0000
,
0010
0000
0000
0000
1000
0001
1000
0000
0100
0000
0000
0000
0010
0001
0010
0100
,
0000
0000
1000
0010
0200
0000
0000
0001
0000
0301
0000
1000
0010
0000
0100
0000
,
0001
0000
0000
0000
0010
0001
1000
0000
0100
0000
0000
0000
1000
0010
0100
0001
,
0000
0000
0010
0001
0010
0100
1000
0001
0000
1000
0000
0010
0100
0000
0001
0000
,
0010
0000
0000
0000
0001
0100
1000
0000
0001
0000
0000
0000
1000
0010
0100
0001
,
0000
0000
1000
0001
0020
0000
0000
0100
0000
0130
0000
0010
0001
0000
1000
0000
,
0010
0000
0000
0000
0100
0001
1000
0000
0100
0000
0000
0000
0010
0001
1000
0100
,
0000
0000
1000
0001
0010
0001
0100
0010
0000
1000
0000
0001
1000
0000
0100
0000
;

//---------------dance-single - ----------------
#NOTES:
     dance-single:
     :
     Challenge:
     14:
     :
0000
0000
0000
0000
,
0000
0000
0000
0000
,
0000
0000
0000
0000
,
0000
0000
0000
0000
,
2000
0000
0000
0001
0000
0000
0010
0000
0000
0001
0000
0000
3100
0000
0000
0000
,
0002
0000
0000
0100
0000
0000
0010
0000
0000
0100
0000
0000
1003
0000
0001
0000
,
0200
0000
0000
1000
0000
0000
0010
0000
0000
1000
0000
0000
0301
0000
0000
0000
,
0020
0000
0000
0100
0000
0000
1000
0000
0000
0100
0000
0000
0031
0000
1000
0000
,
0002
0000
0000
0100
0000
0000
0010
0000
0000
1000
0000
0000
1003
0000
0000
0000
,
2000
0000
0000
0010
0000
0000
0001
0000
0000
0100
0000
0000
3100
0000
1000
0000
,
0020
0000
0000
1000
0000
0000
0001
0000
0000
0100
0000
0000
0130
0000
0000
0000
,
0200
0000
0000
0000
0000
0000
0010
0000
0000
0000
0000
0000
1000
0000
0000
0000
0000
0000
0001
0000
0000
0000
0000
0000
0301
0000
0000
0000
1000
0100
1000
0100
,
1000
0000
0000
0010
0100
0001
1000
0000
0010
0100
0000
0000
0001
0010
0001
1000
,
0100
0000
1000
0010
1000
0001
0000
0011
0000
0011
0000
0100
0010
0000
1000
0000
,
0001
0000
0000
0010
0001
1000
0010
0000
1000
0100
0000
0000
0010
0001
0100
0001
,
1000
0000
0010
0100
0010
1000
0100
0010
0001
1000
0000
0001
0100
0000
0010
0000
,
1000
0000
0100
1000
0010
0100
0001
0000
0010
0000
0001
1000
0001
0010
0100
1000
,
0010
0000
0000
0000
0100
0000
0001
0000
0010
0000
0100
0000
1000
0000
0001
0000
1000
0000
0010
0000
0000
0000
0100
0000
0001
0000
0000
0000
0010
0100
0010
0000
,
0001
0000
0100
0010
1000
0001
1000
0000
0100
0000
0010
0001
1000
0001
0100
0010
,
1000
1000
1000
0100
0010
0001
0100
0010
0000
0010
0000
0010
1000
0000
0001
0000
,
0110
0000
0001
0100
0000
0010
1000
0000
1100
0000
1000
0001
0000
0100
0010
0000
,
0101
0000
1000
0001
0010
0100
1000
0000
1001
0000
0010
0100
0000
0001
1000
0000
,
1010
0000
0100
0001
0000
0010
1000
0000
1100
0000
0010
0001
0000
1000
0100
0000
,
0011
0000
0000
0000
1000
0000
0001
0000
0010
0000
0100
0000
1000
0000
0000
0000
1001
0000
0000
0000
0010
0000
0100
0000
0000
0000
0001
0000
1000
0100
1000
0100
,
1000
0010
0100
0001
1000
0000
0101
0000
1010
0000
0001
1000
0000
0100
0010
0000
,
0011
0000
0010
0100
1000
0010
1000
0001
0100
0010
0100
0001
0010
0100
1000
0000
,
1100
0000
0001
1000
0100
1000
0010
0000
0110
0000
0100
0001
0000
1000
0010
0000
,
0100
0000
0000
0100
0000
0000
0100
0000
0000
0010
0000
0000
1000
0000
0000
0001
0000
0000
0010
0000
0001
0000
1000
0000
0001
0000
0000
0100
0000
0000
0010
0000
0000
1000
0000
0000
0100
0000
0000
1000
0000
0000
0001
0000
0000
0000
0000
0000
,
0011
0100
1010
0100
0011
0100
1010
0100
,
0011
0000
0000
0000
0100
0000
0000
0000
0010
0000
0000
0000
1001
0000
0000
0000
0000
0000
0000
0000
0110
0000
0000
0000
1000
0001
1000
0001
1000
0000
0000
0000
,
1100
0000
0110
0000
0011
0000
0101
0000
1001
0000
1010
0000
0001
0100
1000
0100
,
0001
0000
0000
0000
1000
0000
0010
0000
0001
0000
0010
0000
1000
0000
0000
0000
0001
0100
0001
0000
1000
0100
1000
0000
0010
0000
0100
0000
0001
0000
1000
0000
,
0100
0000
1000
0001
0010
0000
0101
0000
1100
0001
0100
0000
0010
1000
0001
0010
,
0110
0000
0000
0000
1000
0000
0010
0000
1000
0000
0000
0000
1100
0000
1000
0000
0010
0000
0100
0000
0001
1000
0001
1000
0001
0000
0100
0000
0010
0000
0000
0000
,
1000
0001
0100
0010
1010
0000
0001
0000
0011
0100
0010
1000
0100
0001
0100
1000
,
0010
0000
1000
0000
0001
0000
0010
0000
0001
0000
0100
0000
1000
0000
0000
0000
1001
0000
0000
0000
0110
0000
0000
0000
0001
0000
0010
0000
0001
1000
0001
0000
,
0100
0000
0010
1000
1001
0000
0101
0000
0011
1000
0001
0000
0100
0010
1000
0001
,
0011
0000
0000
0110
0000
0000
1100
0000
0000
0101
0000
0000
1001
0000
0000
0000
,
0010
1000
0010
1000
0100
0010
0001
0000
1000
0001
0000
0010
0001
0100
0010
1000
,
0100
0000
1000
0001
1000
0010
0100
0001
0010
0100
1000
0001
0100
0001
0010
0000
,
0100
0000
1000
0001
1000
0010
0100
0000
0001
0010
0100
0000
1000
0010
1000
0001
,
0100
0000
0000
0000
0000
0000
0000
0000
0000
0000
0000
0000
0000
0000
0000
0000
0000
0000
0000
0000
0000
0000
0000
0000
0010
0000
0000
0000
0000
0000
0000
0000
0000
0000
0000
0000
1000
0000
0000
0000
0000
0000
0000
0000
0000
0000
0000
0000
0001
0000
0000
0000
0000
0000
0000
0000
0000
0000
0000
0000
1000
0000
0000
0000
0000
0000
0000
0000
0000
0000
0000
0000
0100
0000
0000
0000
0000
0000
0000
0000
0010
0000
0000
0000
0000
0000
0000
0000
0001
0000
0000
0000
0000
0000
0000
0000
1000
0000
0000
0000
0000
0000
0000
0000
0000
0000
0000
0000
0010
0000
0000
0000
0000
0000
0000
0000
0000
0000
0000
0000
1000
0000
0000
0000
0000
0000
0000
0000
0000
0000
0000
0000
0001
0000
0000
0000
0000
0000
0000
0000
0000
0000
0000
0000
0100
0000
0000
0000
0000
0000
0000
0000
0000
0000
0000
0000
0010
0000
0000
0000
0000
0000
0000
0000
0000
0000
0000
0000
1000
0000
0000
0000
0000
0000
0001
0000
0000
0000
0000
0000
1000
0000
0000
0000
0000
0000
0001
0000
0000
0000
0000
0000
,
1000
0100
0010
0001
1000
0001
0100
0000
0010
1000
0000
0000
0100
1000
0001
0010
,
0100
0000
1000
0001
0010
0001
0100
0010
0001
0010
1000
0010
0100
0001
1000
0000
,
0010
0000
1000
0000
0100
0000
1000
0000
0001
0000
0010
0000
0100
0000
0000
0000
1000
0000
0001
0000
0010
0100
0010
0000
0001
0000
1000
0000
0010
0000
1000
0000
,
0100
0100
0100
0010
0001
0100
0001
1000
0000
0010
0000
1000
0001
0000
0100
0000
;
