#TITLE:Last Card;
#SUBTITLE:;
#ARTIST:kors k;
#TITLETRANSLIT:;
#SUBTITLETRANSLIT:;
#ARTISTTRANSLIT:;
#GENRE:;
#CREDIT:;
#BANNER:Last Card.png;
#BACKGROUND:Last Card-bg.png;
#LYRICSPATH:;
#CDTITLE:;
#MUSIC:Last Card.ogg;
#OFFSET:0.000000;
#SAMPLESTART:93.164001;
#SAMPLELENGTH:20.000000;
#SELECTABLE:YES;
#BPMS:0.000000=85.000000
,12.000000=170.000000
,152.000000=85.000000
,184.000000=170.000000
;
#STOPS:87.937500=1.412000,
211.937500=1.412000
;
#BGCHANGES:;
#KEYSOUNDS:;
#ATTACKS:;

//---------------dance-single - ----------------
#NOTES:
     dance-single:
     :
     Beginner:
     4:
     0.178224,0.234220,0.064390,0.032195,0.004024,155.000000,147.000000,8.000000,4.000000,0.000000,0.000000,0.178224,0.234220,0.064390,0.032195,0.004024,155.000000,147.000000,8.000000,4.000000,0.000000,0.000000:
0000
0000
0000
0000
,
0000
0000
0000
0000
,
0000
0000
0000
0000
,
0001
0000
0010
0000
,
0001
0000
0100
0000
,
0010
0000
1000
0000
,
0100
0000
1000
0000
,
1001
0000
0000
0000
,
0001
0001
0001
0000
,
1001
0000
0000
0000
,
1000
1000
1000
0000
,
1001
0000
0000
0000
,
0010
0010
0010
0000
,
1001
0000
0000
0000
,
0100
0100
0100
0000
,
1000
0000
0100
0000
,
1000
0000
0010
0000
,
0001
0000
0010
0000
,
0001
0000
0100
0000
,
1000
1000
1000
0000
,
0100
0100
0100
0000
,
0010
0010
0010
0000
,
0000
0000
0001
0000
,
0100
0000
0001
0000
,
0010
0000
0100
0000
,
1000
1000
1000
0000
,
0010
0000
1000
0000
,
0100
0000
1000
0000
,
0010
0000
0100
0000
,
0001
0001
0001
0000
,
1001
0000
0001
0000
,
0100
0000
1000
0000
,
0100
0000
0001
0000
,
0100
0000
1000
0000
,
1001
0000
1000
0000
,
0010
0000
0001
0000
,
0010
0000
1000
0000
,
0010
0000
0001
0000
,
1001
0000
0001
0001
,
0001
0000
0010
0010
,
0010
0000
0100
0100
,
0100
0000
1000
1000
,
1000
0000
0010
1000
,
0100
0000
0010
0001
,
0100
0000
0100
1000
,
0010
0000
0100
0001
,
0020
0000
0000
0000
,
0030
0000
0000
0000
,
0002
0000
0000
0000
,
0003
0000
0000
0000
,
0200
0000
0000
0000
,
0300
0000
0000
0000
,
2000
0000
0000
0000
0000
0000
0000
0000
0000
0000
0000
0000
0000
0000
0000
0000
0000
0000
0000
0000
0000
0000
0000
0000
0000
0000
0000
0000
0000
0000
0000
0000
0000
0000
0000
0000
0000
0000
0000
0000
0000
0000
0000
0000
0000
0000
0000
0000
0000
0000
0000
0000
0000
0000
0000
0000
0000
0000
0000
0000
0000
0000
0000
3000
,
0000
0000
1000
0000
,
0100
0000
0010
0000
,
0100
0000
0001
0000
,
0001
0001
0001
0000
,
0010
0000
0001
0000
,
0100
0000
0010
0000
,
0100
0000
1000
0000
,
1000
1000
1000
0000
,
0010
0000
1000
0000
,
0100
0000
0010
0000
,
0001
0000
0100
0000
,
0001
0000
1000
0000
,
0001
0000
0010
0000
,
0100
0000
1000
0000
,
0010
0000
0100
0000
,
1001
0000
0000
0000
,
0001
0001
0001
0000
,
1000
1000
1000
0000
,
0001
0001
0001
0000
,
1000
0001
1000
0001
,
0000
0000
0000
0000
;

//---------------dance-single - ----------------
#NOTES:
     dance-single:
     :
     Easy:
     8:
     0.336900,0.468441,0.169025,0.040244,0.000000,293.000000,272.000000,21.000000,5.000000,0.000000,0.000000,0.336900,0.468441,0.169025,0.040244,0.000000,293.000000,272.000000,21.000000,5.000000,0.000000,0.000000:
0000
0000
0000
0000
,
0000
0000
0000
0000
,
0000
0000
0000
0000
,
0001
1000
0001
0000
,
1000
0001
1000
0000
,
0010
0100
0010
0100
,
0010
0000
0100
0000
0010
0100
0010
0000
,
1001
0000
0001
0100
,
0001
1000
0001
0000
,
1001
0000
1000
0010
,
1000
0001
1000
0000
,
1001
0000
0001
0010
,
0001
1000
0001
0000
,
1001
0000
1000
0100
,
1000
0001
1000
0000
,
0100
1000
0100
0000
,
1000
0001
1000
0000
,
0001
0100
0001
0000
,
1000
0001
1000
0000
,
0001
0010
0001
0010
,
0100
1000
0100
1000
,
0001
0000
1000
0000
0001
1000
0001
0000
,
0000
0001
0010
0001
,
1000
0010
1000
0010
,
0100
0010
1000
0010
,
0100
0001
1000
0001
,
1001
0100
1000
0100
,
0010
0001
1000
0001
,
0010
0100
0010
0100
,
1000
1000
0001
0001
,
1001
0001
0100
1000
,
0100
0001
0100
1000
,
0100
0001
0100
1000
,
0100
0000
0001
0000
0001
0001
0001
0000
,
1001
1000
0100
0001
,
0100
1000
0100
0001
,
0100
1000
0100
0001
,
0100
1000
0001
0010
,
0100
0000
1000
1000
0100
0100
0100
0000
,
1001
0000
0001
0001
0100
0100
0100
0000
,
1001
0000
0010
0010
1000
1000
1000
0000
,
1001
0000
0010
0010
0001
0001
0001
0000
,
1001
0000
0010
0010
0010
0010
0010
0000
,
1001
0000
0100
0100
0100
0100
0100
0000
,
0110
0000
0001
0001
0001
0001
0001
0000
,
0110
0000
1000
1000
1000
1000
1000
0000
,
0002
0000
0000
0003
,
0200
0000
0000
0300
,
0020
0000
0000
0030
,
2000
0000
0000
3000
,
1000
1000
1000
0000
,
0001
0001
0001
0000
,
1000
0001
1000
0001
,
0000
0010
1000
0001
,
0010
0001
0100
0010
,
1000
0100
1000
0001
,
0100
0101
0010
1010
,
1000
0001
0100
0001
,
0010
0100
1000
0001
,
1000
0001
0100
0010
,
1001
0000
0110
0000
0100
0100
0100
0000
,
1000
0001
0100
0010
,
1000
0010
0100
0001
,
0010
0100
0010
0001
,
0010
0011
0100
1100
,
0100
0001
0010
0001
,
1000
0010
0100
0010
,
1000
0100
1000
0010
,
0200
0000
0000
0300
,
0001
0000
0100
0000
0001
0001
0001
0000
,
0010
0000
0100
0000
0010
0010
0010
0000
,
1000
0000
0100
0000
1000
1000
1000
0000
,
0010
0010
0010
0010
0010
0000
0110
0000
,
0000
0000
0000
0000
;

//---------------dance-single - ----------------
#NOTES:
     dance-single:
     :
     Medium:
     12:
     0.593312,0.878326,0.289757,0.048293,0.257562,516.000000,480.000000,36.000000,6.000000,0.000000,0.000000,0.593312,0.878326,0.289757,0.048293,0.257562,516.000000,480.000000,36.000000,6.000000,0.000000,0.000000:
0000
0000
0000
0000
,
0000
0000
0000
0000
,
0000
0000
0000
0000
,
0001
0010
0100
1000
,
0001
0010
0100
1000
,
0010
0100
0010
0100
,
0010
0100
0010
0100
0010
0100
0010
0000
,
1001
0000
0000
0001
0100
0001
0100
0001
,
1000
0001
1000
0100
1000
0100
1000
0000
,
1001
0000
0000
0010
1000
0010
1000
0010
,
1000
0001
1000
0001
0010
0001
0010
0000
,
1001
0000
0000
1000
0100
1000
0100
1000
,
0001
1000
0001
0100
0001
0100
0001
0000
,
1001
0000
0000
0010
0001
0010
0001
0010
,
0001
1000
0001
1000
0010
1000
0010
0000
,
1000
0100
1000
0100
,
0010
0001
0010
0001
,
1000
0001
1000
0001
,
0100
0010
0100
0010
,
1000
0100
0010
0000
0001
0100
0001
0000
,
0001
0100
0010
0000
1000
0100
1000
0000
,
0001
0000
0010
0000
0100
0000
1000
0000
0001
1000
0001
1000
0001
0000
0000
0000
,
1001
0000
0001
0100
0010
0100
0001
0000
,
1000
0100
1000
0100
0010
0001
0100
0000
,
0010
1000
0100
0100
0000
1000
0001
0100
,
0000
0110
0000
0010
0001
0010
1000
0000
,
1001
0000
0001
0100
0000
0010
1000
0100
,
0000
0001
0100
1000
0001
1000
0001
0000
,
0010
0001
0100
0001
0010
0001
0100
0000
,
1001
0110
1001
0110
,
1001
0000
1000
0010
0001
0010
1000
0000
,
1001
0000
0001
0100
1000
0100
0001
0000
,
1001
0000
1000
0100
0001
0100
1000
0000
,
0001
0001
0100
0100
0010
1000
0010
0010
,
1001
0000
1000
0100
0001
0100
1000
0000
,
1001
0000
0001
0010
1000
0010
0001
0000
,
1001
0000
1000
0010
0001
0010
1000
0000
,
1010
0110
0101
0110
,
1001
0000
0000
0010
0001
0010
0001
0010
0001
0010
0001
0010
0000
0010
0100
0000
,
1001
0000
0000
0010
1000
0010
1000
0010
1000
0010
1000
0010
0000
0010
0100
0000
,
1001
0000
0000
0100
0001
0100
0001
0100
0001
0100
0001
0100
0000
0100
0010
0000
,
1001
0000
0000
0100
1000
0100
1000
0100
1000
0100
1000
0100
0000
0100
0010
0000
,
1001
0000
0000
0001
1000
0001
1000
0001
0100
0001
0100
0010
0100
0010
0100
0000
,
1001
0000
0000
1000
0001
1000
0001
1000
0100
1000
0100
0010
0100
0010
0100
0000
,
1001
0000
0000
0010
0100
0010
0100
0010
0100
0100
0100
0010
0010
0010
0100
0000
,
1001
0000
0000
0100
0010
0100
0010
0100
0010
0010
0010
0100
0100
0100
0010
0000
,
0002
0000
0103
0001
,
2000
0000
3100
1000
,
0020
0000
0130
0001
,
0020
0000
0130
1000
,
0001
0010
0001
0000
0001
0010
0100
0000
,
1000
0010
1000
0000
1000
0010
0100
0000
,
0001
0000
1000
0000
0001
0000
1000
0000
0001
1000
0001
1000
0001
0000
0000
0000
,
1001
0000
0001
0010
0100
1000
0010
0100
,
0001
0000
0100
0001
0010
0001
0100
0010
,
1000
0000
0100
0010
0001
1000
0010
1000
,
0100
0100
1010
0011
,
1001
0000
0100
0001
1000
0010
0100
0010
,
1000
0000
0001
0010
0100
0010
0001
0100
,
0010
0000
1000
0001
0100
0001
1000
0100
,
1000
0000
0010
0000
0100
0100
0100
0000
,
0110
0000
0001
0100
0010
1000
0100
0010
,
0001
0100
0001
0010
0100
1000
0001
0100
,
0001
0010
0001
0010
0100
1000
0001
0100
,
0010
1000
0100
1000
0010
0100
0010
0000
,
0110
0000
0100
0001
1000
0001
0100
0010
,
1000
0001
0010
0100
1000
0100
0001
0100
,
1000
0000
0010
0000
0100
0000
0010
0000
0100
0010
0100
0010
0100
0000
0000
0000
,
0220
0000
0000
0330
,
0001
0000
1000
0000
0100
0000
1000
0000
0010
0100
0000
0010
0100
0000
0000
0000
,
0001
0000
0010
0000
0100
0000
1000
0000
0001
1000
0000
0001
1000
0000
0000
0000
,
0001
1000
0001
1000
0001
1000
0001
1000
,
0001
1000
0001
1000
0001
1000
0001
1000
0001
1000
0001
1000
0001
0000
0000
0000
,
0000
0000
0000
0000
;

//---------------dance-single - ----------------
#NOTES:
     dance-single:
     :
     Hard:
     15:
     0.816379,1.288212,0.257562,0.056342,0.849149,710.000000,678.000000,32.000000,7.000000,0.000000,0.000000,0.816379,1.288212,0.257562,0.056342,0.849149,710.000000,678.000000,32.000000,7.000000,0.000000,0.000000:
0000
0000
0000
0000
,
0000
0000
0000
0000
,
0000
0000
0000
0000
,
0001
1000
0001
1000
,
0001
1000
0001
1000
,
0010
0100
0010
0100
0010
0100
0010
0100
,
0010
0100
0010
0100
0010
0100
0010
0100
0010
0100
0010
0100
0010
0000
0000
0000
,
1001
0000
0000
0000
0000
0000
0001
0100
0001
0100
0001
0100
0001
0100
0001
0100
,
0001
1000
0001
1000
0001
0000
1000
0000
0100
0000
1000
0000
0100
0000
0000
0000
,
1001
0000
0000
0000
0000
0000
0010
1000
0010
1000
0010
1000
0010
1000
0010
1000
,
0001
1000
0001
1000
0001
0000
0010
0000
0001
0000
0010
0000
0001
0000
0000
0000
,
1001
0000
0000
0000
0000
0000
1000
0100
1000
0100
1000
0100
1000
0100
1000
0100
,
1000
0001
1000
0001
1000
0000
0001
0000
0100
0000
0001
0000
0100
0000
0000
0000
,
1001
0000
0000
0000
0000
0000
0010
0001
0010
0001
0010
0001
0010
0001
0010
0001
,
1000
0001
1000
0001
1000
0000
0010
0000
1000
0000
0010
0000
1000
0000
0000
0000
,
0001
0010
0001
0000
0010
0100
1000
0000
,
1000
0010
1000
0000
0010
0100
0001
0000
,
0001
0100
0001
0000
0100
0010
1000
0000
,
1000
0100
1000
0000
0100
0010
0001
0000
,
0001
0010
0001
0010
0100
1000
0010
0100
,
0010
1000
0010
1000
0010
0100
0001
1000
,
0001
1000
0001
1000
0001
1000
0001
1000
0001
1000
0001
1000
0001
1000
0001
1000
,
1001
0000
0000
0000
1000
0000
0100
0000
0010
0001
0000
0010
0001
0000
0100
0000
,
0010
0000
1000
0000
0100
0000
1000
0000
0010
0100
0000
0010
0100
0000
0100
0000
,
0001
1000
0100
1100
0000
1000
0001
0022
,
0033
0000
0010
0000
0001
0000
0001
0000
0100
0010
0100
0000
0010
0000
0000
0000
,
1001
0001
0100
0200
0000
1000
1300
0200
,
0300
0000
0100
0000
0010
0000
0010
0000
1000
0001
0000
1000
0001
0000
0001
0000
,
1000
0100
0001
0100
1000
0100
0010
0000
,
0011
0101
1010
1100
,
1001
0000
0000
0000
0010
0000
0001
0000
1000
0100
1000
0100
1000
0000
0010
0000
,
1000
0000
0000
0000
0001
0000
0010
0000
0001
0100
0001
0100
0001
0000
0010
0000
,
0001
0000
0000
0000
0100
0000
0010
0000
1000
0010
1000
0010
1000
0000
0001
0000
,
0010
0000
0001
0000
0010
0000
0100
0000
1000
0001
1000
0001
1000
0001
1000
0001
,
1000
0000
0000
0000
0010
0000
0100
0000
0010
1000
0010
1000
0010
0000
1000
0000
,
0001
0000
0000
0000
0010
0000
0100
0000
0010
0001
0010
0001
0010
0000
0001
0000
,
1000
0000
0000
0000
0001
0000
0100
0000
0010
0100
0010
0100
0010
0000
0100
0000
,
0101
1001
1010
0110
,
1001
0000
0000
0000
0000
0000
0001
0010
0001
0010
0001
0010
0001
0010
0001
0010
0100
0010
0100
0010
0100
0000
0010
0000
0001
0000
1000
0000
0001
0000
0000
0000
,
1001
0000
0000
0000
0000
0000
1000
0010
1000
0010
1000
0010
1000
0010
1000
0010
0100
0010
0100
0010
0100
0000
0010
0000
1000
0000
0001
0000
1000
0000
0000
0000
,
1001
0000
0000
0000
0000
0000
0001
0100
0001
0100
0001
0100
0001
0100
0001
0100
0010
0100
0010
0100
0010
0000
0100
0000
0010
0000
1000
0000
0001
0000
0000
0000
,
1001
0000
0000
0000
0000
0000
1000
0100
1000
0100
1000
0100
1000
0100
1000
0100
0010
0100
0010
0100
0010
0000
0001
0000
1000
0000
0001
0000
1000
0000
0000
0000
,
1001
0000
0000
0000
0000
0000
0001
1000
0001
1000
0001
1000
0001
1000
0001
1000
0001
0010
0001
0010
0001
0000
0100
0000
0100
0000
0100
0000
0010
0000
0000
0000
,
1001
0000
0000
0000
0000
0000
1000
0001
1000
0001
1000
0001
1000
0001
1000
0001
1000
0100
1000
0100
1000
0000
0010
0000
0010
0000
0010
0000
0100
0000
0000
0000
,
1001
0000
0000
0000
0000
0000
0010
0100
0010
0100
0010
0100
0010
0100
0010
0100
0001
1000
0001
1000
0001
0000
0100
0000
0100
0000
0100
0000
0010
0000
0000
0000
,
1001
0000
0000
0000
0000
0000
0100
0010
0100
0010
0100
0010
0100
0010
0100
0010
1000
0001
1000
0001
1000
0000
0010
0000
0010
0000
0010
0000
0100
0000
0000
0000
,
0001
0100
0001
0100
,
1000
0100
1000
0100
,
0001
0100
0001
0100
,
1000
0100
1000
0100
,
0001
0100
0001
0100
0010
1000
0100
0000
,
1000
0100
1000
0100
0010
0001
0100
0000
,
0001
0000
1000
0000
0001
0000
1000
0000
0001
1000
0001
1000
0001
1000
0001
1000
,
1001
0000
1000
0100
0010
0001
0100
0001
,
0010
0100
1000
0010
0100
1000
0100
0010
,
1000
0001
0010
0100
1000
0001
0010
0100
,
1100
0101
1010
0011
,
0001
0100
0010
1000
0100
1000
0010
1000
,
0001
0010
0100
1000
0001
0100
1000
0100
,
0010
1000
0001
0010
0100
0010
0001
1000
,
0020
0000
0230
0000
0301
0001
0001
0001
,
0001
0000
0100
0000
0010
0000
1000
0000
0100
0000
0010
0000
0001
1000
0001
0000
,
0100
0000
0001
0000
0010
0000
0100
0000
1000
0000
0010
0000
0100
0001
0100
0000
,
0010
1000
0010
0100
0001
0010
0100
0010
,
0001
0001
0100
0100
1010
0000
1100
0000
,
1000
0000
0001
0000
0100
0000
0001
0000
0010
0000
0100
0000
1000
0010
1000
0000
,
0001
0000
1000
0000
0100
0000
1000
0000
0010
0000
0100
0000
0001
0010
0001
0000
,
1000
0000
0001
0000
0100
0000
0010
0000
0100
0010
0100
0010
0100
0010
0100
0010
,
0200
0010
0001
0310
,
0001
0100
0001
0100
0001
0100
0001
0100
0001
0100
0001
0100
0001
0100
0001
0100
,
0010
1000
0010
1000
0010
1000
0010
1000
0010
1000
0010
1000
0010
1000
0010
1000
,
0001
1000
0001
1000
0001
1000
0001
1000
0001
1000
0001
1000
0001
1000
0001
1000
,
0010
0100
0010
0100
0010
0100
0010
0100
0010
0100
0010
0100
0001
0000
0000
0000
,
0000
0000
0000
0000
;

//---------------dance-double - ----------------
#NOTES:
     dance-double:
     :
     Easy:
     8:
     0.332301,0.468441,0.144879,0.040244,0.000000,289.000000,271.000000,18.000000,5.000000,0.000000,0.000000,0.332301,0.468441,0.144879,0.040244,0.000000,289.000000,271.000000,18.000000,5.000000,0.000000,0.000000:
00000000
00000000
00000000
00000000
,
00000000
00000000
00000000
00000000
,
00000000
00000000
00000000
00000000
,
10000000
00010000
10000000
00000000
,
01000000
00100000
01000000
00000000
,
00010000
00001000
00010000
00001000
,
00010000
00000000
00001000
00000000
00010000
00001000
00010000
00000000
,
00011000
00000000
00000100
00001000
,
00000100
00000010
00000100
00000000
,
00001001
00000000
00000100
00000001
,
00000100
00000010
00000100
00000000
,
00000110
00000000
00001000
00000010
,
00010000
00001000
00010000
00000000
,
00011000
00000000
00100000
00010000
,
10000000
00010000
10000000
00000000
,
00100000
10000000
00100000
00000000
,
01000000
00010000
01000000
00000000
,
00001000
00100000
00001000
00000000
,
00010000
00001000
00010000
00000000
,
00000100
00001000
00000100
00001000
,
00000100
00000010
00000001
00000100
,
00001000
00010000
00001000
00010000
,
00000000
00100000
01000000
10000000
,
00100000
01000000
00100000
01000000
,
00100000
00010000
00001000
00010000
,
00001000
00010000
00001000
00000010
,
00000001
00000100
00001000
00000100
,
00000010
00001000
00000100
00001000
,
00000100
00010000
00001000
00010000
,
00001000
00001000
00010000
00010000
,
00011000
00010000
00001000
01000000
,
00010000
01000000
10000000
01000000
,
00010000
00100000
01000000
10000000
,
01000000
00000000
00100000
00000000
00001000
00001000
00001000
00000000
,
00010000
00000100
00001000
00000010
,
00000100
00001000
00000100
00000001
,
00000010
00001000
00000010
00000001
,
00000010
00000100
00010000
00001000
,
00011000
00000000
00100000
00100000
00010000
00010000
00010000
00000000
,
01100000
00000000
10000000
10000000
01000000
01000000
01000000
00000000
,
10010000
00000000
00100000
00100000
00001000
00001000
00001000
00000000
,
00011000
00000000
00010000
00010000
00000100
00000100
00000100
00000000
,
00000110
00000000
00000001
00000001
00000001
00000001
00000001
00000000
,
00001001
00000000
00000100
00000100
00000100
00000100
00000100
00000000
,
00000110
00000000
00010000
00010000
00010000
00010000
00010000
00000000
,
00011000
00000000
00100000
00100000
00100000
00100000
00100000
00000000
,
00020000
00000000
00000000
00030000
,
20000000
00000000
00000000
30000000
,
00200000
00000000
00000000
00300000
,
02000000
00000000
00000000
03000000
,
00001000
00001000
00001000
00000000
,
00010000
00010000
00010000
00000000
,
00001000
00010000
00001000
00010000
,
00000000
00010000
00000100
00001000
,
00000010
00000100
00000001
00000010
,
00000001
00000100
00001000
00010000
,
00001000
00001010
00010000
00110000
,
00001000
01000000
00010000
00100000
,
01000000
10000000
00100000
01000000
,
00010000
10000000
01000000
00010000
,
00001000
00000000
00001000
00000000
00010000
00010000
00010000
00000000
,
00001000
00010000
00000100
00001000
,
00000010
00000100
00000010
00001000
,
00000100
00000001
00000100
00001000
,
00000010
00001010
00000100
00000101
,
00001000
00010000
00001000
01000000
,
00010000
00100000
01000000
10000000
,
01000000
00010000
01000000
10000000
,
00020000
00000000
00000000
00030000
,
00100000
00000000
00001000
00000000
00100000
00100000
00100000
00000000
,
00001000
00000000
00010000
00000000
00001000
00001000
00001000
00000000
,
00000100
00000000
00000010
00000000
00000100
00000100
00000100
00000000
,
00000010
00000010
00000010
00000010
00000010
00000000
00000110
00000000
,
00000000
00000000
00000000
00000000
;

//---------------dance-double - ----------------
#NOTES:
     dance-double:
     :
     Medium:
     12:
     0.576065,0.878326,0.185123,0.072439,0.257562,501.000000,478.000000,23.000000,9.000000,0.000000,0.000000,0.576065,0.878326,0.185123,0.072439,0.257562,501.000000,478.000000,23.000000,9.000000,0.000000,0.000000:
00000000
00000000
00000000
00000000
,
00000000
00000000
00000000
00000000
,
00000000
00000000
00000000
00000000
,
00000001
00000100
00000001
00000100
,
00000010
00001000
00000010
00001000
,
00000010
00010000
00001000
00010000
,
00001000
00010000
00001000
00010000
00001000
00010000
00001000
00000000
,
00011000
00000000
00000000
00100000
00010000
00100000
00010000
00100000
,
01000000
00100000
01000000
10000000
01000000
10000000
01000000
00000000
,
10010000
00000000
00000000
00100000
10000000
00100000
10000000
00100000
,
01000000
00010000
01000000
00010000
00100000
00010000
00100000
00000000
,
00101000
00000000
00000000
00010000
00001000
00010000
00001000
00010000
,
00000100
00010000
00000100
00001000
00000100
00001000
00000100
00000000
,
00001100
00000000
00000000
00000010
00000001
00000010
00000001
00000010
,
00000001
00001000
00000001
00001000
00000010
00001000
00000010
00000000
,
00000100
00000001
00000100
00000001
,
00001000
00000010
00001000
00000010
,
00010000
00001000
00010000
00001000
,
00100000
00010000
00100000
00010000
,
10000000
01000000
10000000
00000000
10000000
01000000
00100000
00000000
,
00001000
00010000
00001000
00000000
00001000
00010000
00000100
00000000
,
00001000
00000000
00000100
00000000
00000010
00000000
00000001
00000000
00001000
00000001
00001000
00000001
00001000
00000000
00000000
00000000
,
00001001
00000000
00000010
00000001
00000100
00000001
00000010
00000000
,
00000100
00001000
00000100
00001000
00000100
00010000
00001000
00000000
,
00100000
00010000
00100000
00010000
00000000
10000000
00100000
10000000
,
00000000
10010000
00000000
10000000
01000000
00010000
01000000
00000000
,
01100000
00000000
00100000
00001000
00000000
00010000
00001000
00010000
,
00000000
00000100
00001000
00000100
00001000
00000010
00001000
00000000
,
00000010
00000100
00000001
00000000
00000010
00000100
00001000
00000000
,
00000002
00000203
00002300
00013000
,
00011000
00000000
00010000
01000000
10000000
01000000
00010000
00000000
,
01000000
00000000
10000000
00100000
00010000
00100000
10000000
00000000
,
00100000
00000000
10000000
01000000
00100000
00001000
00010000
00000000
,
00001000
00001000
00010000
00010000
00001000
00010000
00001000
00000000
,
00011000
00000000
00001000
00000100
00000001
00000100
00001000
00000000
,
00000100
00000000
00000001
00000010
00001000
00000010
00000001
00000000
,
00000010
00000000
00000001
00000100
00000010
00010000
00001000
00000000
,
00011000
00010000
01000000
10000000
,
10010000
00000000
00000000
00100000
10000000
00100000
10000000
00100000
01000000
00100000
01000000
00100000
00000000
00100000
10000000
00000000
,
01100000
00000000
00000000
01000000
00001000
01000000
00001000
01000000
00001000
00010000
00001000
00010000
00000000
00010000
00001000
00000000
,
00011000
00000000
00000000
00010000
00000100
00010000
00000100
00010000
00000100
00001000
00000100
00001000
00000000
00001000
00000010
00000000
,
00000110
00000000
00000000
00000100
00000001
00000100
00000001
00000100
00000010
00000100
00000010
00000100
00000000
00000100
00000010
00000000
,
00001001
00000000
00000000
00000010
00000001
00000010
00000001
00000010
00000100
00000010
00000100
00001000
00000100
00001000
00000100
00000000
,
00000110
00000000
00000000
00000100
00010000
00000100
00010000
00000100
00010000
00001000
00010000
00001000
00010000
00001000
00010000
00000000
,
00011000
00000000
00000000
00001000
01000000
00001000
01000000
00001000
01000000
01000000
01000000
00010000
00010000
00010000
01000000
00000000
,
01100000
00000000
00000000
00100000
10000000
00100000
10000000
00100000
01000000
01000000
01000000
00100000
00100000
00100000
01000000
00000000
,
00200000
00000000
10300000
00010000
,
00200000
00000000
00301000
00010000
,
00000020
00000000
00001030
00000100
,
00000020
00000000
00000031
00001000
,
00000001
00000010
00000100
00000000
00001000
00000010
00000100
00000000
,
00001000
00010000
00100000
00000000
01000000
00010000
00100000
00000000
,
00010000
00000000
10000000
00000000
00010000
00000000
10000000
00000000
00010000
10000000
00010000
10000000
00010000
00000000
00000000
00000000
,
10010000
00000000
10000000
01000000
10000000
01000000
00100000
00010000
,
01000000
00000000
00010000
00100000
00001000
00010000
00001000
00100000
,
00010000
00000000
01000000
00001000
00010000
00000100
00001000
00000010
,
00001000
00000100
00000010
00000010
,
00001001
00000000
00000001
00000100
00000010
00001000
00000100
00000010
,
00000100
00000000
00010000
00001000
00100000
00010000
00100000
00001000
,
00010000
00000000
00000100
00010000
00001000
00100000
00010000
01000000
,
00100000
00000000
10000000
00000000
01000000
01000000
01000000
00000000
,
01100000
00000000
10000000
00100000
10000000
00100000
01000000
00010000
,
00100000
01000000
00100000
00001000
00010000
00001000
00010000
00000010
,
00001000
00000100
00001000
00000100
00000010
00000001
00000100
00000010
,
00001000
00000100
00010000
00001000
00010000
00000100
00001000
00000000
,
00001001
00000000
00000001
00000100
00000010
00001000
00000100
00001000
,
00000010
00000100
00000010
00010000
00001000
00010000
00001000
00100000
,
00010000
00000000
01000000
00000000
00100000
00000000
01000000
00000000
00100000
01000000
00100000
01000000
00100000
00000000
00000000
00000000
,
02200000
00000000
00000000
03300000
,
10000000
00000000
01000000
00000000
10000000
00000000
01000000
00000000
00100000
00010000
00000000
10000000
00010000
00000000
00000000
00000000
,
00100000
00000000
00001000
00000000
00010000
00000000
00001000
00000000
00010000
00000010
00000000
00010000
00001000
00000000
00000000
00000000
,
00100000
00010000
01000000
00001000
00100000
00010000
01000000
00001000
,
00010000
00001000
00010000
00001000
00010000
00001000
00010000
00001000
00010000
00001000
00010000
00001000
00010000
00000000
00000000
00000000
,
00000000
00000000
00000000
00000000
;

//---------------dance-double - ----------------
#NOTES:
     dance-double:
     :
     Hard:
     15:
     0.808330,1.288212,0.225367,0.040244,0.841100,703.000000,675.000000,28.000000,5.000000,0.000000,0.000000,0.808330,1.288212,0.225367,0.040244,0.841100,703.000000,675.000000,28.000000,5.000000,0.000000,0.000000:
00000000
00000000
00000000
00000000
,
00000000
00000000
00000000
00000000
,
00000000
00000000
00000000
00000000
,
00000001
00000010
00000001
00000010
,
00000100
00010000
00000100
00010000
,
00001000
00010000
00001000
00010000
00001000
00010000
00001000
00010000
,
00001000
00010000
00001000
00010000
00001000
00010000
00001000
00010000
00001000
00010000
00001000
00010000
00001000
00000000
00000000
00000000
,
00011000
00000000
00000000
00000000
00000000
00000000
00100000
00010000
00100000
00010000
00100000
00010000
00100000
00010000
00100000
00010000
,
00100000
01000000
00100000
01000000
00100000
00000000
01000000
00000000
10000000
00000000
01000000
00000000
10000000
00000000
00000000
00000000
,
10010000
00000000
00000000
00000000
00000000
00000000
00100000
01000000
00100000
01000000
00100000
01000000
00100000
01000000
00100000
01000000
,
00010000
01000000
00010000
01000000
00010000
00000000
01000000
00000000
00001000
00000000
00010000
00000000
00001000
00000000
00000000
00000000
,
00011000
00000000
00000000
00000000
00000000
00000000
00000100
00001000
00000100
00001000
00000100
00001000
00000100
00001000
00000100
00001000
,
00000100
00000010
00000100
00000010
00000100
00000000
00000010
00000000
00000001
00000000
00000010
00000000
00000001
00000000
00000000
00000000
,
00001001
00000000
00000000
00000000
00000000
00000000
00000100
00000010
00000100
00000010
00000100
00000010
00000100
00000010
00000100
00000010
,
00001000
00000010
00001000
00000010
00001000
00000000
00000010
00000000
00010000
00000000
00001000
00000000
00010000
00000000
00000000
00000000
,
00001000
00100000
00010000
00000000
00100000
01000000
10000000
00000000
,
10000000
00100000
01000000
00000000
00001000
00010000
00001000
00000000
,
00001000
00010000
00000100
00000000
00001000
00000100
00000010
00000000
,
00000001
00000010
00000001
00000000
00001000
00000001
00000100
00000000
,
00001000
00010000
00001000
00010000
00100000
10000000
00100000
01000000
,
00010000
00100000
00010000
00100000
01000000
00010000
00001000
00010000
,
00001000
00010000
00001000
00010000
00001000
00010000
00001000
00010000
00001000
00010000
00001000
00010000
00001000
00010000
00001000
00010000
,
00011000
00000000
00000000
00000000
00001000
00000000
00000010
00000000
00000001
00000010
00000000
00000001
00000010
00000000
00000100
00000000
,
00001000
00000000
00000010
00000000
00000100
00000000
00001000
00000000
00010000
00001000
00000000
00010000
00001000
00000000
00010000
00000000
,
01000000
10000000
00100000
00100000
00000000
01000000
01000000
02000000
,
03000000
00000000
01000000
00000000
00100000
00000000
00100000
00000000
10000000
00010000
10000000
00000000
01000000
00000000
00000000
00000000
,
10010000
00100000
00100000
00010000
00000000
00001000
00001000
00000200
,
00000300
00000000
00000100
00000000
00000010
00000000
00000010
00000000
00000001
00001000
00000000
00000001
00001000
00000000
00001000
00000000
,
00000001
00000010
00001000
00010000
00001000
00010000
01000000
00000000
,
11000000
10100000
01010000
01001000
,
00011000
00000000
00000000
00000000
00000100
00000000
00001000
00000000
00000010
00000100
00000010
00000100
00000010
00000000
00001000
00000000
,
00000001
00000000
00000000
00000000
00000010
00000000
00000100
00000000
00001000
00000100
00001000
00000100
00001000
00000000
00000100
00000000
,
00010000
00000000
00000000
00000000
00001000
00000000
01000000
00000000
00010000
00100000
00010000
00100000
00010000
00000000
00100000
00000000
,
01000000
00000000
10000000
00000000
01000000
00000000
00100000
00000000
00010000
10000000
00010000
10000000
00010000
10000000
00010000
10000000
,
00010000
00000000
00000000
00000000
00100000
00000000
00010000
00000000
01000000
00001000
01000000
00001000
01000000
00000000
00001000
00000000
,
00010000
00000000
00000000
00000000
00000100
00000000
00001000
00000000
00000010
00001000
00000010
00001000
00000010
00000000
00000100
00000000
,
00000001
00000000
00000000
00000000
00000010
00000000
00000100
00000000
00000010
00000100
00000010
00000100
00000010
00000000
00000001
00000000
,
00001001
00000101
00000110
00010010
,
00011000
00000000
00000000
00000000
00000000
00000000
00001000
00100000
00001000
00100000
00001000
00100000
00001000
00100000
00001000
00100000
01000000
00100000
01000000
00100000
01000000
00000000
00100000
00000000
00010000
00000000
10000000
00000000
00010000
00000000
00000000
00000000
,
10010000
00000000
00000000
00000000
00000000
00000000
10000000
00100000
10000000
00100000
10000000
00100000
10000000
00100000
10000000
00100000
01000000
00100000
01000000
00100000
01000000
00000000
00010000
00000000
01000000
00000000
00001000
00000000
00010000
00000000
00000000
00000000
,
00011000
00000000
00000000
00000000
00000000
00000000
00010000
00000010
00010000
00000010
00010000
00000010
00010000
00000010
00010000
00000010
00000100
00000010
00000100
00000010
00000100
00000000
00000001
00000000
00001000
00000000
00000010
00000000
00000100
00000000
00000000
00000000
,
00001001
00000000
00000000
00000000
00000000
00000000
00000001
00000010
00000001
00000010
00000001
00000010
00000001
00000010
00000001
00000010
00000100
00000010
00000100
00000010
00000100
00000000
00001000
00000000
00000010
00000000
00010000
00000000
00001000
00000000
00000000
00000000
,
00011000
00000000
00000000
00000000
00000000
00000000
00100000
00010000
00100000
00010000
00100000
00010000
00100000
00010000
00100000
00010000
00100000
01000000
00100000
01000000
00100000
00000000
01000000
00000000
00010000
00000000
00001000
00000000
00010000
00000000
00000000
00000000
,
00011000
00000000
00000000
00000000
00000000
00000000
00000010
00001000
00000010
00001000
00000010
00001000
00000010
00001000
00000010
00001000
00000010
00000100
00000010
00000100
00000010
00000000
00000100
00000000
00001000
00000000
00010000
00000000
00001000
00000000
00000000
00000000
,
00011000
00000000
00000000
00000000
00000000
00000000
01000000
00010000
01000000
00010000
01000000
00010000
01000000
00010000
01000000
00010000
01000000
00100000
01000000
00100000
01000000
00000000
00100000
00000000
00010000
00000000
00001000
00000000
00010000
00000000
00000000
00000000
,
00011000
00000000
00000000
00000000
00000000
00000000
00000100
00001000
00000100
00001000
00000100
00001000
00000100
00001000
00000100
00001000
00000100
00000010
00000100
00000010
00000100
00000000
00000010
00000000
00000001
00000000
00000100
00000000
00000010
00000000
00000000
00000000
,
00000100
00000001
00000100
00000001
,
00000100
00001000
00000100
00001000
,
00010000
00001000
00010000
00001000
,
00010000
00100000
00010000
00100000
,
10000000
01000000
10000000
01000000
00100000
00001000
00010000
00000000
,
00001000
00010000
00001000
00010000
00000100
00001000
00000010
00000000
,
00000100
00000000
00000001
00000000
00000010
00000000
00000100
00000000
00001000
00000001
00001000
00000001
00001000
00000001
00001000
00000001
,
00001001
00000000
00000001
00000100
00000010
00001000
00000001
00000010
,
00000100
00010000
00001000
00100000
00001000
00010000
01000000
00100000
,
00010000
10000000
00100000
01000000
00100000
00010000
00100000
10000000
,
01000000
00100000
00010000
00000000
00101000
00000000
00011000
00000000
,
00010000
00000100
00001000
00000100
00000010
00000001
00000100
00000010
,
00001000
00000010
00000100
00001000
00010000
00001000
00100000
00001000
,
00010000
01000000
00100000
00010000
01000000
00100000
00010000
00100000
,
20000000
00000000
32000000
00000000
03100000
00100000
00100000
00000000
,
00100000
00000000
00001000
00000000
00010000
00000000
00001000
00000000
00000010
00000000
00000100
00000000
00001000
00000100
00001000
00000000
,
00000010
00000000
00000100
00000000
00000001
00000000
00000010
00000000
00000100
00000000
00001000
00000000
00000010
00001000
00000010
00000000
,
00000100
00001000
00010000
00001000
00010000
00100000
00010000
00001000
,
00100000
00100000
00010000
00010000
01010000
00000000
10100000
00000000
,
10000000
00000000
01000000
00000000
00100000
00000000
01000000
00000000
10000000
00000000
00010000
00000000
00100000
01000000
00100000
00000000
,
00001000
00000000
00010000
00000000
00000100
00000000
00001000
00000000
00000010
00000000
00001000
00000000
00000100
00000010
00000100
00000000
,
00001000
00000000
00000001
00000000
00000100
00000000
00000010
00000000
00000100
00000010
00000100
00000010
00000100
00000010
00000100
00000010
,
00000200
00000000
00001000
00001300
,
00010000
00001000
00010000
00001000
00010000
00001000
00010000
00001000
00010000
00001000
00010000
00001000
00010000
00001000
00010000
00000000
,
00001000
00100000
00001000
00100000
00001000
00100000
00001000
00100000
00001000
00100000
00001000
00100000
00001000
00100000
00001000
00000000
,
00100000
00010000
00100000
00010000
00100000
00010000
00100000
00010000
00100000
00010000
00100000
00010000
00100000
00010000
00100000
00010000
,
10000000
00010000
10000000
00010000
10000000
00010000
10000000
00010000
10000000
00010000
10000000
00010000
01000000
00000000
00000000
00000000
,
00000000
00000000
00000000
00000000
;

//---------------dance-single - ----------------
#NOTES:
     dance-single:
     :
     Challenge:
     19:
     1.113035,1.761180,0.289757,0.160976,1.710372,968.000000,932.000000,36.000000,20.000000,0.000000,0.000000,1.113035,1.761180,0.289757,0.160976,1.710372,968.000000,932.000000,36.000000,20.000000,0.000000,0.000000:
// measure 0
0000
0000
0000
0000
,  // measure 1
0000
0000
0000
0000
,  // measure 2
0000
0000
0000
0000
,  // measure 3
0011
0000
0100
0010
1000
0100
0010
0001
,  // measure 4
0000
0000
0100
0000
0010
0000
1000
0000
0000
0000
0001
0010
0001
0000
0100
0000
,  // measure 5
1010
0000
0100
0001
0010
0100
1000
0001
,  // measure 6
1000
0001
0100
0010
0100
0010
0001
1000
0001
0100
0010
1000
0100
0010
1000
0001
,  // measure 7
0020
0000
0000
0000
0000
0000
0031
0100
0010
1000
0100
0001
1000
0001
0100
0010
,  // measure 8
1000
0010
0001
0100
0010
0100
0001
0100
1000
0010
1000
0001
0010
0001
1000
0100
,  // measure 9
2000
0000
0000
0000
0000
0000
3001
0100
0001
0010
1000
0100
0010
1000
0001
0100
,  // measure 10
1000
0010
1000
0001
0100
0010
0001
0100
1000
0001
0010
0100
0010
0001
0100
1000
,  // measure 11
0002
0000
0000
0000
0000
0000
1003
0010
0100
1000
0001
0010
1000
0010
0001
0100
,  // measure 12
0010
1000
0001
0010
1000
0010
0100
0001
0100
1000
0001
1000
0100
0001
0010
0100
,  // measure 13
2000
0000
0000
0000
0000
0000
3100
0010
0001
1000
0010
0100
1000
0010
0100
0001
,  // measure 14
0010
1000
0100
1000
0100
0001
1000
0010
1000
0001
0100
0010
0001
0010
0100
0001
,  // measure 15
0010
0000
0000
0000
0001
0000
1000
0100
1000
0010
0100
0001
1000
0100
0010
0001
,  // measure 16
0100
0010
1000
0001
0010
1000
0010
0001
1000
0100
0001
0100
1000
0001
0100
0010
,  // measure 17
1000
0000
0000
0000
0100
0000
0010
0001
0100
0010
1000
0001
0010
0001
0100
1000
,  // measure 18
0001
0010
0100
1000
0010
0100
1000
0010
1000
0001
0100
0010
0001
0100
1000
0001
,  // measure 19
0100
0100
0010
0010
1000
1000
0001
0001
,  // measure 20
0010
0001
0010
0001
1000
0010
1000
0010
0100
0001
0100
0001
1000
0100
1000
0100
,  // measure 21
1000
0100
0001
0010
0100
0001
0010
0100
0010
0001
0100
1000
0001
1000
0010
1000
,  // measure 22
1100
0000
0000
0000
0010
0000
1001
0000
1000
0001
0000
0010
0100
0000
1000
0000
,  // measure 23
0001
0000
0101
0000
1000
0000
1100
0000
0010
0100
0000
0001
0000
0010
1000
0000
,  // measure 24
0100
1000
0010
0100
0001
0000
0011
0000
1000
0010
0100
0001
1000
0000
0220
0000
,  // measure 25
0000
0000
0300
0000
0000
0000
0130
0000
0000
0000
0000
0000
0001
0000
0000
0000
0000
0000
0010
0000
0000
0000
0000
0000
0001
0000
0000
1000
0000
0000
0100
0000
0000
1000
0000
0000
0010
0000
0000
1000
0000
0000
0100
0000
0000
0000
0000
0000
,  // measure 26
1001
0000
0010
0000
0101
0000
1000
0000
0001
0010
0000
0001
0100
0000
1000
0000
,  // measure 27
0010
0000
0110
0000
1000
0000
1010
0000
0001
0010
0000
0001
0100
0010
1000
0000
,  // measure 28
0100
0010
0001
0100
1000
0000
1100
0000
0001
0000
0011
0000
0100
0000
0010
0000
,  // measure 29
1000
0000
0001
0010
0001
0000
1000
0100
1000
0000
0010
0100
0001
0000
0010
0100
,  // measure 30
1000
0000
0010
0000
0100
0000
1001
0000
0001
0010
0000
1000
0001
0000
0100
0000
,  // measure 31
0010
0000
0110
0000
0001
0000
0011
0000
1000
0001
0010
0100
1000
0010
0001
0000
,  // measure 32
0101
0000
0000
0000
0000
0000
0100
0000
0000
0000
0000
0000
0110
0000
0000
0000
0000
0000
0010
0000
0000
0000
0000
0000
1000
0000
0000
0100
0000
0000
0001
0000
0000
1000
0000
0000
0010
0000
0000
0000
0000
0000
2200
0000
0300
0000
0000
0000
,  // measure 33
3001
0000
1000
0100
0010
0000
0001
0100
0010
0001
0010
0100
0010
1000
0010
0000
,  // measure 34
1010
0000
0100
0000
0001
0000
0011
0000
1000
0100
0001
1000
0010
0000
0100
0000
,  // measure 35
0001
0000
0010
0001
1000
0000
0010
0100
0001
1000
0000
0010
0000
1000
0100
0000
,  // measure 36
0010
0000
0001
1000
0001
0000
1001
0000
0100
0010
1000
0001
0010
0100
1000
0000
,  // measure 37
0001
0000
1000
0010
1000
0000
0001
0100
0001
0000
0100
0010
0100
0000
0010
1000
,  // measure 38
0001
0000
0000
0000
1100
0000
0010
0100
0001
0010
1000
0100
0010
1000
0100
0001
0010
0001
0100
1000
0100
0001
0100
0010
0001
1000
0010
1000
0100
0001
0010
1000
,  // measure 39
0100
0000
0000
0000
0000
0000
1000
0001
0010
0001
1000
0100
0001
0100
0010
1000
0001
0010
0100
1000
0100
0001
0100
0010
1000
0010
0001
1000
0100
0010
0001
1000
,  // measure 40
0001
0000
0000
0000
0000
0000
1000
0010
0100
0001
1000
0010
1000
0001
0100
0010
0100
0001
1000
0010
0001
1000
0100
0010
0100
0001
1000
0010
0001
0010
0100
1000
,  // measure 41
0010
0000
0000
0000
0000
0000
1000
0100
0010
0001
0100
1000
0100
0001
0100
1000
0100
0001
0100
0010
1000
0010
0001
1000
0010
0001
1000
0010
0001
1000
0100
0010
,  // measure 42
0001
0000
0000
0000
1010
0000
0010
0100
0001
1000
0010
0100
0010
1000
0100
0010
1000
0100
0010
0001
1000
0001
0100
0010
1000
0001
0100
0001
0010
1000
0001
0100
,  // measure 43
0010
0000
0000
0000
0101
0000
1000
0001
1000
0001
0010
0001
0100
0001
0010
0100
0010
0100
0001
1000
0001
1000
0010
1000
0100
1000
0010
0100
0010
0100
1000
0001
,  // measure 44
0100
0000
0000
0000
0011
0000
0001
1000
0010
1000
0100
1000
0001
0100
1000
0010
0001
0010
1000
0100
1000
0001
0010
0100
0010
0001
0100
1000
0010
0001
0100
0001
,  // measure 45
1000
0000
0000
0000
0110
0000
0010
0100
0001
0100
0010
1000
0010
0100
0001
1000
0001
0010
0100
0010
1000
0001
0100
0001
1000
0010
0100
0001
1000
0100
1000
0010
,  // measure 46
0200
0000
0000
0000
0301
0000
1000
0010
0000
0010
0100
0000
0001
0000
1000
0000
,  // measure 47
0020
0000
0000
0000
1030
0000
0001
0010
0000
0010
0100
0000
1000
0000
0001
0000
,  // measure 48
2000
0000
0000
0000
3001
0000
0100
0010
0000
0010
1000
0000
0100
0000
0001
0000
,  // measure 49
1000
0010
0000
0010
0100
0000
0100
0001
0000
0001
1000
0000
1000
0100
0000
0010
,  // measure 50
0002
0100
0000
0000
0013
0000
0001
1000
0000
1000
0010
0000
0100
0000
0001
0000
,  // measure 51
2000
0001
0000
0000
3010
0000
1000
0100
0000
0100
0010
0000
0001
0000
0100
0000
,  // measure 52
0010
0100
0001
1000
0001
0100
1000
0010
0001
0010
0100
1000
0100
0010
0001
1000
,  // measure 53
1001
0000
0010
1000
0010
0000
1000
0100
0010
0000
0001
0100
0010
1000
0002
0000
,  // measure 54
0000
0000
1003
0001
0010
0000
0001
0100
0010
0000
1000
0001
1000
0100
0020
0000
,  // measure 55
0000
0000
0130
1000
0001
0000
0010
0001
0100
0000
0010
1000
0001
0010
0100
0000
,  // measure 56
1000
0100
0010
0000
0001
0100
0010
0000
1000
0001
1000
0000
0010
0100
0001
0000
,  // measure 57
0110
0000
1000
0100
0010
0000
0001
1000
0001
0000
0010
0001
0100
0010
2000
0000
,  // measure 58
0000
0000
3100
1000
0010
0000
0100
0001
0010
1000
0010
0100
0010
0001
0010
0000
,  // measure 59
0001
0000
0100
0010
1000
0000
0100
0000
0001
0000
1000
0010
0100
0000
0001
0000
,  // measure 60
1000
0010
0100
0000
0001
0010
0100
0000
1000
0001
1000
0000
0001
0010
0100
0000
,  // measure 61
1100
0000
0001
1000
0001
0000
0100
0010
1000
0000
0100
0010
0001
1000
0002
0000
,  // measure 62
0000
0000
0013
0001
1000
0000
0001
0100
1000
0000
0010
0100
0010
1000
0002
0000
,  // measure 63
0000
0000
0013
0001
0100
0000
0010
1000
0001
0000
1000
0100
0001
0010
0100
0000
,  // measure 64
1000
0010
0100
0001
0010
0001
0100
0000
0001
0010
0100
0000
1000
0100
0001
0000
,  // measure 65
1010
0000
0001
0010
0100
0000
1000
0010
0100
0000
0001
1000
0001
0010
0100
0000
,  // measure 66
1000
0000
0010
0100
0001
0000
1000
0001
0100
1000
0100
0010
0100
0001
0100
0000
,  // measure 67
0001
0000
0010
0001
1000
0000
0100
0010
0100
0000
1000
0010
0100
0000
0001
1000
,  // measure 68
0010
1000
0001
1000
0100
0001
0100
1000
0010
0001
0010
0100
1000
0000
0000
0000
,  // measure 69
0011
0000
0100
0000
1001
0000
0010
0000
1000
0100
0000
0010
0000
0001
1000
0000
,  // measure 70
0110
0000
0001
0000
1100
0000
0010
0000
1000
0001
0010
0001
0000
1000
0100
0000
,  // measure 71
0001
0000
0001
0000
0010
0000
0010
0000
0100
1000
0100
0001
1000
0100
1000
0010
,  // measure 72
0100
1000
0001
0010
1000
0010
0001
0100
1000
0100
0010
0002
0200
0000
0000
0303
;
