#TITLE:LOVING YOU (Epidemik remix);
#ARTIST:TONI LEO;
#BANNER:LOVING YOU (Epidemik remix).png;
#BACKGROUND:LOVING YOU (Epidemik remix)-bg.png;
#JACKET:LOVING YOU (Epidemik remix)-jacket.png;
#MUSIC:LOVING YOU (Epidemik remix).ogg;
#SAMPLESTART:38.89;
#SAMPLELENGTH:20;
#DISPLAYBPM:165;
#BPMS:0=165.138,4=165.006;
#BGCHANGES:;

//---------------dance-single - ----------------
#NOTES:
     dance-single:
     :
     Beginner:
     3:
     :
0000
0000
0000
0000
,
0000
0000
0000
0000
,
0000
0000
0000
0000
,
0000
0000
0000
0000
,
0000
0000
0000
0000
,
0000
0000
0000
0000
,
0000
0000
0000
0000
,
0010
0000
0000
0000
,
0100
0000
0000
0000
,
0001
0000
0000
0000
,
1000
0000
0000
0000
,
0000
0000
0001
0000
,
0000
0000
1000
0000
,
0000
0000
0100
0000
,
0000
0000
0010
0000
,
0010
0000
0000
0000
,
0001
0000
0000
0000
,
1000
0000
0000
0000
,
0100
0000
0000
0000
,
0000
0000
0001
0000
,
0000
0000
1000
0000
,
0000
0000
0100
0000
,
0000
0000
0010
0000
,
0010
0000
0000
0000
,
0100
0000
0000
0000
,
1000
0000
1000
0000
,
0000
0001
0000
0000
,
0000
0010
0000
0001
,
0000
1000
0000
0100
,
0000
0000
0100
0100
,
0000
0000
0001
0001
,
0000
0100
0000
1000
,
0000
0001
0000
0010
,
0000
0000
0010
0010
,
0000
0000
1000
1000
,
0000
0000
1000
0000
,
0000
0000
0001
0000
,
0000
0000
0010
0000
,
0000
0000
0100
0000
,
0100
0000
0000
0000
,
1000
0000
0000
0000
,
0001
0000
0000
0000
,
0010
0000
0000
0000
,
0000
0000
0001
0000
,
0000
0000
1000
0000
,
0000
0000
0100
0000
,
0000
0000
0010
0000
,
0100
0000
0000
0000
,
0010
0000
0000
0000
,
0001
0000
0001
0000
,
0000
1000
0000
0000
,
0000
0010
0000
0001
,
0000
1000
0000
0100
,
0000
0000
0100
0100
,
0000
0000
0001
0001
,
0000
0100
0000
1000
,
0000
0001
0000
0010
,
0000
0000
0010
0010
,
0000
0000
1000
1000
,
0001
0000
0000
0000
,
0000
0000
0000
0000
,
1000
0000
0000
0000
,
0000
0000
0000
0000
,
0100
0000
0000
0000
,
0001
0000
0000
0000
,
1000
0000
0010
0000
,
0100
0000
0001
0000
,
0000
0000
0000
0000
;

//---------------dance-single - ----------------
#NOTES:
     dance-single:
     :
     Easy:
     6:
     :
0000
0000
0000
0000
,
0000
0000
0000
0000
,
0000
0000
0000
0000
,
0000
0000
0000
0000
,
0000
0000
0000
0000
,
0000
0000
0000
0000
,
0000
0000
0000
0000
,
0010
0000
0000
0000
,
0100
0000
0000
0000
,
0001
0000
1000
0000
,
0010
0000
0000
1100
,
0000
0010
0001
1000
,
0000
0001
1000
0100
,
0000
0001
0100
0000
,
1000
0000
0010
0000
,
0010
0000
0000
0100
,
0001
0000
0000
1000
,
0010
0000
1000
1000
,
0000
0001
1000
0100
,
0000
0010
0001
1000
,
0000
0001
1000
0100
,
0000
0001
0100
0000
,
1000
0000
0010
0000
,
0010
0000
0000
0000
,
0100
0000
0000
0000
,
1000
0000
0001
0000
,
0000
0000
0000
0000
,
0010
0000
0001
1000
,
2000
0000
0001
3000
,
0010
1000
0001
0100
,
0000
0000
0000
0001
,
0100
0000
1000
0001
,
0002
0000
1000
0003
,
0100
0001
1000
0010
,
0000
0000
0000
1000
,
0000
0100
1000
0001
,
0000
1000
0001
0010
,
0000
1000
0010
0000
,
0001
0000
0100
0000
,
0100
0000
0000
0010
,
1000
0000
0000
0001
,
0100
0000
0001
0001
,
0000
1000
0001
0010
,
0000
0010
0001
1000
,
0000
0001
1000
0100
,
0000
0001
0100
0000
,
1000
0000
0010
0000
,
0100
0000
0000
0000
,
0010
0000
0000
0000
,
0001
0000
1000
0000
,
0000
0000
0000
0000
,
0010
0000
0001
1000
,
2000
0000
0001
3000
,
0010
1000
0001
0100
,
0000
0000
0000
0001
,
0100
0000
1000
0001
,
0002
0000
1000
0003
,
0100
0001
1000
0010
,
0000
0000
0000
1000
,
0001
0000
0000
0000
,
0100
0000
0000
0000
,
0010
0000
0000
0000
,
1000
0000
0000
0000
,
0100
0000
0000
0000
,
0001
0000
0000
0000
,
1000
0000
0010
0000
,
1000
0000
0101
0000
,
0000
0000
0000
0000
;

//---------------dance-single - ----------------
#NOTES:
     dance-single:
     :
     Medium:
     8:
     :
0000
0000
0000
0000
,
0000
0000
0000
0000
,
0000
0000
0000
0000
,
0000
0000
0000
0000
,
0000
0000
0000
0000
,
0000
0000
0000
0000
,
0000
0000
0000
0000
,
0010
0000
0000
0000
,
0100
0000
0000
0000
,
0001
0000
1000
0000
,
0010
0100
0000
1100
,
0000
0000
0010
0000
0001
0000
1000
0100
,
0000
0010
0001
0000
1000
0000
0100
0000
,
0000
0000
0100
0000
1000
0000
0010
0001
,
0000
1000
0100
0000
0010
0000
0001
0000
,
0010
1000
0000
0100
0000
0001
0000
0100
,
0000
0010
0000
1000
0000
0001
0000
0100
,
0010
0001
0000
0100
0000
1000
0000
0100
,
0000
0010
0000
0001
1000
0000
0100
0000
,
0000
0000
0100
0000
1000
0000
0001
0010
,
0000
0100
1000
0000
0001
0000
0010
0000
,
0000
0000
0001
0000
0001
0000
0100
1000
,
0000
0001
0010
0000
0100
0000
1000
0000
,
1000
0000
0010
0000
0000
1000
0100
0000
,
0001
0000
0100
0000
0000
0001
0010
0000
,
0010
0000
1001
0000
,
0100
0000
0110
1001
,
0010
0000
1000
0100
1000
0000
0001
0000
,
2000
0000
0001
3010
,
0010
1010
0001
0100
,
0001
1000
0100
0010
0100
1000
0001
0000
,
0100
0000
0001
0010
0001
0000
1000
0000
,
0002
0000
1000
0103
,
0100
0101
1000
0010
,
0001
0000
0010
0100
0010
0001
1000
0000
,
0000
0000
0100
0000
1000
0000
0001
0010
,
0000
0100
1000
0000
0001
0000
0010
0000
,
0000
0000
0010
0000
0001
0000
0100
1000
,
0000
0001
0010
0000
0100
0000
1000
0000
,
0100
1000
0000
0010
0000
0001
0000
0010
,
0000
0100
0000
1000
0000
0001
0000
0010
,
0100
0001
0000
0010
0000
1000
0000
0010
,
0000
0100
0000
0001
1000
0000
0010
0000
,
0000
0000
0010
0000
0010
0000
1000
0100
,
0000
0010
0001
0000
1000
0000
0100
0000
,
0000
0000
1000
0000
1000
0000
0010
0001
,
0000
1000
0100
0000
0010
0000
0001
0000
,
0001
0000
0100
0000
0000
0001
0010
0000
,
1000
0000
0010
0000
0000
1000
0100
0000
,
0100
0000
1001
0000
,
0010
0000
0110
1001
,
0010
0000
1000
0100
1000
0000
0001
0000
,
2000
0000
0001
3010
,
0010
1010
0001
0100
,
0001
1000
0100
0010
0100
1000
0001
0000
,
0100
0000
0001
0010
0001
0000
1000
0000
,
0002
0000
1000
0103
,
0100
0101
1000
0010
,
0001
0000
0010
0100
0010
0001
1000
0000
,
0001
0010
0000
0010
0000
0010
0000
0010
,
0100
1000
0000
1000
0000
1000
0000
1000
,
0100
0010
0000
0010
0000
0010
0000
0010
,
0001
0100
0000
0100
0000
0100
0000
0100
,
1000
0000
0000
0000
,
0001
0000
0000
0000
,
1000
0000
0010
0000
,
1100
0101
1010
0101
,
0000
0000
0000
0000
;

//---------------dance-single - ----------------
#NOTES:
     dance-single:
     :
     Hard:
     11:
     :
0000
0000
0000
0000
,
0000
0000
0000
0000
,
0000
0000
0000
0000
,
0000
0000
0000
0000
,
0000
0000
0000
0000
,
0000
0000
0000
0000
,
0000
0000
0000
0000
,
0010
0000
0001
0010
,
1000
0000
1000
0010
,
0001
0000
1010
0000
,
0011
1100
0110
0000
,
1000
0000
0001
0000
0100
0000
1000
0010
,
0000
0010
1000
0000
1000
0100
0010
0000
,
0100
0000
0010
0000
1000
0000
0100
0001
,
0000
0001
0100
0000
0001
0010
0100
0010
,
0100
1100
0000
0010
0000
0100
0000
0010
,
0100
0101
0000
0010
0000
0100
0000
0010
,
0001
0010
1000
0010
0100
0010
0001
0000
,
0001
0100
1000
0100
0010
0000
0101
0000
,
0001
0000
1000
0000
0100
0000
0001
0010
,
0000
0000
0010
0000
0001
0000
0000
0000
0001
0000
0000
0100
0000
0000
2000
0000
,
0000
0000
0100
0000
3010
0000
0100
1000
,
0000
1000
0100
0010
1000
0010
0100
1000
,
0020
0130
0002
1003
,
0200
0310
0020
0031
,
1001
0000
0110
0000
,
0011
1100
1001
0000
,
0100
1000
0010
1000
0100
0000
0100
0001
,
0000
0001
0100
0000
1000
0001
0010
0000
,
0200
1000
1300
0000
0020
0001
0031
0000
,
0001
1000
0100
0010
0100
1000
0001
0000
,
0010
1000
0100
1000
0010
0000
0010
0001
,
0000
0001
0010
0000
1000
0001
0100
0000
,
0020
1000
1030
0000
0200
0001
0301
0000
,
1000
0001
0100
0010
0100
0001
1000
0000
,
0000
0000
1000
0000
0100
0000
0001
0010
,
0000
0010
0001
0000
0001
0100
0010
0010
,
0000
0100
0100
0000
0001
0000
0100
1000
,
0000
1000
0100
0000
1000
0010
0100
0010
,
0100
0101
0000
0010
0000
0100
0000
0010
,
0100
1100
0000
0010
0000
0100
0000
0010
,
1000
0010
0001
0010
0100
0010
1000
0000
,
1000
0100
0001
0100
0010
0000
1100
0000
,
0000
0000
0001
0000
0100
0000
1000
0010
,
0000
0000
0010
0000
1000
0000
0000
0000
1000
0000
0000
0100
0000
0000
0002
0000
,
0000
0000
0100
0000
0013
0000
0100
0001
,
0000
0001
0100
0010
0001
0010
0100
0001
,
0020
0130
2000
3001
,
0200
0310
0020
1030
,
1001
0000
0110
0000
,
1100
0011
1001
0000
,
0010
1000
0100
1000
0010
0000
0010
0001
,
0000
0001
0010
0000
1000
0001
0100
0000
,
0002
0010
0013
0000
2000
0100
3100
0000
,
0001
1000
0010
0100
0010
1000
0001
0000
,
0100
1000
0010
1000
0100
0000
0100
0001
,
0000
0001
0100
0000
1000
0001
0010
0000
,
2000
0100
3100
0000
0002
0010
0013
0000
,
1000
0001
0010
0100
0010
0001
1000
0000
,
0002
0010
0000
0100
0000
1000
0003
0100
,
0020
0001
0000
0001
0000
1000
0030
0100
,
0002
0010
0000
1000
0000
1000
0003
1000
,
0200
0001
0000
1000
0000
0010
0300
0010
,
2000
0010
0000
0100
0000
0001
3000
0100
,
0020
1000
0000
0001
0000
0001
0030
0100
,
2000
0001
0000
0001
0000
0001
3000
0001
,
0020
1000
0000
0100
0000
0100
0030
0100
,
0000
0000
0000
0000
;

//---------------dance-single - ----------------
#NOTES:
     dance-single:
     :
     Challenge:
     13:
     :
0000
0000
0000
0000
,
0000
0000
0000
0000
,
0000
0000
0000
0000
,
0000
0000
0000
0000
,
0000
0000
0000
0000
,
0000
0000
0000
0000
,
0000
0000
0000
0000
,
0001
0100
1000
0100
0001
0000
0010
0100
,
0000
0100
1000
0000
0000
0010
1000
0002
,
0000
0000
1003
0000
0100
0000
0000
0000
0010
0000
0000
0001
0000
0000
0020
0000
,
0100
0100
0100
0130
,
0110
0010
0000
0001
1000
0100
0000
0010
,
0001
0100
1000
0100
0001
0010
0100
1000
,
0010
0100
0000
0100
0001
1000
0001
0010
,
1000
0010
0001
1000
0001
0100
0010
2000
,
0000
0001
3001
0010
0000
0001
0100
0010
,
0000
1000
0001
1000
0010
0100
1000
0100
,
0002
0000
0013
0100
2000
0001
3001
0000
,
1000
0010
1000
0010
1000
0100
0010
0001
,
0000
0100
0001
1000
0000
0010
1000
0001
,
1000
0000
0100
0000
0001
0000
0100
0000
0010
0000
0000
0011
0000
0000
1100
0000
,
0000
0001
0100
0010
0000
1000
0001
0200
,
0000
0310
1000
0100
1000
0001
0100
0010
,
0000
1000
0100
0010
0000
0001
1000
0001
,
0100
0010
1000
0001
0010
0100
1000
0010
,
1000
1000
0010
0100
0001
1000
0001
0100
,
0010
1000
0010
1000
0010
1000
0010
2000
,
0000
0001
3001
0100
1000
0100
0001
0010
,
1000
0010
0100
0010
0001
0100
0010
2000
,
0000
0100
3100
0010
0001
0100
1000
0100
,
0001
0010
0100
0001
0100
1000
0010
0200
,
0000
0001
0301
1000
0100
0010
0001
0100
,
0010
1000
0100
1000
0001
0100
0010
2000
,
0000
0000
3001
0000
1000
0000
0000
0000
1100
0000
0000
0101
0000
0000
1100
0000
,
0000
0001
0100
0001
0000
0001
0100
0001
,
1000
0010
1000
0100
1000
0001
0010
0200
,
0000
1000
1300
0010
1000
0001
0100
0020
,
0000
1030
0100
0010
0000
0001
0100
0001
,
0010
0100
0010
0001
1000
0010
1000
0200
,
0000
0010
0310
0100
0000
0010
0001
0100
,
0000
0010
1000
0100
0001
0100
1000
0001
,
0200
0000
0310
1000
0002
0010
0013
0000
,
0001
1000
0010
0100
0001
1000
0010
0200
,
0000
0301
1000
0100
0000
1000
0010
0100
,
0001
0000
0010
0000
0100
0000
1000
0000
1010
0000
0000
0101
0000
0000
1100
0000
,
0000
0010
0001
0100
0000
0001
1000
0020
,
0000
1000
1030
0100
0001
0100
1000
0001
,
0100
0010
0000
0010
1000
0100
1000
0001
,
0100
0010
1000
0001
0010
0001
1000
0010
,
0100
1000
0100
0001
0010
0100
0010
0001
,
1001
0000
0110
0000
1001
0000
0110
0002
,
0000
0100
0103
0010
1000
0100
0001
0100
,
0010
1000
0010
0100
0010
0001
1000
1020
,
0000
0001
0031
0010
1000
0001
1000
0100
,
0010
0001
1000
0001
0100
0010
1000
1200
,
0000
0001
0301
0100
0010
0001
1000
0010
,
1000
0100
1000
0010
0100
0001
0010
0012
,
0000
0000
1003
0000
0001
0000
0100
0000
0010
0000
0000
1010
0000
0000
2100
0000
,
0001
0000
0100
0000
3001
0000
1000
0010
,
0000
0010
1000
0001
0020
0000
0031
0200
,
0000
0310
0000
1000
0000
0001
0000
0010
,
0001
0100
1000
0100
0001
0010
0100
2000
,
0000
3010
1000
0001
0000
0100
0000
0010
,
1000
0001
1000
0100
0010
0001
0010
0200
,
0000
1300
0010
1000
0000
0100
0010
0001
,
0100
0000
0010
0000
1000
0000
0000
0000
0001
0000
0000
0001
0000
0000
0001
0000
,
0010
0011
0110
1100
,
1001
0000
0000
0000
;

//---------------dance-double - ----------------
#NOTES:
     dance-double:
     :
     Easy:
     4:
     :
00000000
00000000
00000000
00000000
,
00000000
00000000
00000000
00000000
,
00000000
00000000
00000000
00000000
,
00000000
00000000
00000000
00000000
,
00000000
00000000
00000000
00000000
,
00000000
00000000
00000000
00000000
,
00000000
00000000
00000000
00000000
,
01000000
00000000
00000000
00000000
,
00100000
00000000
00000000
00000000
,
10000000
00000000
00010000
00000000
,
00001000
00010000
00001000
00000000
,
00000010
00000000
00000010
00000000
,
00000100
00001000
00000001
00000000
,
00000100
00000000
00000100
00000000
,
00001000
00010000
01000000
00000000
,
10000000
00000000
10000000
00000000
,
00100000
00010000
01000000
00000000
,
10000000
00000000
00010000
00000000
,
10010000
00000000
00000000
00000000
,
00010000
01000000
10000000
00000000
,
00010000
00010000
00001000
00001000
,
00000100
00000001
00001000
00000000
,
00000010
00000010
00000100
00000100
,
00001000
00000010
00000001
00000000
,
00000001
00000010
00001000
00000000
,
00010000
00000000
00001000
00000000
,
00011000
00000000
00000000
00000000
,
01000000
00100000
10000000
00010000
,
20000000
00000000
00010000
30000000
,
01000000
00010000
10000000
00100000
,
00010000
00000000
00001000
00000000
,
00000010
00000100
00001000
00000001
,
00002000
00000000
00000001
00003000
,
00000100
00000000
00010000
00000000
,
00002000
00000000
00000000
00003000
,
00100000
00000000
00100000
00000000
,
01000000
00010000
10000000
00000000
,
01000000
00000000
01000000
00000000
,
00010000
00001000
00000100
00000000
,
00000001
00000000
00000001
00000000
,
00000010
00001000
00000100
00000000
,
00000001
00000000
00001000
00000000
,
00001001
00000000
00000000
00000000
,
00001000
00000100
00000001
00000000
,
00001000
00001000
00010000
00010000
,
01000000
10000000
00010000
00000000
,
00100000
00100000
01000000
01000000
,
00010000
00100000
10000000
00000000
,
10000000
00100000
00010000
00000000
,
00001000
00000000
00010000
00000000
,
00011000
00000000
00000000
00000000
,
00000100
00000010
00000001
00001000
,
00000002
00000000
00001000
00000003
,
00000100
00001000
00000001
00000010
,
00001000
00000000
00010000
00000000
,
00100000
01000000
00010000
10000000
,
00020000
00000000
10000000
00030000
,
00100000
00100000
01000000
01000000
,
00200000
00000000
00000000
00300000
,
10000000
00000000
00000000
00000000
,
00100000
00000000
00000000
00000000
,
01000000
00000000
00000000
00000000
,
00010000
00000000
00000000
00000000
,
00001000
00000000
00000000
00000000
,
00000010
00000000
00000000
00000000
,
00000001
00000000
00000100
00000000
,
00001000
00000001
00001000
00000001
,
00001001
00000000
00000000
00000000
,
00000000
00000000
00000000
00000000
;

//---------------dance-double - ----------------
#NOTES:
     dance-double:
     :
     Medium:
     7:
     :
00000000
00000000
00000000
00000000
,
00000000
00000000
00000000
00000000
,
00000000
00000000
00000000
00000000
,
00000000
00000000
00000000
00000000
,
00000000
00000000
00000000
00000000
,
00000000
00000000
00000000
00000000
,
00000000
00000000
00000000
00000000
,
00000010
00000010
00000100
00000000
,
00001000
00001000
00000001
00000000
,
00000100
00000000
00000001
00000000
,
00001000
00010000
00011000
00000000
,
00100000
00000000
10000000
00000000
00010000
01000000
10000000
00000000
,
00010000
00100000
01000000
00010000
,
00000010
00000000
00000001
00000000
00001000
00000100
00000001
00000000
,
00001000
00000010
00000100
00001000
,
00000001
00000100
00000000
00000010
00000000
00010000
00000000
00000100
,
00000010
00001000
00000000
00010000
00000000
00001000
00000000
00000100
,
00000010
00001000
00000000
00010000
00000000
01000000
00000000
10000000
,
00100000
10000000
00010000
00000000
,
00100000
00000000
10000000
00000000
01000000
00000000
00100000
01000000
,
00000000
01000000
00100000
00000000
00010000
00000000
00001000
00000000
,
00000010
00000000
00000001
00000000
00000100
00000000
00000010
00000100
,
00000000
00000100
00000010
00000000
00001000
00000000
00010000
00000000
,
00100000
10000000
00100000
00000000
01000000
00000000
00000000
00000000
,
00100000
00010000
00100000
00000000
01000000
00000000
00000000
00000000
,
00100000
00000000
10010000
00000000
,
01000000
00010000
00001000
00000100
,
00000010
00000000
00001000
00000001
00000100
00000000
00001000
00000000
,
00000002
00000010
00001000
00000013
,
00000100
00001100
00000001
00000101
,
00001000
00000100
00010000
00001000
00100000
00000000
00010000
00000000
,
10000000
00100000
01000000
00000000
00100000
00000000
00010000
00000000
,
20000000
00000000
01000000
31000000
,
00010000
01010000
00001000
00011000
,
00000010
00001000
00000100
00000000
,
00000010
00000000
00000001
00000000
00001000
00000100
00000001
00000000
,
00001000
00000010
00000100
00001000
,
00100000
00000000
10000000
00000000
00010000
01000000
10000000
00000000
,
00010000
00100000
01000000
00010000
,
10000000
01000000
00000000
00100000
00000000
00001000
00000000
01000000
,
00100000
00010000
00000000
00001000
00000000
00010000
00000000
01000000
,
00100000
00010000
00000000
00001000
00000000
00000100
00000000
00000001
,
00000010
00000001
00001000
00000000
,
00000010
00000000
00000001
00000000
00000100
00000000
00000010
00000100
,
00000000
00000100
00000010
00000000
00001000
00000000
00010000
00000000
,
00100000
00000000
10000000
00000000
01000000
00000000
00100000
01000000
,
00000000
01000000
00100000
00000000
00010000
00000000
00001000
00000000
,
00000010
00000001
00000010
00000000
00000100
00000000
00000000
00000000
,
00000010
00001000
00000010
00000000
00000100
00000000
00000000
00000000
,
00000010
00000000
00001001
00000000
,
00000100
00001000
00010000
01000000
,
00100000
00000000
00010000
10000000
01000000
00000000
00010000
00000000
,
20000000
00100000
00010000
30100000
,
01000000
01010000
10000000
11000000
,
00010000
01000000
00001000
00010000
00000010
00000000
00001000
00000000
,
00000001
00000010
00000100
00000000
00000010
00000000
00001000
00000000
,
00000002
00000000
00000100
00000103
,
00001000
00001100
00010000
00011000
,
00100000
00010000
01000000
00000000
,
00100000
10000000
01000000
00010000
,
00002000
00000000
00020000
00033000
,
00000010
00000001
00000100
00001000
,
00000100
00000001
00000010
00000000
,
00000100
00001000
00001100
00000000
,
00010000
00001000
00011000
00000000
,
00100000
00000000
01000000
00000000
,
00010000
00100000
10000000
01000000
,
10010000
00000000
00000000
00000000
,
00000000
00000000
00000000
00000000
;

//---------------dance-double - ----------------
#NOTES:
     dance-double:
     :
     Hard:
     11:
     :
00000000
00000000
00000000
00000000
,
00000000
00000000
00000000
00000000
,
00000000
00000000
00000000
00000000
,
00000000
00000000
00000000
00000000
,
00000000
00000000
00000000
00000000
,
00000000
00000000
00000000
00000000
,
00000000
00000000
00000000
00000000
,
00100000
10000000
01000000
00000000
,
00010000
00100000
00010000
00000000
,
00001000
00000000
00000001
00000000
,
00010010
00001100
00000101
00000000
,
00001000
00000000
01000000
00000000
00100000
00000000
10000000
00100000
,
00000000
00100000
10000000
00000000
00010000
10000000
01000000
00000000
,
00010000
00000000
00001000
00000000
00000100
00000000
00000001
00000010
,
00000000
00000010
00000001
00000000
00001000
00000010
00000100
00000010
,
00000100
00000001
00000000
00001000
00000000
00010000
00000000
00100000
,
01000000
10000000
00000000
00010000
00000000
00100000
00000000
00001000
,
00010000
00100000
10000000
00100000
01000000
00001000
00010000
00000100
,
00000010
00000001
00000100
00001100
,
00010000
00001000
00000010
00000000
00000100
00000000
00010000
00100000
,
00000000
00000000
00100000
00000000
00010000
00000000
00000000
00000000
10000000
00000000
00000000
01000000
00000000
00000000
00020000
00000000
,
00000000
00000000
01000000
00000000
10030000
00000000
00100000
00001000
,
00000000
00001000
00010000
00001000
00000010
00000001
00001000
00000010
,
00000200
00000310
00002000
00013000
,
02000000
03100000
00020000
10030000
,
01100000
00000000
10010000
00000000
,
00110000
00011000
00001100
00000000
,
00000001
00000100
00001000
00000100
00000001
00000000
00001000
00000100
,
00000000
00010000
00001000
00000000
00100000
00010000
10000000
00000000
,
00100000
01000000
00010000
00000000
00100000
01000000
10000000
00000000
,
00010000
01000000
00100000
01000000
00010000
00001000
00000010
00000000
,
00001000
00000100
00000001
00000100
00001000
00000000
00000010
00010000
,
00000000
00001000
00010000
00000000
00100000
10000000
01000000
00000000
,
00200000
00010000
00310000
00000000
02000000
10000000
13000000
00000000
,
00010000
10000000
01000000
00010000
00001000
00000100
00000001
00000000
,
00001000
00000000
00000100
00000000
00000010
00000000
00000001
00000010
,
00000000
00000010
00000001
00000000
00001000
00000001
00000100
00000000
,
00001000
00000000
00010000
00000000
01000000
00000000
10000000
00100000
,
00000000
00100000
10000000
00000000
00010000
00100000
01000000
00100000
,
01000000
10000000
00000000
00010000
00000000
00001000
00000000
00000010
,
00000100
00000001
00000000
00001000
00000000
00000010
00000000
00010000
,
00001000
00000010
00000001
00000010
00000100
00010000
00001000
01000000
,
00100000
10000000
01000000
01010000
,
00001000
00010000
00100000
00000000
01000000
00000000
00001000
00000010
,
00000000
00000000
00000010
00000000
00001000
00000000
00000000
00000000
00000001
00000000
00000000
00000100
00000000
00000000
00002000
00000000
,
00000000
00000000
00000100
00000000
00003001
00000000
00000010
00010000
,
00000000
00010000
00001000
00010000
00100000
10000000
00010000
00100000
,
02000000
03100000
00020000
00031000
,
00000200
00000310
00002000
00003001
,
00000110
00000000
00001001
00000000
,
00001010
00011000
01010000
00000000
,
10000000
01000000
00010000
01000000
10000000
00000000
00010000
01000000
,
00000000
00001000
00010000
00000000
00000010
00001000
00000001
00000000
,
00000010
00000100
00001000
00000000
00000010
00000100
00000001
00000000
,
00001000
00000100
00000010
00000100
00001000
00010000
00100000
00000000
,
00010000
01000000
10000000
01000000
00010000
00000000
00100000
00001000
,
00000000
00010000
00001000
00000000
00000010
00000001
00000100
00000000
,
00000020
00001000
00001030
00000000
00000200
00000001
00000301
00000000
,
00001000
00000001
00000100
00001000
00010000
01000000
10000000
00100000
,
01000000
00010000
00100000
01000000
,
00020000
00000000
00002000
00033000
,
00000010
00000001
00000100
00000000
00000010
00000000
00000100
00000000
,
00010000
00100000
10000000
00000000
,
00010000
00100000
00010000
00000000
01000000
00000000
00000000
00000000
,
10000000
00100000
10000000
00000000
01000000
00000000
00000000
00000000
,
00010000
00010000
00001000
00001000
,
00000100
00000001
00000010
00001000
,
00001001
00000000
00000000
00000000
,
00000000
00000000
00000000
00000000
;
