#TITLE:LOVE THIS FEELIN';
#SUBTITLE:(GFDM mix);
#ARTIST:AKIRA YAMAOKA;
#BANNER:LOVE THIS FEELIN' (GFDM mix)-bn.png;
#BACKGROUND:LOVE THIS FEELIN' (GFDM mix)-bg.png;
#JACKET:LOVE THIS FEELIN' (GFDM mix)-jacket.png;
#MUSIC:LOVE THIS FEELIN' (GFDM mix).ogg;
#SAMPLESTART:22.054;
#SAMPLELENGTH:20;
#DISPLAYBPM:185;
#BPMS:0=185.04;
#BGCHANGES:;

//---------------dance-single - ----------------
#NOTES:
     dance-single:
     :
     Beginner:
     3:
     :
0000
0000
0000
0000
,
0000
0000
0000
0000
,
0000
0000
0000
0000
,
0000
0000
0000
0000
,
0000
0000
0000
0000
,
1000
0000
0001
0000
,
0100
0100
0000
0000
,
0001
0000
1000
0000
,
0100
0100
0000
0000
,
1001
0000
0000
0000
,
0000
0000
0010
0000
,
0100
0000
0001
0000
,
0010
0000
0100
0000
,
0110
0000
0000
0000
,
0000
0000
1000
0000
,
0001
0000
0000
1001
,
0000
0000
0110
0000
,
0000
1000
1000
1000
,
1000
1000
0000
0000
,
0000
0001
0001
0001
,
0001
0001
0000
0000
,
0000
0100
0100
0100
,
0100
0100
0000
0000
,
0020
0000
0000
0000
,
0000
0000
0030
0000
,
0000
0001
0001
0000
,
1000
0000
0100
0000
,
2000
0000
3000
0000
,
0010
0000
0100
0000
,
0000
0010
0010
0000
,
1000
0000
0001
0000
,
0010
0000
0001
0000
,
0100
0000
0000
0000
,
1000
0000
1000
0000
,
0001
0000
0001
0000
,
0010
0000
0001
0000
,
0100
0100
0100
0000
,
0010
0000
0010
0000
,
0100
0000
0100
0000
,
0001
0001
0001
0000
,
1000
1000
1000
0000
,
0010
0000
0100
0000
,
1001
0000
0000
0000
,
0000
1000
1000
0000
,
0001
0000
0100
0000
,
0010
0000
0100
0000
,
1001
0000
0000
0000
,
0001
0000
0000
0000
,
1000
0000
0000
0000
,
0010
0000
0100
0000
,
0110
0000
0000
0000
,
0000
0010
0010
0000
,
1000
0000
0001
0000
,
0010
0000
0100
0000
,
0110
0000
0000
0000
,
1000
0000
0000
0000
,
0001
0000
0000
0000
,
1001
0000
0000
0110
,
0000
0000
1001
0000
,
0000
0110
0000
0000
;

//---------------dance-single - ----------------
#NOTES:
     dance-single:
     :
     Easy:
     7:
     :
0000
0000
0000
0000
,
0000
0000
0000
0000
,
0000
0000
0000
0000
,
0000
0000
0000
0000
,
0000
0000
0000
0000
,
1000
0010
0100
0001
,
0010
0100
1000
0001
,
0100
0001
0010
1000
,
0001
0010
0100
1000
,
0002
0000
0000
2000
0000
0000
0000
0000
,
0000
3003
0200
0300
,
0110
0001
1001
0000
,
1000
0100
1000
0001
,
0200
0000
0000
0020
0000
0000
0000
0000
,
0000
0330
2000
3000
,
0001
0000
0000
0001
0000
0000
0001
0000
,
0000
0001
0000
0000
0001
1000
0000
0000
,
0010
1000
0010
0100
,
0001
0010
0001
0100
,
1000
0010
1000
0001
,
0010
0100
1000
0010
,
1000
0001
0010
0100
,
1000
0010
1000
0002
,
0000
0200
0000
0000
0000
0000
0003
0000
,
0001
1000
0001
0301
,
0000
0010
0001
1000
,
1001
0110
1000
0001
,
0000
0100
0001
0010
,
0100
0100
1000
0001
,
0000
1000
0010
0001
,
0110
1001
0100
0010
,
0000
1000
0001
1000
,
0100
0010
0002
0003
,
2000
3000
0020
0030
,
0200
0300
0002
0003
,
0020
0030
0001
0001
,
1000
0100
1000
0000
,
0020
0030
0200
0300
,
0002
0003
2000
3000
,
0110
1001
0110
1001
,
1000
0001
0100
0000
,
0002
0000
0000
1000
0000
1003
0000
0000
,
1001
1001
0000
0010
,
0000
1000
0100
0001
,
0010
0100
1000
1000
,
0020
0000
0000
0100
0000
0130
0000
0000
,
1001
1001
0000
0100
,
0000
0001
0000
0000
1000
0000
0000
0001
,
0000
0000
1000
0000
0000
0010
0100
0000
,
0002
0000
0000
0010
0000
0013
0000
0000
,
0110
0110
0000
1000
,
0000
0010
1000
0100
,
0001
0010
0001
0100
,
2000
0000
0000
0100
0000
3100
0000
0000
,
0110
0110
0000
0001
,
0000
2000
0000
0000
3010
0000
0000
0200
,
0000
0000
0301
0000
0000
0020
0000
0000
,
0130
0000
0000
2000
0000
0000
3001
0000
,
0000
1001
0000
0000
0110
0000
0000
1001
,
0000
0110
0000
0000
;

//---------------dance-single - ----------------
#NOTES:
     dance-single:
     :
     Medium:
     10:
     :
0000
0000
0000
0000
,
0000
0000
0000
0000
,
0000
0000
0000
0000
,
0000
0000
0000
0000
,
0000
0000
0000
0000
,
1000
0100
0001
0000
1000
0100
0001
0000
,
1100
0101
0000
0000
,
0010
0001
1000
0000
0010
0001
1000
0000
,
0011
1010
0000
0000
,
2000
0000
0000
0002
0000
0000
0000
0000
,
0000
0000
3003
0000
1000
0010
0000
0100
,
0001
0000
0001
0000
1000
0001
0000
1001
,
0000
0110
0000
0100
0001
0000
0001
1000
,
0200
0000
0000
0020
0000
0000
0000
0000
,
0000
0000
0330
0000
0001
1000
0000
0010
,
0100
0000
0000
0101
0000
0000
1100
0000
,
0000
0101
0000
0000
1000
0001
0000
0000
,
0000
0100
1000
0100
1000
0100
1000
0100
,
1000
0100
1000
0200
0000
0000
0000
0300
,
0000
0010
0001
0010
0001
0010
0001
0010
,
0001
0010
0001
0020
0000
0000
0000
0030
,
0000
0001
1000
0001
1000
0001
1000
0001
,
1000
0001
1000
0001
0000
0000
1010
0000
,
0000
0101
0000
0000
1000
0000
0001
0000
,
1000
0100
1000
0001
0010
0100
1000
0000
,
0000
0001
0100
0000
1001
0000
0110
0000
,
1010
0000
1010
0000
1000
0010
1000
0001
,
0000
0020
0000
0000
0000
0000
0000
0000
,
0032
0000
2003
0000
3001
0100
0010
1000
,
0000
0100
1000
0100
1000
0000
1100
0000
,
0101
0000
0101
0000
1000
0001
1000
0100
,
0000
0010
0001
0010
0001
0010
0001
0010
,
0001
1000
0100
0000
1000
0001
0100
0000
,
0010
0010
0000
0000
1000
1000
0000
0000
,
0001
0001
0000
0000
0100
0100
0000
0000
,
1001
0000
0000
0001
0100
0010
0100
0000
,
0001
1000
0010
1000
0100
0010
0000
0000
,
0001
0001
0000
0000
1000
1000
0000
0000
,
0010
0010
0000
0000
0100
0100
0000
0000
,
0001
0100
1000
0000
0110
0000
1000
0100
,
1000
0001
1000
0100
0020
0000
0030
0000
,
0011
0000
0000
0101
0000
1100
0000
0000
,
1001
0000
1001
0000
0000
0001
1000
0100
,
0000
0100
0010
0001
0100
0000
0010
1000
,
0000
1000
0001
1000
0001
1000
0001
0000
,
1100
0000
0000
0011
0000
1001
0000
0000
,
0110
0000
0110
0000
0000
0100
0001
1000
,
0000
1100
0000
0000
0101
0000
0000
1100
,
0000
0000
0101
0000
0000
1000
0001
0000
,
1010
0000
0000
1100
0000
0110
0000
0000
,
0011
0000
0011
0000
0000
0100
0010
1000
,
0000
1000
0001
0010
0001
0010
0100
1000
,
0000
1000
0010
1000
0010
1000
0010
0000
,
0110
0000
0000
1001
0000
0011
0000
0000
,
1100
0000
1100
0000
0000
1000
0001
1000
,
0000
1010
0000
0000
1010
0000
0000
0101
,
0000
0000
0101
0000
0000
0011
0000
0000
,
0011
0000
0000
1100
0000
0000
1100
0000
,
0000
1001
0000
0000
0110
0000
0000
1001
,
0000
0110
0000
0000
;

//---------------dance-single - ----------------
#NOTES:
     dance-single:
     :
     Hard:
     13:
     :
0000
0000
0000
0000
,
0000
0000
0000
0000
,
0000
0000
0000
0000
,
0000
0000
0000
0000
,
0000
0000
0000
0000
,
1000
0100
0001
0000
1000
0100
0001
0000
,
1100
0101
0001
0001
,
0010
0001
1000
0000
0010
0001
1000
0000
,
0011
1010
1000
1000
,
1100
0000
0000
0110
0000
0000
0011
0000
,
0000
0000
1001
0000
1000
0010
1000
0010
,
0001
0100
1000
0000
1000
0001
0000
0100
,
0000
0000
0110
0000
0000
0000
0010
0000
1000
0000
0000
0000
0001
1000
0001
1000
,
0001
0000
0000
0101
0000
0000
1100
0000
,
0000
0000
1001
0000
1000
0010
1000
0010
,
0011
0000
0000
1100
0000
0000
0101
0000
,
0000
1010
0000
0000
0110
0110
0000
0000
,
1000
0100
1000
0100
0100
0010
0001
1000
,
0001
0100
0010
1000
0001
0010
0001
1000
,
0000
0010
0100
0010
0010
1000
0001
0100
,
0001
0010
0100
1000
0000
0010
1000
0001
,
0000
0100
0001
1000
1000
0010
1000
0100
,
0010
0001
1000
0010
0000
0100
0002
0000
,
1003
0000
0020
0000
0000
0000
0130
0000
0001
1000
0001
0000
0100
0000
0010
0000
,
1000
0000
0100
1000
0100
0000
1000
0100
1000
0000
0001
0000
0010
0000
0100
0000
,
0010
0001
1000
0000
1100
0000
0011
0000
,
0100
0001
0100
1000
0100
0001
0100
0010
,
0000
0000
1000
0000
0100
0010
0100
0000
1000
0000
0001
0000
0010
0000
0001
0000
,
1001
0000
0110
0000
1000
0001
0010
0100
,
0000
1000
1000
0001
0011
0000
0101
0000
,
0010
1000
0010
0001
0010
1000
0100
0010
,
0000
0000
0001
0000
1000
0000
0010
0100
0010
0000
0100
0010
0100
0000
0001
0000
,
0011
0000
0000
1001
0000
0000
1010
0000
0000
1000
0100
0010
,
0001
0101
0000
0000
1010
1010
0000
0000
,
1001
0000
1001
0000
0000
0000
0000
0000
1000
0100
1000
0100
1000
0000
0001
0000
,
0010
0001
0100
0010
1000
0100
0001
0000
,
0010
0001
1000
0001
0010
0100
1000
0000
,
0110
0110
0000
0000
1001
1001
0000
0000
,
0110
0000
0110
0000
0000
0000
0000
0000
0001
1000
0001
1000
0001
0000
0000
0000
,
0100
0010
0100
1000
0100
0001
0100
0010
,
0100
1000
0100
0001
0100
1000
0100
0000
,
0101
0101
0000
1100
0000
0101
0101
0000
,
1001
0000
1001
0000
1000
0001
0001
0010
,
0000
0000
0100
0000
0100
0000
1000
0000
0001
0000
0100
0010
0100
0000
0001
0000
,
0000
1000
1000
0010
0010
1000
0010
0000
,
1010
0100
0001
0010
1000
0001
0100
0000
,
1001
0000
0000
0000
1001
0000
0000
0000
0010
0000
1000
0001
1000
0000
0100
0000
,
0000
0011
0000
0000
0101
0000
0000
1010
,
0000
0000
1100
0000
0000
1001
1001
0000
,
1100
0001
1000
0010
1000
0100
0001
0000
,
0110
0000
0000
0000
0110
0000
0000
0000
0001
0000
0010
0100
0010
0000
0001
0000
,
0000
0000
1000
0000
1000
0000
0001
0000
1000
0000
0010
0100
0010
0000
0100
0000
,
0000
0000
0001
1000
0001
0000
0010
0000
0001
0000
1000
0000
0100
0000
0000
0000
,
0110
0001
0100
1000
0010
0100
0001
0000
,
0110
0000
0000
0000
0110
0000
0000
0000
1000
0000
0001
0010
0001
0000
0100
0000
,
1000
1010
0000
0000
0101
0000
0000
0011
,
0000
0000
1100
0000
0000
1001
0000
0000
,
0101
0000
0000
0011
0000
0000
1100
0000
,
0000
1001
0000
0000
0110
0000
0000
1001
,
0000
0110
0000
0000
;
