#VERSION:0.83;
#TITLE:LOVE ♡ SHINE (Body Grooverz 2006 mix);
#SUBTITLE:;
#ARTIST:W.W.S;
#TITLETRANSLIT:;
#SUBTITLETRANSLIT:;
#ARTISTTRANSLIT:;
#GENRE:;
#ORIGIN:;
#TAGS:;
#CREDIT:;
#BANNER:LOVE SHINE (Body Grooverz 2006 mix).png;
#BACKGROUND:LOVE SHINE (Body Grooverz 2006 mix)-bg.png;
#PREVIEWVID:;
#JACKET:LOVE SHINE (Body Grooverz 2006 Mix)-jacket.png;
#CDIMAGE:;
#DISCIMAGE:;
#LYRICSPATH:;
#CDTITLE:;
#MUSIC:LOVE SHINE (Body Grooverz 2006 mix).ogg;
#OFFSET:0.000000;
#SAMPLESTART:1.415000;
#SAMPLELENGTH:20.000000;
#SELECTABLE:YES;
#BPMS:0.000000=177.000000;
#STOPS:;
#DELAYS:;
#WARPS:;
#TIMESIGNATURES:0.000000=4=4;
#TICKCOUNTS:0.000000=4;
#COMBOS:0.000000=1;
#SPEEDS:0.000000=1.000000=0.000000=0;
#SCROLLS:0.000000=1.000000;
#FAKES:;
#LABELS:0.000000=Song Start;
#BGCHANGES:;
#KEYSOUNDS:;
#ATTACKS:
;

//---------------dance-single - ----------------
#NOTEDATA:;
#CHARTNAME:;
#CHARTHASH:2147483647:
#STEPSTYPE:dance-single;
#BANNER:;
#DESCRIPTION:;
#CHARTSTYLE:;
#DIFFICULTY:Beginner;
#METER:3;
#METERF:0.000000;
#RADARVALUES:0.129330,0.212550,0.019681,0.039361,0.000000,92.000000,90.000000,2.000000,4.000000,0.000000,0.000000,0.000000,0.000000,0.000000,0.129330,0.212550,0.019681,0.039361,0.000000,92.000000,90.000000,2.000000,4.000000,0.000000,0.000000,0.000000,0.000000,0.000000;
#CREDIT:;
#NOTES:
0000
0000
0000
0000
,
0000
0000
0000
0000
,
0000
0000
0000
0000
,
0100
0000
0100
0000
,
0100
0000
0100
0000
,
0001
0000
0000
0000
,
1000
0000
0000
0000
,
0100
0000
0100
0000
,
0100
0000
0000
0000
,
0010
0000
0000
0000
,
0001
0000
0000
0000
,
1000
0000
0000
0000
,
0100
0000
0000
0000
,
0010
0000
0000
0000
,
0001
0000
0000
0000
,
1000
0000
0000
0000
,
0100
0000
0000
0000
,
1000
0000
0000
0000
,
0001
0000
0000
0000
,
0100
0000
0000
0000
,
0010
0000
0000
0000
,
1000
0000
0000
0000
,
0001
0000
0000
0000
,
0100
0000
0000
0000
,
0010
0000
0000
0000
,
1000
0000
1000
0000
,
1000
0000
0000
0000
,
0001
0000
0001
0000
,
0001
0000
0000
0000
,
0100
0100
0100
0100
,
0200
0000
0000
0300
,
0100
0000
0000
0000
,
0010
0000
0000
0000
,
1000
0000
0001
0000
,
1000
0000
0000
0000
,
0001
0000
1000
0000
,
0001
0000
0000
0000
,
0010
0000
0100
0000
,
0010
0000
0100
0000
,
0020
0000
0000
0030
,
0010
0000
0000
0000
,
0001
0000
0000
0000
,
0100
0000
0000
0000
,
1000
0000
0000
0000
,
0010
0000
0010
0000
,
1000
0000
0000
0000
,
0100
0000
0000
0000
,
0001
0000
0000
0000
,
0010
0000
0010
0000
,
0001
0000
0000
0000
,
1000
0000
0000
0000
,
0100
0000
0000
0000
,
0010
0000
0000
0000
,
0001
0000
0000
0000
,
1000
0000
0000
0000
,
0010
0000
0000
0000
,
0100
0000
0000
0000
,
0001
0000
1000
0000
,
0002
0000
0000
0003
,
0001
0000
0000
0000
,
0100
0000
0000
0000
,
1000
0000
0001
0000
,
2000
0000
0000
3000
,
1000
0000
0000
0000
,
0100
0000
0000
0000
,
0010
0000
0100
0000
,
0010
0000
0100
0000
,
1000
0000
0001
0000
,
1000
0000
0001
0000
,
0100
0000
0000
0000
,
0010
0000
0000
0000
,
1001
0000
0000
0000
,
1001
0000
0000
0000
;

//---------------dance-single - ----------------
#NOTEDATA:;
#CHARTNAME:;
#CHARTHASH:2147483647:
#STEPSTYPE:dance-single;
#BANNER:;
#DESCRIPTION:;
#CHARTSTYLE:;
#DIFFICULTY:Easy;
#METER:6;
#METERF:0.000000;
#RADARVALUES:0.265688,0.321040,0.029521,0.196806,0.000000,189.000000,186.000000,3.000000,20.000000,0.000000,0.000000,0.000000,0.000000,0.000000,0.265688,0.321040,0.029521,0.196806,0.000000,189.000000,186.000000,3.000000,20.000000,0.000000,0.000000,0.000000,0.000000,0.000000;
#CREDIT:;
#NOTES:
0000
0000
0000
0000
,
0000
0000
0000
0000
,
0000
0000
0000
0000
,
1000
0000
0001
0000
,
0010
0010
0100
0100
,
1000
0000
0010
0000
,
0001
0000
0100
0000
,
1000
0000
0010
0000
,
0001
0000
1001
0000
,
1000
0000
1000
0000
,
0100
0010
0100
0010
,
0001
0000
0001
0000
,
0100
0010
0100
0010
,
2000
3000
0002
0003
,
0020
0030
0200
0300
,
1000
0010
1000
0010
,
0100
0001
0100
0000
,
0001
0000
0001
0000
,
0100
0010
0100
0010
,
1000
0000
1000
0000
,
0100
0010
0100
0010
,
0002
0003
2000
3000
,
0020
0030
0200
0300
,
0001
0010
0001
0010
,
0100
1000
0100
0000
,
1000
0000
1000
0000
,
0001
0000
0001
0000
,
1000
0000
0010
0000
,
0100
0000
0100
0000
,
0001
0000
0001
0000
,
1000
0000
1000
0000
,
0001
0000
0010
0000
,
0100
0000
0100
0000
,
1000
0010
1000
0010
,
0100
0001
0100
0000
,
0001
0010
0100
1000
,
0002
0003
2000
3000
,
0001
0010
0001
0010
,
0100
1000
0100
0000
,
1000
0010
0100
0001
,
2002
0000
3003
0000
,
1000
0100
0010
0000
,
0001
0100
0010
0000
,
1000
0001
1000
0000
,
0100
0010
0100
0010
,
0001
0100
0010
0000
,
1000
0100
0010
0000
,
0001
1000
0001
0000
,
0100
0000
1001
0000
,
0010
0000
1000
0000
,
0010
1000
0100
0000
,
0010
0000
0001
0000
,
0010
0001
0100
0000
,
0010
0000
0010
0000
,
0100
0100
0100
0000
,
0002
0003
0020
0030
,
0200
0300
2000
3000
,
0001
0000
0010
0000
,
0001
0100
0010
0000
,
1000
0000
0010
0000
,
1000
0100
0010
0000
,
0001
0000
1000
0000
,
0100
0100
0100
0000
,
2000
3000
0020
0030
,
0200
0300
0002
0003
,
1000
0000
0001
0000
,
1000
0100
0010
0001
,
0100
0000
0100
0000
,
0001
0100
0010
1000
,
0100
0000
0100
0000
,
0010
0000
0010
0000
,
0001
1000
0001
1000
,
0010
0100
0010
0000
;

//---------------dance-single - ----------------
#NOTEDATA:;
#CHARTNAME:;
#CHARTHASH:2147483647:
#STEPSTYPE:dance-single;
#BANNER:;
#DESCRIPTION:;
#CHARTSTYLE:;
#DIFFICULTY:Medium;
#METER:9;
#METERF:0.000000;
#RADARVALUES:0.469523,0.465323,0.246007,0.078722,0.000000,334.000000,309.000000,25.000000,8.000000,0.000000,0.000000,0.000000,0.000000,0.000000,0.469523,0.465323,0.246007,0.078722,0.000000,334.000000,309.000000,25.000000,8.000000,0.000000,0.000000,0.000000,0.000000,0.000000;
#CREDIT:;
#NOTES:
0000
0000
0000
0000
,
0000
0000
0000
0000
,
0000
0000
0000
0000
,
1000
1001
0001
1001
,
0000
0010
0100
0010
0100
0000
0010
0000
,
0001
1000
0001
1000
,
0010
1000
0001
0100
,
0000
0010
1000
0010
1000
0000
0001
0010
,
0100
1000
0002
0000
1003
0000
0000
0000
,
0001
0100
1000
0100
,
0001
0000
0100
0000
0010
0010
1000
0001
,
1000
0100
0001
0100
,
1000
0000
0100
0000
0010
0010
0001
1000
,
0002
0000
0000
0100
0203
0000
0000
0000
,
0000
0301
1000
0010
,
0000
1000
0001
1000
,
0001
1000
0100
0020
0000
0000
0030
0000
,
0001
0010
1000
0010
,
0001
0000
0010
0000
0100
0100
1000
0001
,
1000
0010
0001
0010
,
1000
0000
0010
0000
0100
0100
0001
1000
,
0002
0000
0000
0100
0103
0000
0000
0000
,
0000
0001
0010
0001
0000
1000
0010
1000
,
0000
0001
1000
0001
0000
1000
0001
1000
,
0000
0100
0010
0100
0010
0000
0010
0000
,
0001
0000
0000
0001
0100
0000
0000
0100
,
0010
0000
0000
0010
1000
0000
0000
1000
,
0001
0001
0010
0010
,
0100
0000
0100
0000
1000
0001
1000
0001
,
1000
0000
0000
1000
0100
0000
0000
0100
,
0010
0000
0000
0001
1000
0000
0010
0100
,
0001
1000
0000
0100
0000
1000
0000
0100
,
0000
0001
0000
0100
0000
0001
0000
0100
,
0010
1000
0010
0000
1000
0000
0100
0000
,
0010
0001
0010
0000
0001
0000
1001
0000
,
0010
0001
0010
0000
0100
0000
1000
0001
,
0000
1000
0001
0000
0100
0000
0010
0000
,
1000
0100
1000
0000
0001
0000
0010
0000
,
0001
0100
0001
0100
0001
0000
0000
0000
,
1000
0001
1000
0001
,
0000
0010
0100
0010
0100
0000
1001
0000
,
0010
1000
0100
0001
,
0010
1000
0100
0001
,
0010
1000
0100
0001
,
1001
1001
1001
1001
,
0010
0001
0100
1000
,
0010
0001
0100
1000
,
0000
0010
0010
0010
0000
0100
0100
0100
,
0000
1001
0000
1001
0000
0000
0000
1000
,
0100
0000
0000
0100
0010
0000
0000
0010
,
0001
0000
1000
0000
1001
0000
0000
0001
,
0100
0001
0010
0100
,
1000
0000
0010
0000
0110
0000
0000
0100
,
0001
0000
0000
0001
1000
0000
0000
1000
,
0010
0000
1000
0000
0100
0000
0010
0001
,
0100
0001
0000
1000
0000
0001
0000
1000
,
0000
0001
0200
0000
0302
0000
2003
0000
,
3010
0000
0000
1000
0100
0000
0000
0001
,
0010
0000
0100
0000
1001
0000
0000
0100
,
1000
0010
0100
0001
,
0010
0000
0100
0000
0110
0000
0000
0010
,
0001
0000
0000
0100
1000
0000
0000
0010
,
0100
0001
0010
0100
,
1100
0000
0101
0000
,
1001
0110
0110
1001
,
0010
1000
0100
0001
,
0010
0001
0100
1000
,
0001
0010
0001
0000
1000
0010
1000
0000
,
0100
0010
0100
0000
1001
0000
0000
0000
,
1000
1100
0001
0101
,
1000
1010
0001
0011
,
1000
0000
0001
0000
1000
0100
0010
0000
,
0001
0010
0100
1000
0000
0100
0010
0000
;

//---------------dance-single - ----------------
#NOTEDATA:;
#CHARTNAME:;
#CHARTHASH:344753177:
#STEPSTYPE:dance-single;
#BANNER:;
#DESCRIPTION:;
#CHARTSTYLE:;
#DIFFICULTY:Hard;
#METER:12;
#METERF:0.000000;
#RADARVALUES:0.662111,0.608499,0.373931,0.078722,0.014760,471.000000,433.000000,38.000000,8.000000,0.000000,0.000000,0.000000,0.000000,0.000000,0.662111,0.608499,0.373931,0.078722,0.014760,471.000000,433.000000,38.000000,8.000000,0.000000,0.000000,0.000000,0.000000,0.000000;
#CREDIT:;
#NOTES:
0000
0000
0000
0000
,
0000
0000
0000
0000
,
0000
0000
0000
0000
,
1000
0110
0001
0110
,
0011
1010
1100
0101
,
1000
0100
0010
0001
0000
0010
0100
1000
,
0000
0010
0100
0001
0010
0001
0100
0010
,
0000
1000
0001
1000
0010
0000
1000
0100
,
0010
0001
0100
0100
0100
0000
0000
0000
,
0002
0000
1003
0001
0100
0000
1010
0000
,
1000
0001
1000
0010
0100
0001
0100
0010
,
2000
0000
3001
1000
0100
0000
0011
0000
,
0001
0100
0010
1000
0100
1000
0001
1000
,
0020
0000
0000
0100
0130
0000
1001
0000
,
0100
1100
1001
0011
,
0010
0001
0100
1000
0100
0001
0010
0100
,
1000
0010
0100
0001
1000
0100
0001
0100
,
2000
0000
3010
1000
0001
0000
1100
0000
,
0001
0100
0001
1000
0100
1000
0010
0100
,
0002
0000
0013
0001
1000
0000
0101
0000
,
1000
0001
0010
0001
1000
0001
0100
0010
,
2000
0000
0000
0001
3001
0000
0110
0000
,
1000
0100
1000
0010
0100
0001
0010
0100
,
1000
0010
0100
0001
0010
0100
1000
0010
,
0100
0001
1000
0001
1000
0000
1001
0000
,
0010
0000
1000
0001
0010
0000
0001
1000
,
0010
0000
1000
0001
0100
0000
0001
0010
,
0100
1000
0010
0100
0001
0100
0010
1000
,
0100
1000
0001
0010
0001
0100
0010
1000
,
0001
0000
0100
0001
0010
0000
0100
1000
,
0010
0000
0100
0001
1000
0000
0001
1000
,
0001
0200
0000
1000
0000
0001
0000
1000
,
0000
0301
0010
1000
0010
0001
1000
0010
,
0100
0001
0010
0100
0000
1000
0010
1000
,
0000
0001
0010
0001
0100
0000
1001
0000
,
0010
1000
0001
1000
0000
0001
0100
0010
,
0000
1000
0001
1000
0100
0000
0010
0000
,
0001
1000
0100
0010
0000
0100
1000
0010
,
0000
0100
0001
0010
0001
0000
1000
0000
,
0010
0100
0010
0100
0001
1000
0001
1000
,
0000
0001
0010
0100
1000
0000
1001
0000
,
0000
1100
0000
0010
0001
0100
1000
0100
,
0000
0101
0000
0010
1000
0100
0001
0100
,
0000
1100
0000
0010
0001
0100
1000
0100
,
0101
1100
0101
1100
,
0001
1000
0010
0100
0000
0001
1000
0100
,
1000
0001
1000
0001
0010
0000
0100
0000
,
1000
0100
0010
0001
1000
0100
0010
0100
,
0010
0100
0010
0001
0000
0000
0000
0000
,
1001
0000
1000
0100
0010
0000
0001
1000
,
0010
0000
0000
0100
0000
0000
0100
0000
0001
0000
0000
0000
1000
0000
0100
0000
,
0010
0100
1000
0001
0100
0010
0100
0001
,
0010
0000
0000
0100
0000
0000
0100
0000
1000
0000
0000
0000
0100
0000
0010
0000
,
0110
0000
0010
0001
1000
0000
0010
1000
,
0001
0000
1000
0001
0100
0000
0010
1000
,
0001
0200
0000
1000
0000
0001
0000
1000
,
0000
0301
0010
0100
0010
0001
1000
0010
,
0110
0000
0100
0001
1000
0000
0100
1000
,
0010
0000
0000
0100
0000
0000
0100
0000
0001
0000
0000
0000
0010
0000
0100
0000
,
1000
0001
1000
0001
0100
0010
0100
0001
,
0010
0100
1000
0010
0000
0100
0001
1000
,
1001
0000
0010
0100
0001
0000
0010
0100
,
1000
0000
0010
0100
0001
0000
1000
0100
,
0010
0011
0000
1100
0000
1010
0000
0101
,
0000
0010
1000
0100
0001
0100
1000
0010
,
0100
0000
0001
0001
0100
0000
1000
1000
,
0100
0000
0010
0001
1000
0001
1000
0000
,
1001
0001
0100
0000
1001
1000
0100
0000
,
1000
0001
0100
0000
1001
0000
0000
0000
,
1000
0010
0001
0010
1000
0001
0010
1000
,
0010
0001
0100
0010
1000
0100
0010
0001
,
0100
0000
0110
0000
1000
0001
1000
0000
,
0001
0010
0100
1000
0000
0001
1001
0000
;

//---------------dance-single - ----------------
#NOTEDATA:;
#CHARTNAME:;
#CHARTHASH:0:
#STEPSTYPE:dance-single;
#BANNER:;
#DESCRIPTION:;
#CHARTSTYLE:;
#DIFFICULTY:Challenge;
#METER:15;
#METERF:0.000000;
#RADARVALUES:0.948885,0.930646,0.738022,0.354251,0.437893,675.000000,600.000000,75.000000,36.000000,0.000000,0.000000,0.000000,0.000000,0.000000,0.948885,0.930646,0.738022,0.354251,0.437893,675.000000,600.000000,75.000000,36.000000,0.000000,0.000000,0.000000,0.000000,0.000000;
#CREDIT:;
#NOTES:
// measure 0
0000
0000
0000
0000
,  // measure 1
0000
0000
0000
0000
,  // measure 2
0000
0000
0000
0000
,  // measure 3
1000
0010
1010
0001
0010
0100
0110
0010
,  // measure 4
0001
0100
0100
0100
0100
0010
1000
2000
,  // measure 5
0000
0010
0010
0010
0000
0001
0001
3002
,  // measure 6
0000
1000
1003
0001
0001
0100
0010
1000
,  // measure 7
0001
0011
1000
0001
1010
0010
0100
0001
,  // measure 8
0010
0001
0010
0000
1000
0100
1000
0000
0001
0100
0001
0000
0010
1000
0010
0000
,  // measure 9
2000
0100
3100
1001
1002
0100
0103
0000
,  // measure 10
0001
0000
1000
0000
1000
0000
1000
0000
0010
0100
0010
0000
0100
0000
0001
0000
,  // measure 11
0020
0100
0130
1100
2100
0001
3001
0000
,  // measure 12
0010
0000
0001
0000
0200
0010
0000
0000
0320
1000
0000
0000
2030
0001
0000
0000
,  // measure 13
3002
0100
0103
0011
0012
1000
1003
0010
,  // measure 14
0100
0000
0001
0000
0020
0001
0000
0000
0032
1000
0000
0000
2003
0100
0000
0000
,  // measure 15
3010
1000
0001
0100
0110
0010
1000
0000
,  // measure 16
0001
0100
0001
0000
1000
0000
0110
0000
0002
0000
0100
0000
0103
0000
0000
0000
,  // measure 17
2010
0010
3010
1000
2100
0001
3001
0000
,  // measure 18
0010
0000
0001
0000
0001
0000
0001
0000
1000
0100
1000
0000
0010
0100
0010
0000
,  // measure 19
0200
0001
0301
1001
2001
0100
3100
0000
,  // measure 20
1000
0000
0010
0000
2000
0001
0000
0000
3002
0100
0000
0000
0203
0010
0000
0000
,  // measure 21
0320
1000
1030
0101
0102
0010
0013
0100
,  // measure 22
1000
0000
0001
0000
0001
0000
0001
0000
0010
0100
1000
0000
0010
0000
0010
0000
,  // measure 23
0110
0100
0001
0011
0100
1000
0010
0010
,  // measure 24
0000
0000
1000
0000
1000
0000
1000
0000
1000
0100
0000
0000
0010
0001
0000
0000
,  // measure 25
0011
0001
1000
0010
1010
1000
0100
0010
,  // measure 26
0110
0100
1000
0001
0101
0100
0010
1000
,  // measure 27
0001
0010
0001
0000
1000
0100
1000
0000
0001
0100
0001
0000
1000
0010
1000
0000
,  // measure 28
0001
0000
0010
0000
0110
0000
1001
0000
0000
0000
1000
0000
0010
0100
0001
0000
,  // measure 29
0011
0100
0010
1000
1100
0001
0100
0010
,  // measure 30
1000
0100
1000
0000
0001
0100
0001
0000
1000
0010
1000
0000
0001
0010
0001
0000
,  // measure 31
1000
1000
0010
0100
0001
0001
0010
0100
,  // measure 32
0000
0000
1100
0000
1001
0000
0001
0000
1000
0010
1000
0000
0001
0010
0001
0000
,  // measure 33
1000
0100
0110
0001
0100
0010
1010
1000
,  // measure 34
0100
0000
0010
0000
0001
0100
0001
0000
1002
0000
1000
0000
1003
0000
0000
0000
,  // measure 35
0010
0100
0101
0010
1000
0001
0011
0100
,  // measure 36
1000
0000
0010
0000
1001
0000
0000
0000
1000
0100
0010
0000
0001
0100
0010
0000
,  // measure 37
1000
0001
1100
0100
1000
0010
0101
0001
,  // measure 38
0010
0000
0100
0000
1000
0001
1000
0000
0210
0000
0010
0000
0310
0000
0000
0000
,  // measure 39
0001
0010
0010
0010
0011
0001
1000
1100
,  // measure 40
0000
0010
0010
0100
0001
0101
1100
0000
,  // measure 41
0001
0000
0010
0001
0000
0001
0100
0000
0010
0000
0010
0000
1000
0000
0100
0000
,  // measure 42
0000
0000
1000
0001
0000
0001
0100
0000
0010
0000
0010
0000
1000
0000
0100
0000
,  // measure 43
0000
0000
0010
0100
0000
0100
1000
0000
0001
0000
0010
0000
0001
0000
1000
0000
,  // measure 44
0002
0010
0000
0000
0023
0100
0000
0000
0230
1000
0000
0000
2300
0001
0000
0000
,  // measure 45
3010
0100
0001
0011
0010
0100
1000
1010
,  // measure 46
0001
0100
0010
1000
1100
0001
0100
0010
,  // measure 47
1000
0100
1000
0000
0001
0010
0001
0000
0100
0001
0100
0000
0010
1000
0010
0000
,  // measure 48
1000
0100
1000
0100
0010
0001
0010
0001
0200
0000
0010
0000
0310
0000
1000
0000
,  // measure 49
1001
0100
0010
1000
1010
0001
0010
0100
,  // measure 50
1000
0010
0000
0010
0100
0000
0001
0000
0020
0000
0100
0000
0130
0000
1000
0000
,  // measure 51
0001
0010
0001
0000
1000
0010
1000
0000
0001
0100
0001
0000
1000
0100
1000
0000
,  // measure 52
0010
1000
0000
1000
0001
0000
0101
0000
0110
0000
0010
0000
1000
0000
0001
0000
,  // measure 53
0011
0010
0100
1000
1001
0001
0100
0010
,  // measure 54
1000
0010
1000
0000
0001
0100
0001
0000
1000
0100
1000
0000
0001
0010
0001
0000
,  // measure 55
1100
0010
0100
0001
0101
1000
0100
0010
,  // measure 56
0000
0001
0001
0001
1000
0010
1000
0100
,  // measure 57
1010
0010
1000
0100
0011
0010
0001
1000
,  // measure 58
0010
0100
0000
0100
0001
0000
0011
0000
1100
0000
0010
0000
0100
0000
0001
0000
,  // measure 59
2000
0010
0000
0000
3020
0100
0000
0000
0230
0001
0000
0000
0302
1000
0000
0000
,  // measure 60
0013
0100
1100
0011
0100
0010
1000
0001
,  // measure 61
0010
0100
0010
0000
0001
0000
1000
0000
0100
0010
0100
0000
1000
0000
0001
0000
,  // measure 62
0010
0001
0010
0000
0001
0100
0001
0000
1000
0010
1000
0000
0100
1000
0100
0000
,  // measure 63
1001
0100
0010
1000
0101
0010
1000
0001
,  // measure 64
0010
0000
0100
0000
0100
0000
1000
0000
1000
0001
1000
0000
0001
0010
0001
0000
,  // measure 65
0100
0001
0100
0000
0010
0000
1000
0000
0001
0010
0001
0000
1000
0000
0100
0000
,  // measure 66
1000
0010
1000
0000
0100
1000
0100
0000
0010
0001
0010
0000
0001
0100
0001
0000
,  // measure 67
0011
0001
1000
0100
1010
0010
1000
0001
,  // measure 68
0110
0000
0010
0000
1000
0100
1000
0000
0001
0100
0001
0000
0010
0000
0100
0000
,  // measure 69
1000
1000
0010
0010
0100
0100
0001
0001
,  // measure 70
0010
0010
0001
0001
0100
0100
1000
1000
,  // measure 71
0010
0100
0000
0000
0001
1000
0000
0000
1100
0000
0101
0000
1100
0000
0000
0000
,  // measure 72
1001
1001
0110
0110
1001
0110
1001
0000
;
