#TITLE:LOVE AGAIN TONIGHT;
#SUBTITLE:-high speed mix-;
#ARTIST:NAOKI feat. PAULA TERRY;
#BANNER:LOVE AGAIN TONIGHT -high speed mix--bn.png;
#BACKGROUND:LOVE AGAIN TONIGHT -high speed mix--bg.png;
#JACKET:LOVE AGAIN TONIGHT -high speed mix--jacket.png;
#MUSIC:LOVE AGAIN TONIGHT -high speed mix-.ogg;
#SAMPLESTART:36.563;
#SAMPLELENGTH:20;
#DISPLAYBPM:160;
#BPMS:0=160;
#BGCHANGES:;

//---------------dance-single - ----------------
#NOTES:
     dance-single:
     :
     Beginner:
     4:
     :
0000
0000
0000
0000
,
1000
0000
1000
0000
,
0001
0000
0001
0000
,
0100
0000
0100
0000
,
0010
0000
0010
0000
,
1000
0000
0100
0000
,
0010
0000
0001
0000
,
0100
0000
0010
0000
,
1000
0000
0001
0000
,
0010
0000
0000
0000
,
0001
0000
1000
0000
,
0100
0000
0000
0000
,
1000
0000
0010
0000
,
0100
0000
0001
0000
,
0010
0000
0100
0000
,
1000
0000
0010
0000
,
1000
0000
0001
0000
,
0100
0000
0010
0000
,
1000
0000
0001
0001
,
0000
0000
0010
0000
,
0100
0000
0000
0000
,
1000
0000
0010
0000
,
0100
0000
0001
0001
,
0000
0000
0010
0000
,
0100
0000
1000
0000
,
1001
0000
1001
0000
,
1001
0000
0010
0000
,
1000
0000
0100
0000
,
1000
0000
0001
0000
,
0010
0000
0000
0000
,
0001
0000
0100
0000
,
0001
0000
1000
0000
,
0010
0000
0000
0000
,
0000
0110
0000
0000
,
0110
0000
0110
0000
,
1000
0000
0001
0000
,
0100
0000
0010
0000
,
1000
1000
0000
0000
,
0001
0000
1000
0000
,
0010
0000
1000
0000
,
0100
0000
0001
0000
,
1001
0000
0110
0000
,
1001
0000
0110
0000
,
1001
0000
1001
0000
,
1001
0000
0100
0000
,
0001
0000
0010
0000
,
0001
0000
0001
0000
,
0100
0000
0000
0000
,
0010
0000
1000
0000
,
0100
0000
0000
0010
,
0010
0000
0000
0000
,
0110
0000
0110
0000
,
0110
0000
0001
0000
,
0100
0000
0010
0000
,
1000
0000
0001
0000
,
0100
0000
0000
0000
,
0010
0000
1000
0000
,
0100
0000
0000
0000
,
0001
0001
0001
0000
,
0010
0000
0001
0000
,
0100
0000
1000
0000
,
1001
0000
0110
0000
;

//---------------dance-single - ----------------
#NOTES:
     dance-single:
     :
     Easy:
     7:
     :
0000
0000
0000
0000
,
1000
0010
0001
0010
,
1000
0100
0001
0100
,
0010
1000
0100
0010
,
0001
1000
1001
0110
,
0001
0010
1000
0010
,
0001
0100
1000
0100
,
0110
1001
0010
0100
,
0001
0010
1000
0100
,
0001
1000
0010
0000
,
1000
0100
0001
0000
,
0010
0001
0010
0100
,
2000
3002
2003
3020
,
0130
0001
0010
0000
,
0001
0100
1000
0000
,
0010
1000
0010
0100
,
0001
0010
0100
0000
,
1001
0010
1000
0100
,
0010
0000
0001
0001
,
0010
0001
0100
0010
,
1000
0100
0000
0100
,
0110
0010
0001
0100
,
1000
0000
0010
0010
,
0000
1000
0100
0010
,
0001
0000
1001
0110
,
1000
0100
0001
0100
,
1000
0010
0001
0010
,
1000
0001
0010
0100
,
1000
0010
0001
0100
,
0110
0000
0000
0001
,
0010
0001
0100
0010
,
1000
0100
1000
0001
,
0200
0320
0230
0320
,
1030
0000
0002
0000
0000
0023
0000
0000
,
0230
0000
0000
2300
0000
0000
3010
0000
,
1000
0001
0010
2002
,
0000
0003
0001
0100
,
3001
0000
2000
0000
0000
3200
0000
0000
,
0320
0000
0000
0032
0000
0000
0103
0000
,
0010
1000
0010
0100
,
0001
0010
1001
0110
,
1000
1000
0001
0001
,
0100
0010
0100
0010
,
0110
0001
0110
1000
,
0010
1000
0100
0001
,
0010
0001
0010
0100
,
1000
0100
0001
0010
,
1001
0000
0000
1000
,
0100
0001
0010
0100
,
0110
0000
0000
0001
,
0100
0010
1000
0100
,
1001
0010
1001
0100
,
0001
0010
0001
0100
,
1000
0010
1000
0100
,
1000
0010
0001
0100
,
0110
0000
0000
0001
,
0010
0001
0100
1000
,
1001
0000
0000
0000
,
1000
0100
0001
0000
,
0010
0000
0001
0100
,
1000
0000
0010
0100
,
1001
0000
0110
0000
;

//---------------dance-single - ----------------
#NOTES:
     dance-single:
     :
     Medium:
     10:
     :
0000
0000
0000
0000
,
2000
0000
3100
0010
0002
0000
1003
0010
,
0200
0000
0301
1000
0020
0000
0130
0001
,
0020
0000
0031
0000
0100
0010
2000
0000
,
0001
0000
0100
0000
3001
1000
0100
0000
,
0020
0000
0031
0100
0002
0000
1003
0010
,
0200
0000
0301
0000
1000
0010
1000
0100
,
2000
0000
3002
0000
0013
0001
0100
0000
,
0010
0000
0000
1000
0000
0000
0001
0000
0000
1000
0000
0000
0010
0000
0100
0000
,
0000
0001
0100
2000
0000
3000
0000
1100
,
0000
0110
0000
0011
0000
0000
0000
0000
,
0000
1000
0100
1000
0010
0100
0000
0001
,
2000
0000
3020
0000
0230
0000
0301
1000
,
0001
0010
0100
2000
0000
3000
0000
1010
,
0000
1001
0000
0101
0000
0000
0000
0000
,
0000
0010
1000
0100
1000
0002
0000
0023
,
0000
0032
0000
0203
0000
0300
0000
0010
,
1000
0100
1000
0002
0000
0000
0013
0100
,
0000
1000
0000
0200
0000
0301
0100
1000
,
0010
0000
0100
0001
0100
0001
0000
1000
,
0000
0010
1000
0001
0000
0100
0001
1000
,
0100
0010
0100
0020
0000
0032
0000
2003
,
0000
3010
0000
0200
0000
0301
0010
0100
,
1000
0000
0010
0100
0010
0100
0000
0001
,
0000
0000
1000
0010
0000
0100
0001
0000
,
0011
1100
0101
1010
,
0001
0100
0000
0110
0000
0010
1000
0001
,
0000
0010
0000
0100
0000
1000
0010
1000
,
0000
0100
0000
0001
0010
0001
0100
0000
,
1001
0000
0010
0000
1000
0100
0010
0002
,
0000
0203
0000
0320
0000
2030
0000
3001
,
0010
0000
0001
0100
0000
0010
0000
1000
,
0020
2030
3200
0302
,
0013
0000
1000
1000
0000
0001
0001
0000
,
0100
0100
0000
0010
0010
0000
1000
0100
,
0001
0000
0010
0001
0000
0100
0020
0000
,
0000
0000
0000
0000
1030
0001
0100
0010
,
1000
0000
0001
0001
0000
0010
0010
0000
,
0100
0100
0000
1000
1000
0000
0001
1000
,
0020
0000
1030
0100
1000
0000
0010
0100
,
0001
0000
0010
0001
0000
1000
0100
0000
,
1000
1010
0001
0011
,
0100
0010
2000
0000
3100
0010
0002
0000
,
0013
0001
0100
0000
0010
1000
0100
0000
,
1000
0010
0000
0100
0000
0001
1000
0001
,
0000
0010
0000
0001
0000
0100
0010
1000
,
0000
0100
1000
0001
0010
0001
0100
0000
,
0010
1000
0000
0100
0000
1000
0010
0100
,
0000
0002
0000
0023
0000
0031
0100
0010
,
1000
0000
0100
0000
1000
0010
0100
0001
,
0010
0001
2000
0000
3020
0000
0130
0000
,
0101
1100
1001
0110
,
1000
0001
0000
0010
0000
0001
0100
1000
,
0000
0001
0000
0001
0000
0010
0001
0100
,
0000
1000
0000
0001
0010
0100
1000
0000
,
0010
1000
0000
0100
0000
1000
0010
0001
,
0000
0100
0000
0001
0000
1000
0000
0010
,
0200
0000
0001
0000
1000
0000
0301
0100
,
0010
1000
0100
0002
0000
0000
0003
0000
,
0010
0000
0000
0001
0000
0000
1000
0000
0000
0000
1000
0000
0100
0000
0010
0000
,
0100
0000
0000
1000
0000
0000
0001
0000
0000
0000
0100
0000
0010
0000
1000
0000
,
0001
0000
1000
0000
0020
0200
0000
0000
0000
0000
0000
0000
,
0330
0000
0000
0000
;

//---------------dance-single - ----------------
#NOTES:
     dance-single:
     :
     Hard:
     13:
     :
0000
0000
0000
0000
,
1000
0000
0000
0001
0000
0000
0010
0000
0100
1000
0100
0000
0010
0000
0001
0000
,
0100
0000
0000
0010
0000
0000
1000
0000
0001
0010
0001
0000
1000
0000
0100
0000
,
0010
0000
0000
0100
0000
0000
0010
0000
0001
1000
0001
0000
0100
0000
0010
0000
,
1000
0000
0000
0001
0000
0000
0010
0000
0001
0000
0100
0000
1000
0000
0000
0000
,
0010
0000
0000
1000
0000
0000
0001
0000
0010
0100
0010
0000
0001
0000
1000
0000
,
0100
0000
0000
0010
0000
0000
0100
0000
1000
0001
1000
0000
0010
0000
0100
0000
,
0001
0000
0000
0010
0000
0000
0100
0000
1000
0010
1000
0000
0001
0000
0100
0000
,
0010
1000
0000
0010
1000
0000
0001
0000
0000
1000
0000
0000
0100
0000
0010
0000
,
0001
0010
1000
0001
0100
0010
1000
0001
,
0000
0000
0011
0000
0000
0000
1100
0000
0000
0001
1000
0000
0010
0000
1000
0100
,
1000
0010
0100
0001
0010
0100
1000
0001
,
0200
0000
0320
0000
2030
0000
3001
0100
,
0010
1000
0100
0001
0010
0100
1000
0001
,
0000
0000
1010
0000
0000
0000
0101
0000
0000
0000
1000
0000
0010
0100
0010
0100
,
0010
1000
0001
1000
0100
0010
0001
0100
,
1000
0000
0100
0000
0001
0000
0010
0000
0100
1000
0100
1000
0100
0000
0010
0000
,
0001
1000
0010
0100
0001
0010
0100
1000
,
0000
0010
1000
0200
0000
0301
0100
0010
,
0110
0000
0001
0100
0001
1000
0100
0010
,
0001
0100
1000
0010
0000
0010
0100
0001
,
1000
0100
0010
0100
0001
0100
1000
0010
,
0100
0001
0010
0002
0000
1003
0100
0010
,
1001
0000
0010
1000
0010
1000
0100
0010
,
0000
0000
0001
2000
0000
3001
0100
0000
,
0010
1000
0001
0100
0010
1000
0001
0100
,
0010
1000
0100
0010
1000
0010
0100
0010
,
1000
0010
0100
0010
0001
0100
0010
0001
,
0010
0100
0010
0001
0010
1000
0100
0010
,
0001
0100
0010
1000
0000
1000
0100
0001
,
0000
0010
0001
0100
0000
0010
1000
0100
,
1000
0001
1000
0010
0100
1000
0100
0001
,
0020
0000
0000
0000
0032
0000
0000
0000
0203
0000
0000
0000
0301
1000
0001
0000
,
1000
0100
0020
0001
0031
0200
0001
0301
,
2000
0000
0010
0000
3010
0000
0100
0000
0001
1000
0001
0000
0010
0000
0100
0000
,
1000
0000
0010
0100
0010
0000
1000
0000
0001
0100
0001
0000
0020
0000
0000
0000
,
0001
0000
0000
0000
1000
0000
0000
0000
0031
0100
0001
0000
1000
0100
1000
0000
,
0010
1000
0002
0010
0013
0200
1000
1300
,
0020
0000
0100
0000
0130
0000
1000
0000
0001
0010
0001
0000
1000
0000
0100
0000
,
0010
0000
0001
1000
0001
0000
0100
0000
0010
1000
0010
0000
0100
0000
0001
0000
,
0010
0100
1000
0001
1000
0010
0100
0000
,
0001
0102
1003
2100
,
3001
0100
0010
1000
0001
0010
0100
1000
,
0010
1000
0100
0010
0001
0100
0001
1000
,
0010
0001
0010
0100
0010
0001
0010
1000
,
0100
1000
0010
1000
0100
0010
1000
0010
,
0100
1000
0010
0001
0010
1000
0100
0010
,
0001
1000
0001
0100
0000
0010
1000
0100
,
0000
0001
0010
0100
0000
1001
0000
0110
,
0000
1000
0010
0001
0000
0100
0010
1000
,
0001
0000
0010
0000
1000
0000
0010
0000
0001
0100
0001
0000
1000
0100
1000
0000
,
0010
1000
1010
0000
0010
0001
0011
0000
,
0100
0001
0010
1000
0010
0100
0010
1000
,
0010
0100
0010
0001
0100
0010
0001
0010
,
1000
0100
1000
0001
0010
0100
0001
0100
,
1000
0010
0100
0001
0000
0010
0001
0100
,
0000
1000
0010
2000
0000
3002
0000
0103
,
0001
0010
0001
0200
0000
0320
0000
1030
,
0100
1000
0010
0100
0001
0010
1000
0000
,
2000
0000
0000
3020
0000
0000
0032
0000
0000
0000
0013
0000
1000
0000
0100
0000
,
0020
0000
0000
0032
0000
0000
2003
0000
0000
0000
3010
0000
0100
0000
0001
0000
,
1000
0001
1000
0000
0020
0200
0000
0000
0000
0000
0000
0000
,
0330
0000
0000
0000
;
