#TITLE:LET THE BEAT CONTROL YOUR BODY;
#ARTIST:2 UNLIMITED;
#BANNER:LET THE BEAT CONTROL YOUR BODY-bn.png;
#BACKGROUND:LET THE BEAT CONTROL YOUR BODY-bg.png;
#JACKET:LET THE BEAT CONTROL YOUR BODY-jacket.png;
#MUSIC:LET THE BEAT CONTROL YOUR BODY.ogg;
#SAMPLESTART:35.27;
#SAMPLELENGTH:20;
#DISPLAYBPM:136;
#BPMS:0=136.09;
#BGCHANGES:;

//---------------dance-single - ----------------
#NOTES:
     dance-single:
     :
     Beginner:
     4:
     :
0000
0000
0000
0000
,
0000
0000
0000
0000
,
0000
0000
0000
0000
,
0000
0000
0000
0000
,
0010
0000
0010
0000
,
1000
0000
0001
0000
,
0010
0000
0100
0000
,
1000
0000
1000
0000
,
0100
0000
1000
0000
,
0001
0000
0001
0000
,
0010
0000
0001
0000
,
1001
0000
0000
0000
,
1000
0000
0010
0000
,
1000
0000
0100
0000
,
0010
0000
0001
0000
,
0100
0000
0010
0000
,
1000
0000
1000
0000
,
0001
0000
0001
0000
,
1000
0000
0010
0000
,
0100
0100
0100
0000
,
0001
0001
0001
0000
,
0010
0000
0100
0000
,
1000
1000
1000
0000
,
0001
0000
0100
0000
,
0010
0010
0010
0000
,
1000
0000
0001
0000
,
0100
0100
0100
0000
,
0001
0000
0010
0000
,
0001
0000
0010
0000
,
1000
0000
0100
0000
,
0010
0010
0010
0000
,
0001
0001
0001
0000
,
0100
0000
0010
0000
,
1000
0000
0001
0000
,
0100
0000
0010
0000
,
1000
1000
1000
0000
,
0110
0000
0000
0000
,
0000
0000
0000
0000
,
0001
0000
0001
0000
,
1000
0000
1000
0000
,
0100
0100
0100
0000
,
0010
0000
0001
0000
,
1000
1000
1000
0000
,
0001
0000
1000
0000
,
0001
0001
0001
0000
,
1000
0000
0100
0000
,
0010
0010
0010
0000
,
0001
0000
1000
0000
,
0010
0010
0000
0000
,
1000
1000
0000
0000
,
1001
0000
0110
0000
,
0001
0000
0010
0000
,
0001
0001
0000
0000
,
1001
0000
0000
0000
,
0110
0000
1001
0000
,
0110
0000
0000
0000
,
0001
0001
0001
0000
,
0010
0010
0010
0000
,
0001
0000
0100
0000
,
1000
1000
1000
0000
,
0100
0000
1000
0000
,
0100
0100
0100
0000
,
0010
0000
0001
0000
,
0010
0010
0010
0000
,
0001
0000
0100
0000
,
1000
0000
0000
0000
,
1001
0000
0000
0000
;

//---------------dance-single - ----------------
#NOTES:
     dance-single:
     :
     Easy:
     7:
     :
0000
0000
0000
0000
,
0000
0000
0000
0000
,
0000
0000
0000
0000
,
0000
0000
0000
0000
,
0010
0010
0001
0100
,
1000
1000
0010
0100
,
0001
0010
0001
0100
,
1000
1000
0001
1000
,
0100
0100
0010
0001
,
0100
0001
1000
0010
,
1000
0000
1000
0000
0100
0000
0000
1000
,
0000
0001
0000
1000
0000
0000
0110
0000
,
0010
1000
0100
0100
,
1000
0001
0010
0010
,
0001
0001
1000
0010
,
1000
0100
0001
1000
,
0010
0010
0010
0010
,
0100
0100
0100
0100
,
0001
0001
1000
1000
,
1100
0101
1100
0101
,
0010
0000
0010
0000
1000
0000
0000
0100
,
0000
0010
0000
0001
0000
0000
0101
0000
,
1000
0000
0001
0000
0001
0000
0000
0010
,
0000
0100
0000
1000
0000
0000
1100
0000
,
0010
0000
1000
0000
0100
0000
0000
1000
,
0000
0001
0000
0100
0000
0000
1001
0000
,
0001
0000
0010
0000
0001
0000
0000
0100
,
0000
0010
0000
1000
0000
0000
1001
0000
,
0010
0010
1000
0001
,
0010
0001
0100
0100
,
0010
1000
0001
0010
,
0001
0100
1000
0010
,
1000
1100
0001
0101
,
0100
0110
0010
1001
,
0100
0010
1000
0001
,
0010
0001
0100
1000
,
0001
0000
0001
0000
1000
0000
0000
0010
,
0000
1000
0000
0001
0000
0000
0110
0000
,
0010
0000
0100
0000
0001
0000
0000
0010
,
0000
0100
0000
1000
0000
0000
1001
0000
,
0001
0000
0001
0000
0010
0000
0000
0001
,
0000
0100
0000
1000
0000
0000
1100
0000
,
0010
0000
1000
0000
1000
0000
0000
0001
,
0000
1000
0000
0100
0000
0000
0110
0000
,
0001
0000
0001
0000
0010
0000
0000
0001
,
0000
1000
0000
0010
0000
0000
1001
0000
,
1000
0000
0100
0000
1000
0000
0000
0010
,
0000
0100
0000
0001
0000
0000
0101
0000
,
0110
0110
1000
0001
,
1001
1001
0010
0100
,
0002
1003
2000
3001
,
0010
0001
0100
1000
,
1001
1001
0010
0001
,
0110
1000
0010
0100
,
0020
0130
0200
0310
,
0000
1000
0000
0001
0000
1000
0000
0000
,
0010
0010
1100
0101
,
1000
0000
0010
0000
1000
0000
0000
0100
,
0000
0010
0000
0001
0000
0000
0101
0000
,
0001
0000
0010
0000
1000
0000
0000
0100
,
0000
0010
0000
0100
0000
0000
1100
0000
,
0010
0000
1000
0000
0001
0000
0000
0100
,
0000
0010
0000
0100
0000
0000
0110
0000
,
0001
0000
0010
0000
1000
0000
0000
0010
,
0000
1000
0000
0100
0000
0000
1001
0000
,
0001
0001
1000
0001
,
1001
0000
0000
0000
;

//---------------dance-single - ----------------
#NOTES:
     dance-single:
     :
     Medium:
     10:
     :
0000
0000
0000
0000
,
0000
0000
0000
0000
,
0000
0000
0000
0000
,
0000
0000
0000
0000
,
0010
0000
0010
0000
0001
1000
0000
0001
,
0000
0010
0000
0001
1000
0000
0100
0000
,
1000
0000
1000
0000
0010
0100
0000
0001
,
0000
0010
0000
0001
0000
1000
0010
0000
,
0100
0000
0100
0000
0001
0010
0000
0001
,
0000
0100
0000
0010
1000
0000
0001
0000
,
0010
0000
0010
0000
0001
0100
0000
0010
,
0000
1000
0000
0010
0000
1000
0100
0000
,
0010
0000
0010
0000
0001
0100
0000
0010
,
0000
1000
0000
0100
1000
0000
0001
0000
,
0010
0000
0001
0000
0100
0010
0000
1000
,
0000
0100
0000
0010
0000
0001
0100
0000
,
0010
0000
1000
0000
0100
0010
0000
0001
,
0000
0100
0000
0010
1000
0000
0001
0000
,
0010
0000
0001
0000
0100
0010
0000
1000
,
0001
0010
0001
0000
1000
0100
1000
0000
,
1001
0000
1001
0000
0010
0100
0000
0101
,
0000
1100
0000
0101
0000
0001
1000
0010
,
0100
0000
0100
0000
0001
0010
0000
0011
,
0000
1100
0000
0011
0000
0100
0010
1000
,
0001
0000
0011
0000
1000
0001
0000
1010
,
0000
0101
0000
1010
0000
0100
1000
0001
,
0010
0000
0110
0000
0010
0001
0000
1001
,
0000
1010
0000
1100
0000
1000
0001
0100
,
0010
1000
0001
0000
0010
0100
1000
0000
,
0001
0100
0001
0000
0010
0100
1000
0000
,
0001
0010
0001
0000
1000
0001
0010
0000
,
0100
0010
0001
0000
1000
0001
0100
0000
,
0010
1000
0100
0000
0010
0001
0100
0000
,
0001
1000
0001
0000
0010
0100
1000
0000
,
0100
0000
0010
0000
0001
0100
0001
0000
,
0010
0100
1000
0000
0001
1000
0010
0000
,
1000
0000
1000
0000
0001
1000
0000
0010
,
0000
0100
0000
0010
0000
0100
0001
0010
,
0001
0000
0001
0000
1000
0100
0000
1000
,
0000
0010
0000
0100
0000
0010
1000
0001
,
1000
0000
1100
0000
0001
0100
0000
0110
,
0000
1001
0000
0110
0000
0010
0100
0001
,
0010
0000
0011
0000
0001
1000
0000
1100
,
0000
0101
0000
1100
0000
0010
0100
0001
,
1000
0000
1010
0000
1000
0100
0000
0011
,
0000
0110
0000
1100
0000
0001
0100
0010
,
1000
0000
1001
0000
0010
1000
0000
0110
,
0000
0011
0000
1010
0000
0001
1000
0100
,
0010
0000
0110
0000
0001
0100
1000
0000
,
1010
0000
0101
0000
1000
0001
0100
0000
,
0001
0011
1000
1010
,
0010
0100
0010
0000
1000
0001
0100
0000
,
0011
0000
1100
0000
0010
1000
0001
0000
,
0110
0000
0001
0000
1000
0100
1000
0000
,
0010
1100
0010
0101
,
0000
1000
0000
0001
0000
0010
0000
0001
,
0100
0010
0100
0010
1000
0000
0101
0000
,
1001
0000
1001
0000
0010
1000
0000
0110
,
0000
0011
0000
1100
0000
0010
0100
0010
,
1000
0000
1010
0000
1000
0001
0000
0011
,
0000
1100
0000
0101
0000
0010
0100
0010
,
1000
0000
0110
0000
0010
1000
0000
1001
,
0000
0101
0000
0011
0000
0100
0001
0010
,
0100
0000
1100
0000
0010
1000
0000
0101
,
0000
0110
0000
1010
0000
1000
0100
0010
,
0001
1000
0001
0000
0010
0100
1000
0000
,
1001
0000
0000
0000
;

//---------------dance-single - ----------------
#NOTES:
     dance-single:
     :
     Hard:
     12:
     :
0000
0000
0000
0000
,
0000
0000
0000
0000
,
0000
0000
0000
0000
,
0000
0000
0000
0000
,
0010
0000
0010
0000
1000
0001
1000
0001
,
0000
0100
0000
0010
1000
0001
1000
0100
,
0010
0000
0010
0000
0001
0100
0001
1000
,
0000
1000
0000
1000
0000
0100
0010
0001
,
0100
0010
1000
0010
0100
0001
1000
0000
,
0100
0010
0001
0100
0010
1000
0001
0000
,
0100
0000
0100
0000
0001
0010
0100
1000
,
0000
0001
0000
1000
0000
0001
0100
0010
,
1000
0100
1000
0001
0010
0100
1000
0000
,
0010
1000
0001
0010
0001
0100
1000
0000
,
0010
0100
0010
1000
0001
0100
0010
1000
,
0000
0100
0000
0010
0000
0100
0010
0001
,
0100
0001
0010
0001
0100
0010
1000
0000
,
0100
1000
0010
1000
0001
0010
0100
0000
,
1000
0010
0100
0010
1000
0100
0010
0001
,
1000
1000
0001
0001
0100
0010
1000
0001
,
0101
0000
1100
0000
0001
0001
0010
0100
,
1000
0010
0100
0010
1000
0100
0001
0100
,
1100
0000
0011
0000
0100
0001
1000
0010
,
0001
0010
0100
0010
0001
0010
1000
0100
,
0110
0000
1001
0000
0010
0010
1000
0001
,
0100
1000
0100
0010
0100
1000
0100
0001
,
0011
0000
1010
0000
0001
0001
0010
0001
,
0100
1000
0100
0010
1000
0100
0001
0100
,
0010
0001
1000
0010
1000
0100
0001
0000
,
0010
0001
0100
0010
1000
0100
0001
0000
,
0010
0001
0010
0001
0010
0000
0100
0000
1000
0000
0001
0000
0100
0000
0000
0000
,
0010
1000
0010
1000
0010
0000
0100
0000
0001
0000
0010
0000
1000
0000
0000
0000
,
0100
0100
1000
1000
0001
0100
0001
0010
,
0001
0000
0010
0000
0001
0000
0100
0000
0010
0000
0010
0000
1000
0001
1000
0000
,
0100
0000
0000
0000
0010
0000
0000
0000
0001
0000
0100
0000
0010
0000
1000
0100
,
1000
0010
1000
0001
0010
0100
1000
0001
,
0010
0000
0010
0000
0001
0001
0000
2000
,
0000
3002
0000
0203
0000
0301
1000
0010
,
0100
0000
0100
0000
0010
0010
0000
2000
,
0000
3200
0000
0320
0000
0031
1000
0010
,
0110
0000
1001
0000
0100
0100
1000
0001
,
0010
1000
0010
0100
0010
0001
0100
0010
,
1010
0000
0101
0000
1000
1000
0100
0010
,
0001
0010
1000
0010
0100
0010
0001
0100
,
0101
0000
1100
0000
0001
0001
1000
0010
,
1000
0100
0010
1000
0010
0100
0010
0001
,
0011
0000
1100
0000
0010
0100
0010
1000
,
0100
0001
0100
0010
1000
0010
0001
0100
,
0110
0000
0000
0000
1001
0000
0000
0000
1000
0100
1000
0000
0001
0000
0000
0100
,
0010
0000
0000
0000
1001
0000
0000
0000
1000
0010
1000
0000
0001
0000
0000
0000
,
1000
0100
0010
0001
0000
0000
1000
0100
0010
0001
0000
0000
,
0100
0010
0100
0010
1000
0001
1000
0100
,
1100
0000
0000
0000
0011
0000
0000
0000
1000
0001
1000
0000
0010
0000
0000
0000
,
0110
0000
0100
0000
0010
0000
1000
0000
0100
0000
0010
0000
0001
1000
0001
0000
,
1000
0100
0010
0001
0000
0000
1000
0100
0010
0001
0000
0000
,
0100
0010
1000
0010
1000
0100
0010
0001
,
0100
0000
0001
0000
1000
0000
0001
0000
0100
0000
0010
1000
0000
0010
1000
0000
,
1010
0000
0011
0000
1000
1000
0010
0100
,
0010
1000
0100
0010
0001
0100
0001
1000
,
1001
0000
0101
0000
0010
0010
1000
0100
,
0001
0100
0010
0100
0001
0100
1000
0001
,
0011
0000
0110
0000
0010
0010
0001
0100
,
0001
0010
0100
1000
0010
1000
0100
0010
,
0110
0000
1001
0000
1000
1000
0001
0100
,
0010
0001
0010
1000
0100
0001
0100
0010
,
0001
1000
0001
0100
0010
1000
0001
0100
,
1001
0000
0000
0000
;
