#TITLE:LA BAMBA;
#SUBTITLE:;
#ARTIST:メキシコ民謡;
#TITLETRANSLIT:;
#SUBTITLETRANSLIT:;
#ARTISTTRANSLIT:MEXICAN FOLK SONG;
#GENRE:;
#CREDIT:;
#BANNER:LA BAMBA.png;
#BACKGROUND:LA BAMBA-bg.png;
#LYRICSPATH:;
#CDTITLE:;
#MUSIC:LA BAMBA.ogg;
#OFFSET:0.000000;
#SAMPLESTART:9.555000;
#SAMPLELENGTH:20.000000;
#SELECTABLE:YES;
#DISPLAYBPM:179.000000;
#BPMS:0.000000=179.104004
,4.000000=179.009995
;
#STOPS:
;
#BGCHANGES:0.000=LA BAMBA.avi=1.000=0=0=0=StretchNoLoop====,
99999=-nosongbg-=1.000=0=0=0 // don't automatically add -songbackground-
;
#KEYSOUNDS:;
#ATTACKS:;

//---------------dance-single - ----------------
#NOTES:
     dance-single:
     :
     Beginner:
     3:
     0.162127,0.210765,0.064851,0.000000,0.000000,105.000000,99.000000,6.000000,0.000000,0.000000,0.000000,0.162127,0.210765,0.064851,0.000000,0.000000,105.000000,99.000000,6.000000,0.000000,0.000000,0.000000:
0000
0000
0000
0000
,
0000
0000
0000
0000
,
0000
0000
0000
0000
,
0010
0000
0000
0000
,
0100
0000
0000
0000
,
0010
0000
0000
0000
,
1001
0000
0000
0000
,
0100
0000
0000
0000
,
0010
0000
0000
0000
,
0001
0000
0000
0000
,
0100
0000
0000
0000
,
1000
0000
0000
0000
,
0001
0000
0000
0000
,
0010
0000
0000
0000
,
1000
0000
0000
0000
,
0100
0000
0000
0000
,
0010
0000
0010
0000
,
1000
0000
1000
0000
,
0100
0000
0100
0000
,
0001
0000
0001
0000
,
0010
0000
0000
0000
,
1001
0000
0000
0000
,
1000
0000
1000
0000
,
0001
0000
0001
0000
,
0010
0000
0010
0000
,
0100
0000
0100
0000
,
1000
0000
0001
0000
,
0100
0000
0100
0000
,
0001
0000
1000
0000
,
0010
0000
0000
0000
,
0000
1000
0000
1000
,
0000
0001
0000
0001
,
0000
0010
0000
0100
,
0000
0010
0000
0100
,
0000
0001
0000
1000
,
0000
0001
0000
1000
,
0000
0010
0000
0010
,
0000
0000
0000
0000
,
0001
0000
0010
0000
,
0001
0000
0010
0000
,
1000
0000
0010
0000
,
1000
0000
0010
0000
,
0001
0001
0000
0000
,
1000
1000
0000
0000
,
0100
0000
0010
0000
,
1001
0000
0000
0000
,
0110
0000
0000
0000
,
0001
0000
0001
0000
,
0100
0000
0001
0000
,
1000
0000
1000
0000
,
0100
0000
1000
0000
,
0010
0000
0100
0000
,
0001
0000
0001
0000
,
0010
0000
0100
0000
,
1000
0000
1000
0000
,
0010
0000
0010
0000
,
1000
0000
0001
0000
,
0010
0000
0010
0000
,
0001
0000
1000
0000
,
0100
0000
0000
0000
,
0001
0000
0000
0000
,
0100
0000
0000
0000
,
1000
0000
0000
0000
,
1001
0000
0000
0000
,
0110
0000
0000
0000
,
1000
0000
0000
0000
,
0000
0000
0000
0000
;

//---------------dance-single - ----------------
#NOTES:
     dance-single:
     :
     Easy:
     4:
     0.196097,0.248257,0.086468,0.129702,0.000000,127.000000,119.000000,8.000000,12.000000,0.000000,0.000000,0.196097,0.248257,0.086468,0.129702,0.000000,127.000000,119.000000,8.000000,12.000000,0.000000,0.000000:
0000
0000
0000
0000
,
0000
0000
0000
0000
,
0000
0000
0000
0000
,
0010
0000
0000
0000
,
0100
0000
0000
0000
,
0010
0000
0000
0000
,
1001
0000
0000
0000
,
0100
0000
0000
0000
,
0010
0000
0010
0000
,
0001
0000
0001
0000
,
0100
0000
0100
0000
,
1000
0000
1000
0000
,
0001
0000
0001
0000
,
0010
0000
0010
0000
,
1000
0000
1000
0000
,
0100
0000
0100
0000
,
0001
0000
1000
0000
,
0100
0000
0100
0000
,
1000
0000
0001
0000
,
0100
0000
0100
0000
,
0010
0000
0010
0000
,
1001
0000
0000
0000
,
1000
0000
1000
0000
,
0000
0010
0000
0010
,
0001
0000
0001
0000
,
0000
0100
0000
0100
,
1000
0000
0001
0000
,
0000
0100
0000
0100
,
0002
0000
0003
0000
,
0110
0000
0000
0000
,
0000
1000
0000
1000
,
0000
0001
0000
0001
,
0000
0010
0000
0100
,
0000
0010
0000
0100
,
0000
0001
0000
1000
,
0000
0001
0000
1000
,
0000
0010
0000
0010
,
0200
0000
0000
0300
,
0001
0001
0001
0000
,
0010
0000
0010
0000
,
1000
1000
1000
0000
,
0010
0000
0010
0000
,
0001
0001
0001
0000
,
1000
1000
1000
0000
,
0100
0000
0010
0000
,
2002
0000
3003
0000
,
0220
0000
0330
0000
,
0000
0001
0100
0000
,
0000
0010
0000
0010
,
0000
1000
0010
0000
,
0000
0100
0000
0100
,
0000
0001
0010
0000
,
0000
0100
0000
0100
,
0000
0000
1000
0000
0100
0000
0000
0020
,
0000
0000
0030
0000
,
0010
0001
0010
0000
,
0000
1000
0000
1000
,
0010
1000
0010
0000
,
0000
0001
0000
0001
,
0100
1000
0001
0000
,
0000
0010
0000
0010
,
0100
0000
0001
0000
1000
0000
0000
0020
,
0000
0000
0030
0000
,
2002
0000
3003
0000
,
0220
0000
0330
0000
,
1000
0000
0000
0000
0000
1001
0000
0000
,
0000
0000
0000
0000
;

//---------------dance-single - ----------------
#NOTES:
     dance-single:
     :
     Medium:
     8:
     0.342783,0.356004,0.140510,0.194553,0.000000,222.000000,209.000000,13.000000,18.000000,0.000000,0.000000,0.342783,0.356004,0.140510,0.194553,0.000000,222.000000,209.000000,13.000000,18.000000,0.000000,0.000000:
0000
0000
0000
0000
,
0000
0000
0000
0000
,
0000
0000
0000
0000
,
0010
0100
0010
0100
,
0001
1000
0001
1000
,
0010
0000
0100
0000
0010
0000
0000
0200
,
0000
0000
0300
0000
,
0000
0100
0100
0100
,
0010
0100
0001
0100
,
0010
1000
0001
0100
,
0010
0100
1000
0100
,
0010
0001
1000
1000
,
0010
0001
0100
0001
,
1000
1000
0001
0001
,
0010
1000
0100
1000
,
0001
0001
1000
1000
,
0100
0010
1000
0010
,
0001
0010
1000
0010
,
0100
0001
0100
1000
,
0100
0001
0010
0010
,
2000
0000
0002
3003
,
0100
0010
0100
1001
,
2000
0000
0000
0000
3002
0000
0003
0100
,
0000
0100
0000
0000
0010
0000
0100
0000
,
0002
0000
0000
0000
2003
0000
3000
0010
,
0000
0010
0000
0000
0100
0000
1000
0000
,
0020
0000
0000
0000
0230
0000
0300
0001
,
0000
0001
0000
0000
1001
0000
0000
0000
,
0000
0000
0010
0000
0000
0010
0000
0000
,
1000
0001
1000
0001
0000
0000
0000
0000
,
0100
0010
0100
0001
,
1000
0010
1000
0001
,
0100
0010
0100
1000
,
0001
0010
0001
1000
,
0001
0001
0101
0000
,
1000
1000
1100
0000
,
0010
0000
0110
0000
,
1000
1000
0001
0100
,
0010
1000
0100
1000
,
0001
0010
0100
0100
,
0010
0001
0100
0001
,
1000
0100
0001
0001
,
0010
1000
0001
1000
,
0100
0010
1001
0000
,
0000
0000
1000
0000
0000
1000
0000
0000
,
0001
0100
0001
0100
0000
0000
0000
0000
,
1000
0100
1000
0100
0000
0000
0000
0000
,
0001
0000
1000
0000
0020
0000
0000
0130
,
0000
0100
0000
0000
0100
0000
0001
0000
,
1000
0000
0001
0000
0020
0000
0000
0130
,
0000
0100
0000
0000
0100
0000
1000
0000
,
0010
0000
0100
0000
0002
0000
0000
1003
,
0000
1000
0000
0000
0010
0000
0010
0000
,
0100
0000
1000
0000
0001
0000
0000
0220
,
0000
0000
0000
0000
0000
0330
0000
0000
,
0100
0000
0001
0000
0101
0000
0000
1000
,
0000
1000
0000
0000
0100
0000
0001
0000
,
0100
0000
1000
0000
1100
0000
0000
0001
,
0000
0001
0000
0000
0100
0000
1000
0000
,
0010
0000
0100
0000
0110
0000
0000
1000
,
0000
0001
0000
0000
0100
0000
0001
0000
,
0010
0000
0100
0000
0110
0000
0000
2002
,
0000
0000
0000
0000
0000
3003
0000
0000
,
0020
0000
0000
0000
,
0200
0000
0000
0330
,
1001
0000
0000
0000
0000
0010
1000
0001
,
0000
0000
0000
0000
;

//---------------dance-single - ----------------
#NOTES:
     dance-single:
     :
     Hard:
     11:
     0.514175,0.534006,0.302637,0.118893,0.000000,333.000000,305.000000,28.000000,11.000000,0.000000,0.000000,0.514175,0.534006,0.302637,0.118893,0.000000,333.000000,305.000000,28.000000,11.000000,0.000000,0.000000:
0000
0000
0000
0000
,
0000
0000
0000
0000
,
0000
0000
0000
0000
,
0010
0000
0100
0000
0010
0000
0000
1000
,
0000
1000
0000
0000
0001
0000
0001
0000
,
0010
0000
1000
0000
0001
0000
1000
0002
,
0000
0100
0100
0103
,
0000
0010
0100
0010
0100
0000
0010
0000
,
1000
0000
0001
0100
0001
0000
1100
0000
,
0010
0000
0001
1000
0100
0000
1100
0000
,
0010
0000
0100
0001
1000
0000
1001
0000
,
0010
0000
1000
0001
0100
0001
1000
0001
,
0010
0000
0100
1000
0010
0000
0101
0000
,
0010
0000
0100
1000
0001
0000
0101
0000
,
0010
0000
0100
0001
0010
0000
1100
0000
,
0001
1000
0001
1000
0010
0100
0010
0100
,
0001
0000
1000
0000
0010
0100
0010
1000
,
0000
0100
0001
0001
,
1000
0000
0001
0000
0010
0100
0010
0001
,
0000
0100
1000
1000
,
0010
0000
0100
0000
0001
1000
0001
0100
,
0010
1000
0010
1000
0001
0100
0001
0000
,
2000
0000
0010
0000
3001
0000
1000
0100
,
0000
0100
0000
0000
0100
0010
0100
0010
,
0002
0000
0010
0000
1003
0000
0001
0100
,
0000
0100
0000
0000
0100
0010
0100
0010
,
2000
0000
0001
0000
3010
0000
1000
0001
,
0000
0101
0000
0000
1001
0000
0000
0000
,
1000
0000
0001
0000
1000
0001
0000
0000
,
0100
0010
1000
0010
1000
0000
0001
2000
,
0000
3100
0010
0001
,
1000
0010
0100
0010
0100
0000
0001
0200
,
0000
0000
0310
0000
1000
0010
0100
0001
,
0000
0000
1000
0010
1000
0001
0100
0010
,
1000
2200
0000
3000
,
0000
1000
0000
1000
0000
0310
0000
0000
,
0001
0101
1000
1100
,
0010
0100
0010
0100
0001
1000
0001
1000
,
0010
0000
1000
0000
0010
0100
0010
1000
,
0000
1100
0000
0000
1000
0100
1000
0100
,
0010
0000
0001
0000
0010
0100
0010
0001
,
0000
0101
0000
0000
0001
0100
0010
0100
,
0001
0000
1000
0000
0010
1000
0100
1000
,
0000
1001
0000
0000
0110
0000
0000
0000
,
0010
0000
1000
0000
0010
1000
0000
0000
,
0001
1000
0001
0100
0000
0000
1001
0000
,
1000
0001
1000
0100
0000
0000
1001
0000
,
0010
0000
0100
0001
0010
0000
0100
1000
,
0000
1100
0000
0000
0001
0100
0001
0000
,
0010
0000
0100
1000
0010
0000
0100
0001
,
0000
0101
0000
0000
1000
0100
1000
0000
,
0001
0000
1000
0010
0100
0000
1000
0001
,
0000
1001
0000
0000
0010
0100
0010
0000
,
0100
0000
0001
0100
0010
0000
1000
0200
,
0000
0000
0010
0000
0010
0300
0010
0000
,
0100
0000
0001
0010
0100
0000
1000
1100
,
0000
0101
0000
0000
0010
1000
0010
0000
,
0100
0000
1000
0010
0100
0000
0001
0101
,
0000
1100
0000
0000
0010
0001
0010
0000
,
1000
0000
0001
1000
0100
0000
0010
0110
,
0000
0110
0000
0000
0001
1000
0001
0000
,
0010
0000
1000
0100
0010
0000
0001
1000
,
0010
0100
0001
1000
0010
0100
0001
1000
,
0020
0000
0000
0000
,
0200
0000
0000
0330
,
1001
0000
0000
0000
0000
0010
1000
1001
,
0000
0000
0000
0000
;

//---------------dance-double - ----------------
#NOTES:
     dance-double:
     :
     Easy:
     4:
     0.196097,0.212792,0.097276,0.064851,0.000000,127.000000,118.000000,9.000000,6.000000,0.000000,0.000000,0.196097,0.212792,0.097276,0.064851,0.000000,127.000000,118.000000,9.000000,6.000000,0.000000,0.000000:
00000000
00000000
00000000
00000000
,
00000000
00000000
00000000
00000000
,
00000000
00000000
00000000
00000000
,
00100000
00000000
10000000
00000000
,
00100000
00000000
00010000
00000000
,
00100000
00000000
00001000
00000000
,
00011000
00000000
00000000
00000000
,
00000010
00000000
00000000
00000000
,
00000100
00000000
00000100
00000000
,
00001000
00000000
00001000
00000000
,
00000010
00000000
00000010
00000000
,
00010000
00000000
00001000
00000000
,
00100000
00000000
00100000
00000000
,
00010000
00000000
00010000
00000000
,
01000000
00000000
01000000
00000000
,
10000000
00000000
00010000
00000000
,
01000000
00000000
00001000
00000000
,
00010000
00000000
00000100
00000000
,
00000010
00000000
00000001
00000000
,
00001000
00000000
00000100
00000000
,
00010000
00000000
00001000
00000000
,
00011000
00000000
00000000
00000000
,
00100000
00000000
01000000
00000000
,
00000000
01100000
00000000
00000000
,
10000000
00000000
00010000
00000000
,
00000000
10010000
00000000
00000000
,
01000000
00000000
00001000
00000000
,
00000000
00011000
00000000
00000000
,
00000200
00000000
00000300
00000000
,
00000110
00000000
00000000
00000000
,
00000000
00000010
00000000
00000001
,
00000000
00001000
00000000
00000100
,
00000000
00000100
00000000
00010000
,
00000000
00001000
00000000
01000000
,
00000000
00010000
00000000
10000000
,
00000000
10000000
00000000
00100000
,
00000000
00100000
00000000
00001000
,
00020000
00000000
00000000
00030000
,
00000010
00000010
00001000
00000000
,
00001000
00000000
00000001
00000000
,
00000001
00000001
00000100
00000000
,
00000010
00000000
00010000
00000000
,
00001000
00001000
00001000
00000000
,
01000000
00000000
00010000
00000000
,
10000000
00000000
10000000
00000000
,
01100000
00000000
00000000
00000000
,
00011000
00000000
00000000
00000000
,
00000000
00000010
00000100
00000000
,
00000000
00000001
00000000
00001000
,
00000000
00000010
00000100
00000000
,
00000000
00010000
00000000
00001000
,
00000000
00100000
01000000
00000000
,
00000000
10000000
00000000
00010000
,
00000000
00000000
00100000
00000000
01000000
00000000
00000000
00002000
,
00000000
00000000
00000000
00000000
00000000
00003000
00000000
00000000
,
00100000
00001000
00010000
00000000
,
00000000
00000100
00000000
00000100
,
00000010
00000001
00000100
00000000
,
00000000
00001000
00000000
00001000
,
00000100
00010000
00001000
00000000
,
00000000
00100000
00000000
00100000
,
00010000
00000000
10000000
00000000
00100000
00000000
00000000
02000000
,
00000000
00000000
03000000
00000000
,
00002000
00000000
00003000
00000000
,
00020000
00000000
00030000
00000000
,
00001000
00000000
00000000
00000000
00000000
00011000
00000000
00000000
,
00000000
00000000
00000000
00000000
;

//---------------dance-double - ----------------
#NOTES:
     dance-double:
     :
     Medium:
     8:
     0.347415,0.356004,0.151319,0.172936,0.000000,225.000000,211.000000,14.000000,16.000000,0.000000,0.000000,0.347415,0.356004,0.151319,0.172936,0.000000,225.000000,211.000000,14.000000,16.000000,0.000000,0.000000:
00000000
00000000
00000000
00000000
,
00000000
00000000
00000000
00000000
,
00000000
00000000
00000000
00000000
,
00010000
00010000
00001000
00001000
,
00100000
00010000
10000000
01000000
,
00010000
00000000
00001000
00000000
00010000
00000000
00000000
00002000
,
00000000
00000000
00003000
00000000
,
00000000
00000100
00000100
00000100
,
00000010
00000001
00001000
00000010
,
00000100
00000001
00000100
00001000
,
00010000
01000000
10000000
01000000
,
00100000
00010000
10000000
00100000
,
10000000
01000000
00010000
00001000
,
00000100
00000001
00000100
00000010
,
00000100
00001000
00010000
00100000
,
10000000
10000000
00010000
00010000
,
01000000
00100000
10000000
00100000
,
00010000
00100000
01000000
01000000
,
00010000
00001000
00000010
00000001
,
00001000
00000001
00000100
00000100
,
00001000
00001000
00010000
00010000
,
01000000
00100000
01000000
11000000
,
00020000
00000000
00000000
00000000
20030000
00000000
30000000
01000000
,
00000000
01000000
00000000
00000000
00010000
00000000
00001000
00000000
,
00020000
00000000
00000000
00000000
00032000
00000000
00003000
00010000
,
00000000
00010000
00000000
00000000
00000100
00000000
00000010
00000000
,
00000002
00000000
00000000
00000000
00000203
00000000
00000300
00000010
,
00000000
00000010
00000000
00000000
00001100
00000000
00000000
00000000
,
00000000
00000000
00011000
00000000
00000000
00100000
00000000
00000000
,
00010000
10000000
00010000
10000000
00000000
00000000
00000000
00000000
,
01000000
00010000
01000000
00010000
,
10000000
00100000
00010000
00001000
,
00000010
00000001
00000010
00000001
,
00000100
00000010
00000100
00001000
,
00010000
00010000
01010000
00000000
,
01000000
01000000
11000000
00000000
,
00100000
00000000
10010000
00000000
,
10000000
00010000
00001000
00000001
,
00000010
00000100
00001000
00000100
,
00000010
00000001
00000100
00000100
,
00001000
00010000
01000000
10000000
,
00100000
10000000
01000000
01000000
,
00010000
00001000
00010000
00100000
,
00010000
00001000
00011000
00000000
,
00000000
00000000
00000010
00000000
00000000
00000100
00000000
00000000
,
00000010
00000100
00000010
00000100
00000000
00000000
00000000
00000000
,
00001000
00010000
00001000
00010000
00000000
00000000
00000000
00000000
,
00010000
00000000
10000000
00000000
00200000
00000000
00000000
01300000
,
00000000
01000000
00000000
00000000
00001000
00000000
00010000
00000000
,
00000010
00000000
00000100
00000000
00000002
00000000
00000000
00001003
,
00000000
00001000
00000000
00000000
00000100
00000000
00010000
00000000
,
00001000
00000000
00100000
00000000
02000000
00000000
00000000
13000000
,
00000000
10000000
00000000
00000000
00100000
00000000
10000000
00000000
,
00010000
00000000
01000000
00000000
00100000
00000000
00000000
00022000
,
00000000
00000000
00000000
00000000
00000000
00033000
00000000
00000000
,
00000010
00000000
00001000
00000000
00001100
00000000
00000000
00000001
,
00000000
00000001
00000000
00000000
00000100
00000000
00000100
00000000
,
00000010
00000000
00010000
00000000
00011000
00000000
00000000
00100000
,
00000000
00100000
00000000
00000000
00010000
00000000
01000000
00000000
,
10000000
00000000
01000000
00000000
10100000
00000000
00000000
01000000
,
00000000
01000000
00000000
00000000
00100000
00000000
00100000
00000000
,
10000000
00000000
00100000
00000000
01010000
00000000
00000000
00022000
,
00000000
00000000
00000000
00000000
00000000
00033000
00000000
00000000
,
00000020
00000000
00000000
00000000
,
00002000
00000000
00000000
00003030
,
00000101
00000000
00000000
00000000
00000000
00000010
00001000
00000100
,
00000000
00000000
00000000
00000000
;

//---------------dance-double - ----------------
#NOTES:
     dance-double:
     :
     Hard:
     10:
     0.484837,0.534006,0.345871,0.216169,0.000000,314.000000,282.000000,32.000000,20.000000,0.000000,0.000000,0.484837,0.534006,0.345871,0.216169,0.000000,314.000000,282.000000,32.000000,20.000000,0.000000,0.000000:
00000000
00000000
00000000
00000000
,
00000000
00000000
00000000
00000000
,
00000000
00000000
00000000
00000000
,
00100000
00000000
10000000
00000000
01000000
00000000
00000000
00100000
,
00000000
00100000
00000000
00000000
01000000
00000000
01000000
00000000
,
00010000
00000000
00001000
00000000
00010000
00000000
00000010
00000200
,
00000000
00000000
00000000
00000300
,
00000000
00000001
00000100
00000001
00000100
00000000
00000010
00000000
,
00001000
00000000
00000010
00001000
00000100
00000000
00000001
00000000
,
00000100
00000000
00001000
00010000
01000000
00000000
10000000
00000000
,
00100000
00000000
01000000
00010000
10000000
00000000
01000000
00000000
,
00010000
00000000
00001000
00000010
00000001
00000100
00000001
00001000
,
00000010
00000000
00000100
00000001
00000100
00000000
00001000
00000000
,
00010000
00000000
01000000
00100000
00010000
00000000
10000000
00000000
,
00100000
00000000
01000000
00010000
01000000
00000000
00010000
00000000
,
00010000
01000000
00010000
01000000
00001000
00010000
00001000
00010000
,
00000010
00000000
00001000
00000000
00000010
00000100
00000010
00001000
,
00000000
00000001
00000100
00000100
,
00001000
00000000
00010000
00000000
00000010
00010000
00001000
00010000
,
00000000
01000000
10000000
10000000
,
00100000
01100000
00010000
00011000
,
00000010
00001000
00000010
00001000
00000001
00000100
00000001
00000000
,
00000022
00000000
00000033
00000000
00002200
00000000
00003300
00010000
,
00000000
00010000
00000000
00000000
00001000
00010000
00001000
00000000
,
00022000
00000000
00033000
00000000
02020000
00000000
03030000
10000000
,
00000000
10000000
00000000
00000000
00100000
01000000
00100000
00000000
,
02200000
00000000
03300000
00000000
20020000
00000000
30030000
01000000
,
00000000
01000000
00000000
00000000
00011000
00000000
00000000
00000000
,
00000010
00000000
00001000
00000000
00000010
00001000
00000000
00000000
,
00000001
00000100
00000001
00000100
00000000
00000000
00000110
00000000
,
00000100
00000000
00001000
00000000
00010000
00100000
00010000
00001000
,
00000000
00100000
01000000
01100000
,
01000000
00000000
00010000
00000000
00001000
00000010
00001000
00010000
,
00000000
00000000
00000010
00000000
00000100
00000001
00000100
00000000
,
00001000
00000000
00000100
00000000
00010000
00001000
00010000
00100000
,
00000000
10000000
00010000
01100000
,
10000000
00000000
00010000
00000000
00000000
01010000
00000000
00000000
,
00001000
00010000
00001000
00010000
00000010
00001000
00000010
00001000
,
00000001
00000100
00001000
00000100
,
00001100
00011000
01010000
11000000
,
10000000
01000000
00010000
01000000
,
01010000
00011000
00001100
00000101
,
00000010
00000001
00000100
00001000
,
00010000
00100000
01010000
00000000
,
10000000
00000000
01000000
00000000
10000000
01000000
00000000
00000000
,
00100000
01000000
00100000
01000000
00000000
00000000
00110000
00000000
,
00001000
00010000
00001000
00010000
00000000
00000000
00011000
00000000
,
00000020
00000000
00001000
00000000
00000130
00000000
00000001
00000100
,
00000000
00000100
00000000
00000000
00000010
00001000
00000010
00001000
,
00000200
00000000
00001000
00000000
00010300
00000000
00001000
00100000
,
00000000
00100000
00000000
00000000
00010000
10000000
00010000
10000000
,
02000000
00000000
00100000
00000000
13000000
00000000
00010000
01000000
,
00000000
01000000
00000000
00000000
00001000
00010000
00001000
00010000
,
00000200
00000000
00010000
00000000
00001300
00000000
00000001
00002000
,
00000000
00000000
00000100
00000000
00000100
00003000
00000100
00000000
,
00001000
00000000
00000001
00000100
00000010
00000000
00001000
00001100
,
00000000
00011000
00000000
00000000
00100000
00010000
00100000
00000000
,
00010000
00000000
10000000
01000000
00100000
00000000
00010000
01010000
,
00000000
00011000
00000000
00000000
00000010
00001000
00000010
00000000
,
00001000
00000000
00000001
00000100
00000010
00000000
00000100
00000101
,
00000000
00001100
00000000
00000000
00010000
00001000
00010000
00000000
,
00100000
00000000
00010000
10000000
01000000
00000000
10000000
00000000
,
00100000
01000000
00010000
00100000
00001000
00010000
00000100
00001000
,
00000020
00000000
00000000
00000000
,
00002000
00000000
00000000
00003030
,
00001100
00000000
00000000
00000000
00000000
00010000
00001000
00011000
,
00000000
00000000
00000000
00000000
;

//---------------dance-single - ----------------
#NOTES:
     dance-single:
     :
     Challenge:
     14:
     0.867766,0.961211,0.605275,0.432339,0.432339,562.000000,506.000000,56.000000,40.000000,0.000000,0.000000,0.867766,0.961211,0.605275,0.432339,0.432339,562.000000,506.000000,56.000000,40.000000,0.000000,0.000000:
// measure 0
0000
0000
0000
0000
,  // measure 1
0000
0000
0000
0000
,  // measure 2
0000
0000
0000
0000
0000
0000
0000
0000
0000
0000
0000
0000
0000
0000
0001
1000
,  // measure 3
0001
0000
0001
0100
0010
1000
0100
0020
,  // measure 4
0000
0000
0000
0000
0000
0000
0000
0031
1000
0000
0100
0000
0010
0000
0100
0000
,  // measure 5
1000
0000
1000
0001
0010
0100
0010
0002
,  // measure 6
0000
1000
1003
0001
1000
0010
0100
0001
,  // measure 7
0010
0100
0100
0100
0100
0000
1000
0101
,  // measure 8
0000
0001
1100
0000
0010
0100
0001
2000
,  // measure 9
0000
0001
0001
0001
3001
0100
0010
0102
,  // measure 10
0000
1000
1003
0001
0010
0100
1000
0020
,  // measure 11
0000
0000
0130
0000
0010
0000
1001
0000
0000
1000
0100
0000
0010
0000
0001
0000
,  // measure 12
0200
0010
0310
1000
0001
1000
0100
0010
,  // measure 13
0000
0012
0000
0103
1010
0001
1000
0200
,  // measure 14
0000
1000
1300
0001
0010
0001
0100
0010
,  // measure 15
1000
0001
1000
0001
1000
0000
0010
0100
0010
0100
0010
0100
0010
0000
1000
0000
,  // measure 16
0002
0100
0103
0010
1000
0001
1000
1010
,  // measure 17
0000
0110
0001
0010
0200
1000
1300
1002
,  // measure 18
0000
0000
0103
0010
0100
0000
0000
0000
0100
0000
0001
0000
1000
0000
0001
0000
,  // measure 19
0000
0000
0012
0000
0000
0000
0100
0000
0103
0000
0010
1000
0010
0000
0100
0000
,  // measure 20
0002
0000
1003
0100
1000
0000
0010
0000
0000
0000
1100
0000
0000
0000
0102
0000
,  // measure 21
0000
0000
1003
0010
1000
0000
0001
0000
0100
0010
0100
0010
0100
0000
0001
1000
,  // measure 22
0002
0000
0000
0013
0100
0000
1000
0000
0010
0000
0100
0000
0001
0000
0011
0000
,  // measure 23
0000
2010
0001
0000
3001
0010
0100
1000
,  // measure 24
0020
0100
0130
0001
0010
0100
1000
1010
,  // measure 25
0000
1200
0001
0000
0301
0100
1000
0010
,  // measure 26
2000
0001
3001
0010
0002
0100
0103
0110
,  // measure 27
0000
0102
0010
0000
1003
0001
1000
0100
,  // measure 28
0020
0001
0031
0100
0001
0010
1000
0000
,  // measure 29
1100
1100
1100
1100
0001
0000
0100
0012
,  // measure 30
0000
0103
1010
0000
0100
0010
1000
0001
,  // measure 31
0000
0010
0010
0010
0010
0001
0100
2001
,  // measure 32
0000
3010
0110
0000
0100
0010
1000
0100
,  // measure 33
0000
1000
0001
0010
0001
0100
0010
1000
,  // measure 34
0200
0001
0301
0100
1000
0001
0010
1100
,  // measure 35
0000
0000
0011
0000
0000
0000
0200
0010
0000
0000
0301
0000
1000
0000
0200
0000
,  // measure 36
0000
0310
0110
0000
1001
0100
0010
1000
,  // measure 37
0001
0100
0001
0100
0001
0100
0001
0100
0001
0000
1000
0100
1000
0000
0001
0010
,  // measure 38
0001
0000
0001
1000
0010
1000
0100
0010
,  // measure 39
0000
1020
0031
0100
0010
1000
0001
0100
,  // measure 40
0010
0000
0000
1000
0001
0000
0000
1000
0200
0000
0010
0000
0310
0000
0011
0000
,  // measure 41
0000
0102
1000
0000
0013
0001
1000
0100
,  // measure 42
1000
0000
0110
0000
0001
0010
0001
2000
,  // measure 43
0000
0000
3020
0000
0100
0000
0000
1030
0001
0000
0010
0000
0100
0000
1000
0000
,  // measure 44
0010
0000
0100
0000
0010
0000
0100
0000
0010
0000
0100
0000
0010
0000
0000
1000
0000
0000
0001
0000
0000
0010
0000
0000
,  // measure 45
0011
0000
0011
0000
0011
0000
0011
0000
0000
0001
1000
0001
1000
0001
1000
0001
,  // measure 46
1000
0000
1000
0000
1000
0000
1000
0000
0000
0010
0100
0010
0100
0010
0100
0010
,  // measure 47
0100
0000
0000
0001
1000
0000
0000
1000
0200
0000
0010
0000
0310
0000
1001
0000
,  // measure 48
0000
0000
1010
0000
0001
0000
0100
0000
0010
0000
1000
0100
1000
0100
1000
0100
,  // measure 49
1000
0000
0000
0001
0010
0000
0000
0001
0200
0000
1000
0000
1300
0000
0101
0000
,  // measure 50
0000
0000
0110
0000
0001
0000
1000
0100
1000
0000
0010
0001
0010
0001
0010
0001
,  // measure 51
0010
0000
0001
1000
0001
0000
0100
0000
0020
0000
1000
0000
1030
0000
0101
0000
,  // measure 52
0000
0000
1100
0000
0001
0000
0100
0000
0010
0000
1000
0000
0100
0000
0010
0001
,  // measure 53
0010
0000
0100
0000
1100
0000
0001
0000
1001
0000
0100
0010
0100
0000
0002
0000
,  // measure 54
0000
0000
1000
0000
1000
0000
1003
0000
0010
0000
0100
0001
0100
0001
0100
0001
,  // measure 55
0100
0010
1000
0001
1000
0100
0010
0011
,  // measure 56
0000
0000
1010
0000
0001
1000
0001
1000
0001
0000
0100
0000
0010
0000
1000
0100
,  // measure 57
1000
0001
0010
1000
0010
0100
0010
0110
,  // measure 58
0000
0000
0001
0010
0001
0000
1000
0100
1000
0000
0010
0000
0100
0001
0100
0001
,  // measure 59
0100
0000
0010
1000
0010
0000
1000
0001
1000
0000
0001
0100
0001
0000
0101
0000
,  // measure 60
0000
0000
1001
0000
1001
0000
0100
0000
0010
0000
1000
0001
1000
0001
1000
0001
,  // measure 61
1000
0100
0010
0010
0010
0001
0100
1020
,  // measure 62
0000
0000
1000
0000
1030
0010
1000
0000
0001
0010
0001
0000
0100
0000
0010
0000
,  // measure 63
2000
0000
0000
3010
0100
0000
0010
0100
0000
0010
0100
0000
0010
0100
0010
0100
,  // measure 64
0002
0000
0000
0013
0100
0000
0010
0100
0000
0010
0100
0000
0010
0100
0010
0100
,  // measure 65
2000
0000
3000
0000
0000
1100
0110
0011
;
