#TITLE:Knock on Wood;
#ARTIST:Amii Stewart;
#BANNER:Knock on Wood-bn.png;
#BACKGROUND:Knock on Wood-bg.png;
#JACKET:Knock on Wood-jacket.png;
#MUSIC:Knock on Wood.ogg;
#SAMPLESTART:46;
#SAMPLELENGTH:20;
#DISPLAYBPM:137:142;
#BPMS:0=139,32=140,36=139.23,44=138,52=139.75,60=137.5,64=138.35,72=139.87,80=139.123,84=137,86=141,92=140.2,100=138.89,110=137.4,112=142,116=139.05,120=138,124=139.25,134=141.2,146=140.14,158=137.8,166=139.5,182=137.6,194=138.859,198=141.27,205=139.45,214=137.9,233=138.962;
#STOPS:128=0.9;
#BGCHANGES:;

//---------------dance-single - ----------------
#NOTES:
     dance-single:
     :
     Beginner:
     3:
     :
0000
0000
0000
0000
,
0000
0000
0000
0000
,
0000
0000
0000
0000
,
0000
0000
0000
0000
,
0000
0000
0000
0000
,
1001
0000
0000
0000
,
0010
0000
0000
0000
,
0110
0000
0000
0000
,
0001
0001
0001
0000
,
1001
0000
0000
0000
,
0100
0000
0000
0000
,
0110
0000
0000
0000
,
1000
1000
1000
0000
,
0001
0000
1000
0000
,
0001
0000
1000
0000
,
0010
0010
0000
0000
,
1000
1000
0000
0000
,
0001
0000
0100
0000
,
0001
0000
1000
0000
,
0010
0000
0000
0000
,
0100
0100
0000
0000
,
0001
0000
0010
0000
,
0001
0000
0000
0000
,
0100
0000
0000
0000
,
0001
0001
0000
0000
,
1000
0000
0100
0000
,
0010
0000
0000
0000
,
0001
0000
1001
0000
,
0010
0000
0110
0000
,
0001
0000
0100
0000
,
1000
1000
0000
0000
,
0010
0010
0010
0010
,
0010
0000
1001
0000
,
0000
0000
1000
0000
,
0000
0000
0110
0000
,
0000
0000
0010
0010
,
0010
0000
1001
0000
,
0000
0000
0001
0000
,
0000
0000
0110
0000
,
0000
0000
0100
0100
,
0100
0000
0001
0001
,
0001
0000
1000
0000
,
1001
0000
0010
0010
,
0010
0000
0100
0000
,
0110
0000
0100
0100
,
0100
0000
0001
0000
,
1001
0000
0010
0010
,
0010
0000
0001
0000
,
1001
0000
0100
0100
,
0100
0000
0010
0000
,
0110
0000
1000
1000
,
1000
0000
0100
0000
,
0110
0000
0001
0001
,
0001
0000
0010
0000
,
1001
0000
0010
0010
,
0010
0000
0100
0000
,
0110
0000
0001
0001
,
0001
0000
1000
0000
,
1001
0000
0010
0010
,
0010
0000
0110
0000
,
1001
0000
0110
0000
;

//---------------dance-single - ----------------
#NOTES:
     dance-single:
     :
     Easy:
     7:
     :
0000
0000
0000
0000
,
0000
0000
0000
0000
,
0000
0000
0000
0000
,
0000
0000
0000
0000
,
0000
0000
0000
0000
,
2002
0000
0000
0000
0000
0000
0000
0000
0000
3003
0000
0020
,
0000
0000
0200
0000
0000
0000
0000
0000
0000
0330
0000
0000
,
0220
0000
0000
0000
0000
0000
0000
0000
0000
0330
0000
0001
,
0000
0000
0010
0000
0000
0001
0000
0000
1000
0000
0000
0200
,
0000
0000
0000
0000
0000
0000
0000
0000
0000
0300
0000
2000
,
0000
0000
0002
0000
0000
0000
0000
0000
0000
3003
0000
0000
,
0220
0000
0000
0000
0000
0000
0000
0000
0000
0330
0000
0010
,
0000
0000
1000
0000
0000
0001
0000
0000
1000
0000
0000
0020
,
0000
0100
0000
1000
,
0000
0100
1000
1030
,
0010
1001
0001
0100
,
0010
0010
1000
0001
,
0010
0001
0100
0100
,
0020
0030
1001
0100
,
0110
0001
1000
0010
,
1000
0100
0010
0001
,
0100
0001
0010
0100
,
1000
0010
1000
0001
,
1001
0100
1000
0001
,
0110
0001
0100
0010
,
1000
0100
1000
0001
,
0010
0001
0100
0010
,
1000
0000
0000
0000
0000
2200
0000
0000
0000
3300
0000
0000
,
0001
0000
0000
0000
0000
0202
0000
0000
0000
0303
0000
0000
,
0010
0000
0000
1000
0000
0000
0100
0000
0000
0000
0000
2000
,
0000
0000
0002
0000
0000
0000
3003
0000
0000
1001
0000
0000
,
0002
0023
0230
2300
,
3001
0110
2002
0000
,
0000
0000
0000
3003
0000
0200
0000
0000
0020
0300
0000
0000
,
2000
3030
0001
0220
,
0000
0000
0000
0330
0000
1000
0000
0000
0010
0000
0000
1000
,
0000
0000
0001
0000
0000
0200
0000
0000
0000
0010
0000
0000
,
0000
0000
0000
0300
0000
0002
0000
0000
2000
0003
0000
0000
,
0020
3030
0110
2002
,
0000
0000
0000
3003
0000
1000
0000
0000
0100
0000
0000
1000
,
0000
0000
0001
0000
0000
0100
0000
0000
0000
2002
0000
0000
,
0000
0000
0000
0000
0000
0000
0003
0000
0001
0000
0001
0000
,
3001
0000
0110
0110
,
1000
0000
0000
0001
0000
0000
0000
0000
0100
0000
0100
0000
,
0100
0000
1001
1001
,
0010
0000
0000
0001
0000
0000
0000
0000
1000
0000
1000
0000
,
1000
0000
1100
1100
,
0100
0000
0000
1000
0000
0000
0000
0000
0010
0000
0010
0000
,
0010
0000
0101
0101
,
0001
0000
0000
1000
0000
0000
0000
0000
0100
0000
0100
0000
,
0100
0000
1001
0110
,
1000
0000
0000
0100
0000
0000
0000
0000
1000
0000
1000
0000
,
1000
0000
0110
0000
,
0001
0000
0000
1000
0000
0000
0000
0000
0001
0000
0001
0000
,
0001
0000
0101
0101
,
0100
0000
0000
0010
0000
0000
0000
0000
1000
0000
1000
0000
,
1000
0000
1100
1100
,
0010
0000
0000
1000
0000
0000
0000
0000
0001
0000
0001
0000
,
0001
0000
0110
1001
,
0001
0000
0000
1000
0000
0000
0000
0000
0001
0000
0001
0000
,
0001
1001
0110
0000
;

//---------------dance-single - ----------------
#NOTES:
     dance-single:
     :
     Medium:
     9:
     :
0000
0000
0000
0000
,
0000
0000
0000
0000
,
0000
0000
0000
0000
,
0000
0000
0000
0000
,
0000
0000
0000
0000
,
2200
0000
0000
0000
0000
0000
0000
0000
0000
0300
0000
3002
,
0000
0000
2003
0000
0000
0000
3001
0000
0100
0001
0000
0100
,
0020
0000
0000
0000
0000
0000
0000
0000
0000
0030
0000
1010
,
0000
0000
0101
0000
0000
1100
0000
0000
0011
0000
0000
2000
,
0002
0000
0000
0000
0000
0000
0000
0000
0000
3000
0000
0203
,
0000
0000
0320
0000
0000
0000
1030
0000
0100
1000
0000
0100
,
0020
0000
0000
0000
0000
0000
0000
0000
0000
0030
0000
0011
,
0000
0000
1001
0000
0000
1010
0000
0000
0110
0000
0000
0001
,
1000
1100
0001
0101
,
1000
0000
0000
1010
0000
0000
0001
0000
0001
1000
0000
1000
,
0010
0000
0000
0110
0000
0000
0000
0000
0000
0001
0000
2000
,
0000
0000
3010
0000
0000
0000
1000
0000
0000
1001
0000
0000
,
0010
0000
0000
0110
0000
0000
0100
0000
0001
0000
0000
2000
,
0000
0000
0000
3000
0000
0100
1000
0000
0001
0000
0000
0011
,
0000
0000
0000
0000
0000
0000
1000
0000
0001
0000
0000
0010
,
0001
0101
1000
1100
,
0010
0000
2000
0000
0000
3100
1000
0000
0001
0000
0000
0200
,
0000
0000
0000
0310
0000
0000
1000
0000
0100
1000
0000
0001
,
0000
0000
0000
0011
0000
0000
0100
0000
0000
0010
0000
2000
,
0000
0000
3001
0000
0000
0000
0101
0000
0000
1010
0000
0000
,
0001
0000
0010
0001
0000
0010
0001
0000
0100
0000
0000
0110
,
0000
0000
0000
1000
0000
0000
0001
0000
0010
0001
0000
0200
,
0000
0000
0310
0000
0000
2002
0000
0000
3000
0000
0000
2003
,
0000
0000
3001
0000
0000
0220
0000
0000
0000
0300
0000
0000
,
1030
0000
1000
0001
0000
0001
1000
0000
1000
0010
0000
0100
,
0000
0000
0002
0000
0000
0000
0000
0000
1003
0001
0000
0010
,
0001
0000
0001
0100
0000
0100
0010
0000
0010
1000
0000
1000
,
0001
0000
0000
0100
0000
0010
2000
0000
0000
0000
0000
0000
,
0000
0000
0000
3000
0000
1100
0000
0000
0012
0000
0000
0000
,
1003
0000
0010
1000
0000
0010
0100
0000
0000
0220
0000
0000
,
0000
0000
0000
0300
0000
1000
0000
0000
0001
0000
0000
1030
,
0000
0000
0010
0000
0000
0100
0002
0000
0000
0000
0000
0000
,
0000
0000
0000
0003
0000
1010
0000
0000
0201
0000
0000
0000
,
0301
0000
0010
0001
0000
0010
0100
0000
0000
2200
0000
0000
,
0000
0000
0000
3000
0000
0001
0000
0000
1000
0000
0000
0001
,
0000
0000
0010
0000
0000
1300
0001
0000
0000
0001
0000
0000
,
1000
0000
0001
0000
0000
0010
0000
0000
0011
0000
0011
0000
,
0011
0000
0100
0100
,
0010
0000
1000
0000
0000
0001
0000
0000
1010
0000
1010
0000
,
1010
0000
1000
1000
,
0100
0000
0010
0000
0000
0001
0000
0000
0101
0000
0101
0000
,
0101
0000
0010
0010
,
1000
0000
0001
0000
0000
1000
0000
0000
1100
0000
1100
0000
,
1100
0000
0010
1000
,
0100
0000
0010
0000
0000
0001
0000
0000
1001
0000
1001
0000
,
1001
0000
0100
0001
,
0010
0000
0100
0000
0000
1000
0000
0000
0110
0000
0110
0000
,
0110
0000
0001
0010
,
0001
0000
1000
0000
0000
0100
0000
0000
1100
0000
1100
0000
,
1100
0000
0001
0010
,
0100
0000
0010
0000
0000
0001
0000
0000
0011
0000
0011
0000
,
0011
0000
1000
0001
,
1000
0000
0001
0000
0000
0100
0000
0000
0101
0000
0101
0000
,
0101
0000
0010
1000
,
0100
0000
1000
0000
0000
0001
0000
0000
1010
0000
1010
0000
,
1010
1001
0110
0000
;

//---------------dance-single - ----------------
#NOTES:
     dance-single:
     :
     Hard:
     12:
     :
0000
0000
0000
0000
,
0000
0000
0000
0000
,
0000
0000
0000
0000
,
0000
0000
0000
0000
,
0000
0000
0000
0000
,
2100
0000
0000
0001
0000
0000
3100
0000
1000
0001
0000
0101
,
0000
0000
1010
0000
0000
0000
1000
0100
1000
0100
0000
0000
,
0012
0000
0000
1000
0000
0000
0013
0000
0001
0100
0000
0101
,
0000
0000
1100
0000
0000
0011
0000
0000
0110
0000
0000
1000
,
0002
0000
0000
0010
0000
0000
1003
0000
0001
0100
0000
0110
,
0000
0000
1001
0000
0000
0000
0001
0010
0001
0010
0000
0000
,
0201
0000
0000
1000
0000
0000
0301
0000
0100
0010
0000
1010
,
0000
0000
0011
0000
0000
1100
0000
0000
0101
0000
0000
0001
,
1000
0000
1000
0200
0000
0000
0310
0000
0010
0002
0000
0000
,
1003
0000
1000
0002
0000
0000
0103
0000
0100
0010
0000
0010
,
1000
0000
0000
1100
0000
1000
0001
0000
0000
0100
0000
0010
,
0000
0000
1000
0002
0000
0000
0013
0000
0010
0200
0000
0000
,
1300
0000
1000
0020
0000
0000
1030
0000
0001
0000
0000
0010
,
0001
0000
1000
0001
0000
0100
0010
0000
0020
0000
0000
1030
,
0100
0000
0100
0020
0000
0000
0031
0000
0001
1000
0000
0010
,
1000
0000
0001
0200
0000
0000
0310
0000
1000
0002
0000
0000
,
0013
0000
0010
0001
0000
0001
1000
0000
0010
1000
0000
0100
,
0010
0000
0001
0100
0000
0100
0010
0000
1000
0001
0000
1000
,
0100
0000
0100
0020
0000
0000
0031
0000
1000
0001
0000
0200
,
0000
0000
0310
1000
0000
0000
1000
0000
0001
0200
0000
0000
,
0310
0000
1000
0010
0000
1000
0001
0000
1000
0001
0000
0100
,
0010
0000
1000
0100
0000
0010
0001
0000
0100
0010
0000
0110
,
0000
0000
1001
0000
0000
2010
0000
0000
3001
1000
0000
1100
,
0000
0000
0011
0000
0000
0201
0000
0000
0310
1000
0000
0100
,
1000
0000
1000
0010
0000
0010
0100
0000
0100
0001
0000
0001
,
0010
0000
0010
0200
0000
0000
1300
0000
0100
1000
0000
0001
,
1000
0100
0010
0001
0100
0010
1000
0100
0010
0001
0100
0010
,
1000
0000
0000
0001
0000
0001
0200
0000
0000
1000
0000
0000
,
0301
0000
0100
0010
0000
1010
0000
0000
1100
0000
0000
0000
,
1000
0001
1000
0001
0010
0100
1000
0000
0000
0120
0000
0000
,
1030
0000
0010
0100
0000
0101
0000
0000
0011
0000
0000
1001
,
0000
0000
1000
0100
0000
1000
0002
0000
0000
0010
0000
0000
,
1003
0000
0001
0100
0000
0110
0000
0000
1001
0000
0000
0000
,
0100
0001
0100
0001
1000
0100
0010
0000
0000
1002
0000
0000
,
0103
0000
0010
1000
0000
1100
0000
0000
0110
0000
0000
0011
,
0000
0000
0001
1000
0000
0001
0100
0000
0000
0110
0000
0000
,
1000
0000
0001
0000
0000
0010
0000
0000
0101
0000
0101
0000
,
0101
0000
0001
1000
0000
1000
0100
0000
0000
1010
0000
0000
,
1000
0000
0001
0000
0000
0010
0000
0000
1100
0000
1100
0000
,
1100
0000
1000
0010
0000
0100
0001
0000
0000
0011
0000
0000
,
1000
0000
0010
0000
0000
0100
0000
0000
0110
0000
0110
0000
,
0110
0000
0010
1000
0000
0100
1000
0000
0100
1000
0001
1000
,
0010
0000
0100
0000
0000
0001
0000
0000
1001
0000
1001
0000
,
1001
0000
0010
1000
0000
0001
0100
0000
0000
1010
0000
0000
,
0001
0000
1000
0000
0000
0010
0000
0000
1100
0000
1100
0000
,
1100
0000
0010
1000
0000
0100
0010
0000
0000
0001
0000
0000
,
0100
0000
0010
0000
0000
1000
0000
0000
0110
0000
1001
0000
,
0110
0000
0010
1000
0000
0001
0100
0000
0010
1000
0000
0100
,
1000
0000
0001
0000
0000
0010
0000
0000
0011
0000
1100
0000
,
0011
0000
0100
0010
0000
0100
0010
0000
1000
0010
0000
0100
,
0001
0000
1000
0000
0000
0100
0000
0000
1010
0000
0101
0000
,
1010
0000
0100
0010
0000
0010
0001
0000
0000
1001
0000
0000
,
0100
0000
0010
0000
0000
1000
0000
0000
1100
0000
0101
0000
,
1100
0000
0001
0010
0000
0001
1000
0000
0000
0110
0000
0000
,
0010
0000
0100
0000
0000
0001
0000
0000
0011
0000
1010
0000
,
0011
1001
0110
0000
;
