#VERSION:0.83;
#TITLE:Karn Evil 9;
#SUBTITLE:;
#ARTIST:Emerson, Lake and Palmer;
#TITLETRANSLIT:;
#SUBTITLETRANSLIT:;
#ARTISTTRANSLIT:;
#GENRE:;
#ORIGIN:;
#CREDIT:;
#BANNER:Karn Evil 9-bn.png;
#BACKGROUND:Karn Evil 9-bg.png;
#PREVIEWVID:;
#JACKET:Karn Evil 9-jacket.png;
#CDIMAGE:;
#DISCIMAGE:;
#LYRICSPATH:;
#CDTITLE:;
#MUSIC:Karn Evil 9.ogg;
#OFFSET:0.750000;
#SAMPLESTART:43.661999;
#SAMPLELENGTH:20.000000;
#SELECTABLE:YES;
#DISPLAYBPM:90.000000:160.000000;
#BPMS:0.000=122.000,
28.000=125.000,
35.500=129.000,
52.000=127.000,
74.000=118.000,
78.500=121.000,
82.000=126.000,
86.750=131.000,
94.000=128.000,
97.000=119.000,
100.000=127.000,
104.000=138.000,
108.000=135.000,
115.000=132.000,
124.000=128.000,
147.500=130.000,
151.250=129.000,
152.500=136.000,
160.000=134.000,
164.000=130.000,
172.000=160.000,
184.000=150.000,
204.000=125.000,
206.000=128.000,
208.000=134.000,
220.000=145.000,
226.000=138.000,
227.000=130.000,
227.500=120.000,
236.000=115.000,
244.000=110.000,
250.000=105.000,
252.000=95.000,
263.000=90.000;
#STOPS:74.000=0.973,
76.000=1.017,
78.000=1.016,
80.000=0.991;
#DELAYS:;
#WARPS:;
#TIMESIGNATURES:0.000=4=4;
#TICKCOUNTS:0.000=4;
#COMBOS:0.000=1;
#SPEEDS:0.000=1.000=0.000=0;
#SCROLLS:0.000=1.000;
#FAKES:;
#LABELS:0.000=Song Start;
#BGCHANGES:;
#KEYSOUNDS:;
#ATTACKS:
;

//---------------dance-single - ----------------
#NOTEDATA:;
#CHARTNAME:;
#STEPSTYPE:dance-single;
#DESCRIPTION:;
#CHARTSTYLE:;
#DIFFICULTY:Hard;
#METER:14;
#RADARVALUES:0.573874,0.675436,0.566609,0.232455,0.454014,553.000000,475.000000,78.000000,32.000000,0.000000,0.000000,0.000000,0.000000,0.000000,0.573874,0.675436,0.566609,0.232455,0.454014,553.000000,475.000000,78.000000,32.000000,0.000000,0.000000,0.000000,0.000000,0.000000;
#CREDIT:;
#DISPLAYBPM:90.000000:160.000000;
#NOTES:
0000
0000
0000
0000
,
0000
0000
0000
0000
,
0000
0000
0000
0000
,
1000
0000
0001
0100
0000
0100
0010
0000
2000
0000
0000
0000
3001
1000
0000
0010
,
0100
0000
0010
0000
1000
0000
0001
0100
0001
0000
0000
0000
0010
0000
0100
0000
,
1000
0000
0010
0000
1000
0001
0000
0001
0100
0000
0000
0000
0100
0000
0010
0000
,
2000
0000
3001
1000
0200
0000
0310
0000
,
0001
0000
1000
0100
0000
0100
0010
0000
0002
0000
0000
0000
1003
0000
0100
0000
,
0020
0000
0000
0000
0031
0100
0000
0001
2000
0000
0000
3020
0000
0000
0130
0000
,
0010
0000
1000
0100
0000
1000
0001
0000
0200
0000
0000
0000
0301
0000
0010
0000
,
0002
0000
0103
0010
2000
0000
3100
0000
,
1100
0101
1100
0101
,
0010
0000
0010
0000
1000
0001
0000
0100
0002
0000
0000
0000
0003
0000
0000
0000
,
0011
1010
0011
1010
,
0001
0000
0001
0000
1000
0010
0000
0100
0000
0001
1000
0100
1000
0010
0100
0000
,
0110
1001
0110
1001
,
0010
0000
0010
0000
1000
0100
0000
1000
0002
0000
0000
0000
0013
0000
0100
0000
,
1100
0000
0101
0000
1001
0000
0010
0100
,
0001
0000
0001
0000
1000
0100
0000
1000
0010
0000
1010
0000
0000
0000
0101
0000
,
1100
0011
0000
0101
0110
1001
0000
1100
,
0011
0000
0101
0000
0000
0000
1010
0000
2001
0000
0000
0000
3001
1000
0010
0000
,
0100
0000
0100
0000
1002
0000
0000
0000
1003
0010
1000
0010
0000
0100
0001
0000
,
0010
0000
0010
0000
0201
0000
0000
0000
0301
1000
0001
1000
0000
0010
0100
0000
,
0001
0000
0001
0000
2100
0000
0000
0000
3100
1000
0100
1000
0000
0001
0010
0000
,
1000
0000
1000
0000
1020
0000
0000
0000
0130
0010
0100
0010
0000
1000
0001
0000
,
1000
0000
1000
0000
0201
0000
0000
0000
0310
0100
0001
0100
0000
0001
1000
0000
,
0100
0000
0100
0000
2100
0000
0000
0000
3001
1000
0010
0100
0000
0010
1000
0000
,
0001
0010
0100
1000
0010
0100
0020
0000
0000
0000
0000
0000
1030
0001
0100
0000
,
0010
1000
0010
1000
0010
0000
0100
0001
0000
0100
0001
0000
0000
0000
0000
0000
,
0001
0010
0001
0010
0001
0000
0100
0010
0100
0010
0100
0000
0001
1000
0001
1000
,
0010
1000
0010
0100
0001
0000
0100
0000
0010
1000
0010
0000
1000
0001
0100
0000
,
0001
1000
0001
1000
0001
0000
0100
0000
0010
0000
1000
0000
0100
0000
0010
0000
,
0001
1000
0001
1000
0100
0010
0001
0000
0101
0000
0102
0000
0000
1003
0000
0000
,
2001
0000
0100
0000
0100
0000
0100
0000
0001
0000
0001
0000
3001
1000
0100
0000
,
0120
0000
1000
0000
1000
0000
1000
0000
0100
0000
0100
0000
0130
0001
0010
0001
,
0100
0000
0001
0010
0000
0010
1000
0000
0001
0100
0000
0100
1000
0000
0010
1000
,
0000
1000
0100
0000
0010
0001
0000
0001
0100
0000
0001
0010
0000
0100
1000
0000
,
0010
0010
0000
0100
0100
0000
0001
0001
0000
1000
1000
0000
0010
1000
0000
0000
,
1100
0000
2100
0000
0000
0000
3010
0100
0001
1000
0001
1000
0010
0100
0001
0000
,
1000
0000
0001
0100
0001
0000
1000
0100
1000
0000
0010
0100
0010
0000
0000
0000
,
0010
0000
1000
0100
1000
0000
0001
0100
0001
0000
0010
0100
0010
0000
0000
0000
,
0100
0000
0001
0010
0001
0000
1000
0010
1000
0000
0100
0010
0100
0000
0000
0000
,
0001
0000
1000
0010
1000
0000
0001
0010
0001
0000
0100
0010
0100
0000
0000
0000
,
1001
0000
0000
0000
,
0000
0000
0000
0000
,
0000
0000
0000
0000
,
0000
0000
0000
0000
,
0010
1000
0100
0010
0001
0000
0100
0001
,
1000
0100
0001
0100
1000
0000
0010
0100
,
0001
0010
1000
0010
0001
0000
0100
0010
,
2000
0000
3100
0010
0002
0000
0003
0000
,
0010
0000
1000
0001
0000
1000
0001
0000
0200
0000
0000
0000
0310
0100
0000
0001
,
0100
0000
0010
0000
1000
0000
0100
1000
0001
0000
0000
0001
0010
0000
0100
0000
,
1000
0000
0010
0000
1000
0000
0001
0000
0200
0000
0000
0000
0310
0000
1000
0100
,
2000
0000
0000
0000
3010
0000
0100
0001
0200
0000
0000
0000
0310
0000
0000
0000
,
0010
1000
0100
0010
0001
0100
0001
1000
,
0010
0000
1000
0000
0001
0000
0010
0000
0100
1000
0100
1000
0001
0100
0001
0000
,
1010
0000
0101
0000
0000
0000
0011
0000
1100
0000
0000
0010
0000
0010
0010
0000
,
0101
0000
0110
0000
0000
0000
1010
0000
1001
0000
0000
1000
0000
1000
1000
0000
,
0110
0000
1010
0000
0000
0000
1100
0000
0101
0000
0000
0001
0000
0001
0001
0000
,
0011
0000
1010
0000
0000
0000
0110
0000
1001
0000
0000
0100
0000
0100
0100
0000
,
1001
0000
0011
0000
0000
0000
1100
0000
0101
0000
0000
1000
0000
1000
1000
0000
,
1100
0000
0011
0000
0000
0000
0110
0000
0101
0000
0000
0001
0000
0001
0001
0000
,
0011
1100
0101
1010
,
0110
1001
1100
1010
,
1001
0000
0101
0000
0011
0000
0110
0100
,
2200
0000
0000
0000
,
0000
0000
0000
0000
,
0000
0000
0000
0000
0000
0000
3300
1001
;

//---------------dance-single - ----------------
#NOTEDATA:;
#CHARTNAME:;
#STEPSTYPE:dance-single;
#DESCRIPTION:;
#CHARTSTYLE:;
#DIFFICULTY:Medium;
#METER:11;
#RADARVALUES:0.405759,0.475307,0.305097,0.232455,0.130756,391.000000,349.000000,42.000000,32.000000,0.000000,0.000000,0.000000,0.000000,0.000000,0.405759,0.475307,0.305097,0.232455,0.130756,391.000000,349.000000,42.000000,32.000000,0.000000,0.000000,0.000000,0.000000,0.000000;
#CREDIT:;
#DISPLAYBPM:90.000000:160.000000;
#NOTES:
0000
0000
0000
0000
,
0000
0000
0000
0000
,
0000
0000
0000
0000
,
1000
0001
0100
0001
1000
0000
0010
0100
,
0001
0000
0010
0100
1000
0000
0001
1000
,
0010
0100
0001
0100
0010
0000
1000
0001
,
0100
0110
1001
0000
,
0010
1000
0100
1000
0010
0000
0100
0001
,
1000
0000
1000
0001
0100
0000
0000
0010
,
0100
0001
1000
0001
0100
0000
0001
1000
,
0010
1100
0101
0000
,
0012
0103
2010
3100
,
0001
0100
0010
1000
0100
0000
0000
0000
,
1200
1300
0201
0301
,
0010
1000
0100
0010
0001
0000
0000
0000
,
2001
3010
0120
0130
,
0010
1000
0001
0010
0100
0000
0000
0100
,
2000
0000
3002
0000
0203
0000
0300
0010
,
1000
0100
0001
0100
1000
2100
0000
0001
,
3001
0012
0000
1000
1003
1020
0000
0100
,
0130
0201
0000
0010
0320
0000
0000
0000
,
1030
0000
0010
0000
0100
0000
0000
0000
0001
0000
0000
1000
0000
0000
0001
0000
,
0100
0000
0010
0000
1000
0000
0000
0000
0001
0000
0000
0100
0000
0000
0010
0000
,
1000
0000
0100
0000
0010
0000
0000
0000
0100
0000
0000
1000
0000
0000
0001
0000
,
0100
0000
0010
0000
0100
0000
0000
0000
0001
0000
0000
0010
0000
0000
1000
0000
,
0010
0000
0100
0000
0001
0000
0000
0000
0100
0000
0000
0010
0000
0000
1000
0000
,
0001
0000
1000
0000
0100
0000
0000
0000
1000
0000
0000
0100
0000
0000
0010
0000
,
0001
0000
1000
0000
0010
0100
0020
0000
0000
0000
0000
0000
0130
0000
0001
0000
,
0010
0100
1000
0001
0100
1000
0010
0000
,
1000
0001
0010
0001
0100
0010
1000
0100
,
0010
0001
0100
0001
1000
0010
1000
0100
,
0010
0001
1000
0100
0010
0100
1000
0001
,
0100
0000
0010
0000
0100
0000
0001
0000
1001
0000
2002
0000
0000
3003
0000
0000
,
0110
0000
0000
0100
0001
0000
0000
0001
1000
0000
0000
1000
0010
0000
0100
0000
,
0110
0000
0000
0010
1000
0000
0000
1000
0100
0000
0000
0100
0010
0000
0001
0000
,
0100
0000
0000
0010
0000
0000
1000
0000
0000
0001
0000
0000
0010
0000
0000
0100
,
0000
0000
1000
0000
0000
0001
0000
0000
0100
0000
0000
0010
0000
0000
1000
0000
,
0001
0000
0000
0100
0000
0000
0010
0000
0000
1000
0000
0000
1100
0000
0000
0000
,
1001
2002
0003
0000
3010
0100
0001
1000
,
0001
0000
0000
1000
0100
0000
0000
1000
0010
0000
0000
1000
0001
0000
0000
0000
,
0100
0000
0000
0001
1000
0000
0000
0001
0010
0000
0000
0001
0100
0000
0000
0000
,
0010
0000
0000
0100
0001
0000
0000
0100
1000
0000
0000
0100
0010
0000
0000
0000
,
1000
0000
0000
0010
0100
0000
0000
0010
0001
0000
0000
0010
0100
0000
0000
0000
,
1001
0000
0000
0000
,
0000
0000
0000
0000
,
0000
0000
0000
0000
,
0000
0000
0000
0000
,
0001
1000
0001
1000
0001
0000
0100
0000
,
1000
0001
1000
0001
1000
0000
0010
0000
,
0100
0010
0100
0010
0100
0000
0110
0000
,
1001
0110
1001
0000
,
0010
0100
0001
1000
0100
0000
1000
0010
,
1000
0100
0010
0001
0100
0000
0001
1000
,
0010
1000
0100
1000
0001
0000
0100
0010
,
1000
1100
0011
0000
,
0001
0000
0000
1000
0000
0000
0010
0000
0000
0100
0000
0000
0001
0000
0010
0000
,
0100
0000
0000
1000
0000
0000
0010
0000
0000
0100
0000
0000
0001
0000
1000
0000
,
0001
0101
0000
1000
1100
0000
0010
0100
,
0010
1010
0000
0100
0101
0000
0001
1000
,
0010
0110
0000
1000
1001
0000
0001
0100
,
0001
0011
0000
1000
1100
0000
0010
0100
,
0001
1001
0000
0100
0110
0000
0010
1000
,
0100
1100
0000
1000
1010
0000
0001
0010
,
0002
2003
3020
0230
,
0302
0023
0230
2300
,
3020
0000
0230
0000
0302
0000
0103
0010
,
0220
0000
0000
0000
,
0000
0000
0000
0000
,
0000
0000
0000
0000
0000
0330
0000
1001
;

//---------------dance-single - ----------------
#NOTEDATA:;
#CHARTNAME:;
#STEPSTYPE:dance-single;
#DESCRIPTION:;
#CHARTSTYLE:;
#DIFFICULTY:Easy;
#METER:6;
#RADARVALUES:0.236606,0.250162,0.021793,0.043585,0.000000,228.000000,225.000000,3.000000,6.000000,0.000000,0.000000,0.000000,0.000000,0.000000,0.236606,0.250162,0.021793,0.043585,0.000000,228.000000,225.000000,3.000000,6.000000,0.000000,0.000000,0.000000,0.000000,0.000000;
#CREDIT:;
#DISPLAYBPM:90.000000:160.000000;
#NOTES:
0000
0000
0000
0000
,
0000
0000
0000
0000
,
0000
0000
0000
0000
,
1000
1000
1000
0100
,
0001
0001
0001
0000
,
0100
0100
0100
0001
,
0010
0010
0010
0000
,
1000
0100
1000
0001
,
0100
0100
0100
0000
,
0010
1000
0010
0100
,
0001
0001
0001
0000
,
1000
0001
1000
0001
,
0100
0100
0100
0000
,
0001
1000
0001
1000
,
0010
0010
0010
0000
,
1000
0100
1000
0100
,
0001
0001
0001
0000
,
0001
1000
0100
0000
,
1000
0000
0001
0000
0100
0020
0000
0000
,
0130
0200
0000
0000
0301
0002
0000
0000
,
1003
2000
0000
0000
3010
0000
0000
0000
,
1000
1000
0001
0001
,
0100
0100
0001
0010
,
0100
0100
0010
0010
,
0001
1000
0100
0100
,
1000
0001
0010
0001
,
0100
0010
1000
0100
,
0010
0001
0100
0010
,
0100
0001
0010
1000
,
0100
0010
0100
0010
,
1000
0100
0010
0001
,
0100
0001
1000
1000
,
0010
1000
0100
0100
,
0100
0010
0100
1000
,
0010
1000
0001
1000
,
0010
0100
0001
0010
,
0001
0100
1000
1000
,
0010
0100
0010
1000
,
0100
0010
1000
0001
,
0100
0010
0100
0010
,
1000
0100
0001
1000
,
0010
0100
0010
1000
,
0100
1000
0001
0001
,
1001
0000
0000
0000
,
0000
0000
0000
0000
,
0000
0000
0000
0000
,
0000
0000
0000
0000
,
1000
1000
1000
0100
,
0001
0001
0001
0000
,
0010
0010
0010
1000
,
0100
0100
0100
0000
,
0001
1000
0001
0001
,
0100
0010
1000
1000
,
0100
0010
0001
0100
,
0010
0010
0010
0000
,
1000
0100
0001
0001
,
0100
0010
1000
0010
,
1000
1000
0000
0001
0001
0000
0000
0000
,
0100
0100
0000
0010
0010
0000
0000
0000
,
1000
1000
0000
0010
0010
0000
0000
0000
,
0100
0100
0000
0001
0001
0000
0000
0000
,
1000
0001
0000
1000
0001
0000
0000
0000
,
0100
0010
0000
0100
0010
0000
0000
0000
,
1000
0100
1000
0000
,
0001
0100
0001
0000
,
0100
0010
1000
0001
,
0220
0000
0000
0000
,
0000
0000
0000
0000
,
0000
0000
0000
0000
0330
0000
0000
1001
;

//---------------dance-single - ----------------
#NOTEDATA:;
#CHARTNAME:;
#STEPSTYPE:dance-single;
#DESCRIPTION:;
#CHARTSTYLE:;
#DIFFICULTY:Beginner;
#METER:2;
#RADARVALUES:0.086133,0.224737,0.036321,0.029057,0.000000,83.000000,78.000000,5.000000,4.000000,0.000000,0.000000,0.000000,0.000000,0.000000,0.086133,0.224737,0.036321,0.029057,0.000000,83.000000,78.000000,5.000000,4.000000,0.000000,0.000000,0.000000,0.000000,0.000000;
#CREDIT:;
#DISPLAYBPM:90.000000:160.000000;
#NOTES:
// measure 0
0000
0000
0000
0000
,  // measure 1
0000
0000
0000
0000
,  // measure 2
0000
0000
0000
0000
,  // measure 3
1000
0000
0000
0000
,  // measure 4
0001
0000
0000
0000
,  // measure 5
0100
0000
0000
0000
,  // measure 6
0010
0000
0000
0000
,  // measure 7
1000
0000
0000
0000
,  // measure 8
0100
0000
0000
0000
,  // measure 9
0010
0000
0000
0000
,  // measure 10
0001
0000
0000
0000
,  // measure 11
0100
0000
0100
0000
,  // measure 12
0100
0000
0000
0000
,  // measure 13
0010
0000
0010
0000
,  // measure 14
0010
0000
0000
0000
,  // measure 15
1000
0000
1000
0000
,  // measure 16
1000
0000
0000
0000
,  // measure 17
0001
0000
0001
0000
,  // measure 18
0001
0000
0000
0000
,  // measure 19
0110
0000
1001
0000
,  // measure 20
0110
0000
1001
0000
,  // measure 21
0010
0000
0000
0000
,  // measure 22
0000
0000
0000
0000
,  // measure 23
0100
0000
0000
0000
,  // measure 24
0000
0000
0000
0000
,  // measure 25
0001
0000
1000
0000
,  // measure 26
0001
0000
1000
0000
,  // measure 27
0010
0000
0100
0000
,  // measure 28
0010
0000
0100
0000
,  // measure 29
0001
0000
1000
0000
,  // measure 30
0010
0000
0100
0000
,  // measure 31
1000
0000
0010
0000
,  // measure 32
0100
0000
0001
0000
,  // measure 33
0020
0000
0030
0000
,  // measure 34
0200
0000
0300
0000
,  // measure 35
0010
0000
1000
0000
,  // measure 36
0010
0000
0100
0000
,  // measure 37
0001
0000
1000
0000
,  // measure 38
0002
0000
0003
0000
,  // measure 39
1000
0000
0000
0000
,  // measure 40
0001
0000
0000
0000
,  // measure 41
0100
0000
0000
0000
,  // measure 42
0010
0000
0000
0000
,  // measure 43
1001
0000
0000
0000
,  // measure 44
0000
0000
0000
0000
,  // measure 45
0000
0000
0000
0000
,  // measure 46
0000
0000
0000
0000
,  // measure 47
1000
0000
0000
0000
,  // measure 48
0100
0000
0000
0000
,  // measure 49
0010
0000
0000
0000
,  // measure 50
0001
0000
0000
0000
,  // measure 51
0100
0000
0010
0000
,  // measure 52
0100
0000
0000
0000
,  // measure 53
0001
0000
1000
0000
,  // measure 54
0001
0000
0000
0000
,  // measure 55
0010
0000
0000
0000
,  // measure 56
0001
0000
0000
0000
,  // measure 57
0100
0000
0000
0000
,  // measure 58
0100
0000
0000
0000
,  // measure 59
0010
0000
0000
0000
,  // measure 60
0010
0000
0000
0000
,  // measure 61
1000
0000
0000
0000
,  // measure 62
0001
0000
0000
0000
,  // measure 63
0010
0000
0000
0000
,  // measure 64
0001
0000
0000
0000
,  // measure 65
0100
0000
0000
0000
,  // measure 66
2000
0000
0000
0000
,  // measure 67
0000
0000
0000
0000
,  // measure 68
0000
0000
0000
3000
;
