#TITLE:Kalis Mind;
#ARTIST:MYUKKE.;
#BANNER:Kalis Mind-bn.png;
#BACKGROUND:Kalis Mind-bg.png;
#JACKET:Kalis Mind-jacket.png;
#MUSIC:Kalis Mind.ogg;
#OFFSET:0.947;
#SAMPLESTART:15.474;
#SAMPLELENGTH:20;
#DISPLAYBPM:190;
#BPMS:0=190;
#BGCHANGES:;

//---------------dance-single - ----------------
#NOTES:
     dance-single:
     :
     Beginner:
     6:
     :
0000
0000
0000
0000
,
0000
0000
0000
0000
,
0000
0000
0000
0000
,
1001
0000
0000
0000
,
1000
1000
1000
0000
,
0010
0000
1000
0000
,
0010
0000
0100
0000
,
0001
0000
0010
0000
,
0001
0001
1000
1000
,
0010
0000
1000
0000
,
0100
0000
1000
0000
,
0001
0000
0100
0000
,
0001
0001
0001
0000
,
0010
0100
0010
0000
,
0001
0000
1000
0100
,
1000
0010
1000
0010
,
0100
0001
0100
0001
,
0010
0001
0100
0000
,
0010
0000
1000
0001
,
0100
0010
0100
0010
,
1000
0001
1000
0001
,
0010
0100
1000
0000
,
0010
0000
0100
0001
,
1000
0100
1000
0100
,
0010
0001
0010
0001
,
1000
0001
0100
0000
,
0001
0000
0010
0100
,
1000
0010
0100
0001
,
0010
0010
0010
0000
,
0001
0001
0001
0000
,
1000
1000
1000
0000
,
0010
0100
0010
0100
,
0010
0100
0010
0000
,
1000
0000
0001
0000
,
0100
0000
0010
0000
,
1000
0000
0001
0000
,
0100
0000
0010
0000
,
0000
0110
0000
0110
,
0000
0110
0000
0110
,
0000
0110
0000
0110
,
0000
0110
0000
0000
,
0000
0110
0000
0110
,
0000
0110
0000
0110
,
0000
0110
0000
0110
,
0001
0000
1000
0000
,
0010
0000
1000
0000
,
0100
0100
0100
0000
,
0000
0000
1000
0000
0000
0001
0100
0000
,
0000
0000
0010
0000
0000
0100
0001
0000
,
0000
0000
0010
0000
0000
0001
1000
0000
,
0000
1000
0010
0100
,
0001
0000
0010
0000
0000
0001
1000
0000
,
0000
0000
0100
0000
0000
1000
0010
0000
,
1000
1000
0001
0001
,
0010
0001
0100
1000
,
0010
0000
1000
0100
,
1000
0000
0001
0100
,
0001
0000
0010
0000
,
0001
0001
1000
1000
,
0010
0000
0100
0000
,
0010
0000
1000
0000
,
0001
0000
0100
0000
,
0001
0001
0001
0000
,
0010
0000
0100
0000
,
1000
1000
1000
0000
,
0010
0000
1000
0000
,
0100
0000
0010
0000
,
0001
0000
0100
0000
,
0001
0000
0010
0000
,
0001
0000
1000
0000
,
0010
0000
0100
0000
,
0010
0000
1000
0000
,
0100
0000
1000
0000
,
0001
0000
0010
0000
,
0001
0000
0100
0000
,
0001
0000
0010
0000
,
1000
0000
0100
0000
,
1000
0000
0001
0000
,
0100
0000
0010
0000
,
1000
0100
1000
0010
,
0100
0001
0010
0000
,
0001
0010
0001
1000
,
0010
1000
0100
0000
,
1000
1000
1000
0000
,
0010
0010
0010
0000
,
0100
0001
0010
0001
,
1000
0010
0100
0001
,
0000
0010
0000
0001
,
0000
0100
0000
1000
,
1001
0000
0000
0000
,
1000
1000
1000
0000
,
1001
0000
0000
0000
;

//---------------dance-single - ----------------
#NOTES:
     dance-single:
     :
     Easy:
     10:
     :
0000
0000
0000
0000
,
0000
0000
0000
0000
,
0000
0000
0000
0000
,
2002
0000
0000
3003
,
1000
0001
1000
0001
1000
0000
0000
0000
,
0110
0000
1000
0001
,
0010
0001
0010
0100
,
1000
0010
1000
0001
,
0010
0010
0100
0100
,
1000
0010
1000
0001
,
0010
0001
0010
0100
,
1000
0100
0010
0000
1000
0100
0010
0000
,
0001
0001
0001
0110
,
1001
0010
1000
0100
,
0010
0100
1000
0010
,
0100
0001
0010
0001
,
0010
0100
1000
0001
,
0100
0010
0100
0001
,
0010
0001
0010
1000
,
0100
0010
0100
1000
,
0010
1000
0100
0001
,
0010
0001
0010
0100
,
1000
0010
1000
0100
,
0001
1000
0010
1000
,
0100
0010
0100
1000
,
0010
1000
0100
0010
,
0001
0100
0001
0010
,
0001
0100
1000
0010
,
1000
0001
0100
0000
1001
0000
0110
0000
,
1000
0000
1000
0000
1000
0001
0000
0001
,
0100
0010
0100
0000
0100
0000
0000
0000
,
1000
0001
1000
0000
0010
0100
0010
0000
,
1000
0001
1000
0000
1000
0000
0000
0000
,
0001
0000
0010
0000
0001
0100
0000
0100
,
0010
0000
0010
1000
0000
1000
0001
0000
,
0010
0100
0010
0000
0001
1000
0001
0000
,
1100
0101
1100
0101
,
1000
0110
0100
0110
,
0010
0110
0100
0110
,
1000
0110
0001
0110
,
1000
0110
0010
0001
,
0100
0110
0001
0110
,
1000
0110
0010
0110
,
0001
0110
1000
0110
,
0001
0100
1000
1001
,
0020
2030
3002
0203
,
0301
0010
0001
0010
0001
0000
1001
0000
,
0110
0010
1000
0001
,
0010
0000
0100
0000
1000
0001
0100
0000
,
0010
1000
0001
1000
,
0100
0000
0010
0000
0001
0100
0010
0000
,
1000
0000
0100
0000
1000
0001
0010
0000
,
0001
0000
0100
0000
0001
0010
1000
0000
,
0200
0320
0032
2003
,
3020
0230
0302
2003
,
3010
0000
1000
0001
,
0010
0001
0010
0100
,
1000
0010
1000
0001
,
0100
0100
0010
0010
,
1000
0010
1000
0010
,
0100
0001
0100
0001
,
0010
0001
0100
0000
0010
0001
0100
0000
,
0001
0001
0001
0110
,
1001
0010
0100
0010
,
1000
0001
1000
0001
2000
0000
3200
0000
,
0310
0001
0100
0010
,
1000
0100
0001
0010
,
0001
0100
0001
0010
,
1000
0001
0010
1000
,
1100
1100
0101
0101
,
0010
0001
0100
1000
,
0001
0010
1000
0001
,
0010
0100
0001
0010
,
0001
0100
1000
0010
,
1000
0001
1000
0100
,
1000
0010
0001
0100
,
0010
0100
0001
0010
,
0101
0101
1100
1100
,
0001
0010
1000
0100
,
0010
0000
0001
0000
0100
0010
1000
0010
,
0100
0000
0001
0000
0010
0001
1000
0010
,
1000
0000
0100
0000
1000
0010
0100
0001
,
1000
0000
0001
0000
1000
0100
0010
0100
,
1000
0000
0001
0000
0010
0001
0200
0000
,
0310
0100
0001
0000
0010
0100
2000
0000
,
3001
0000
1000
0000
0010
1000
0100
0010
,
0001
0100
0001
0000
1000
0100
1000
0000
,
0000
0010
1000
0100
0000
0100
0010
0000
,
0010
0001
0100
0000
0010
1000
0100
0000
,
2002
0000
0000
3003
,
1000
0001
1000
0001
1000
0000
0000
0000
,
1001
0000
0000
0000
;

//---------------dance-single - ----------------
#NOTES:
     dance-single:
     :
     Medium:
     13:
     :
0000
0000
0000
0000
,
0000
0000
0000
0000
,
0000
0000
0000
0000
,
2002
0000
0000
3003
,
1000
0001
1000
0001
1000
0000
0000
0000
,
0010
0000
1000
0100
1000
0010
0100
0001
,
1000
0000
0010
1000
0100
1000
0001
0010
,
0001
0010
0100
1000
0001
0010
0100
1000
,
0010
0100
0001
1000
1100
0000
0101
0000
,
1100
0000
0010
1000
0001
1000
0100
0010
,
0001
0000
1000
0001
1000
0100
0010
0001
,
1000
0001
0100
0010
1000
0001
0100
0010
,
0001
0000
0001
0000
0001
0010
1000
0000
,
0110
0000
0000
0000
1000
0000
0000
0010
0000
0000
1000
0000
0100
0000
0010
0000
,
0001
0000
0000
0000
0100
0000
0000
0001
0000
0000
0010
0000
0100
0000
1000
0000
,
0001
0010
0001
0100
0010
0001
1000
0100
,
0010
0100
1000
0010
1000
0001
0100
0010
,
0110
0000
0000
0000
1000
0000
0000
0001
0000
0000
1000
0000
0100
0000
0010
0000
,
0100
0000
0000
0000
1000
0000
0000
0010
0000
0000
0100
0000
0001
0000
0010
0000
,
0001
0000
0100
0000
0010
0000
0000
1000
0000
0000
0100
0000
1000
0000
0001
0000
,
0010
0100
0010
0100
1000
0001
1000
0001
,
0011
0000
0000
0000
1000
0000
0000
0001
0000
0000
0010
0000
0001
0000
0100
0000
,
0010
0000
0000
0000
1000
0000
0000
0001
0000
0000
1000
0000
0100
0000
0010
0000
,
0001
0100
0001
0010
0100
1000
0010
1000
,
0100
0010
0001
0100
0001
1000
0010
1000
,
0100
0000
1000
0000
0010
0000
0000
0100
0000
0000
0001
0000
1000
0000
0010
0000
,
1000
0000
0001
0000
0010
0000
0000
0001
0000
0000
0100
0000
0010
0000
1000
0000
,
0001
0000
1000
0000
0010
0000
0000
0100
0000
0000
0010
0000
1000
0000
0100
0000
,
1000
0001
0100
0001
1000
0000
1100
0000
,
0010
0000
0010
0000
0010
0010
0000
1000
,
1000
0001
0001
0000
0101
0000
1010
0000
,
1000
1000
1000
0000
0001
0100
0001
0100
,
0010
0010
0010
0000
0110
1000
1000
0000
,
0001
0100
0010
0100
0001
1000
0000
0100
,
1000
0010
0100
0001
0000
0010
0001
1000
,
0001
0100
0010
1000
0001
0010
0100
1000
,
0010
0100
0010
0100
0010
1000
0001
0000
,
0010
0000
0110
0001
0000
1000
0110
0000
,
0010
0000
0110
0100
0000
0001
0110
0000
,
1000
0000
0110
0100
0000
0010
0110
0000
,
0001
0000
0110
0100
0000
1000
0001
0100
,
0010
0000
0110
1000
0000
0001
0110
0000
,
0100
0000
0110
0010
0000
1000
0110
0000
,
0001
0000
0110
0010
0000
1000
0110
0000
,
0010
0000
1000
0000
0100
0000
1000
0001
,
0010
0001
0200
0000
0310
1000
0200
0000
,
0310
0001
1000
0001
0100
0000
1001
0000
,
0010
0000
1000
0100
0001
0100
1000
0000
,
0010
0000
0100
0001
0010
0100
1000
0000
,
0001
0000
0010
0001
0010
0100
1000
0000
,
0001
0100
0001
0100
0010
1000
0100
0000
,
1000
0000
0001
0010
0001
1000
0100
0000
,
0010
0000
0001
0100
1000
0100
0001
0000
,
0010
0000
0100
0010
0001
0100
1000
0000
,
0001
0100
0001
0100
0001
0100
0001
0100
,
0010
0000
0100
0001
0010
0001
1000
0100
,
0010
0000
0001
1000
0001
0100
0010
0000
,
1000
0100
0010
0001
1000
0100
0010
0001
,
0100
0010
1000
0001
0011
0000
1010
0000
,
0011
0000
1000
0001
0010
0001
0010
0100
,
1000
0000
0010
1000
0100
0010
0100
1000
,
0001
0100
1000
0010
0100
0001
1000
0010
,
0001
0000
0001
0000
0001
0010
1000
0000
,
1100
0000
1000
0001
0000
0100
0010
0000
,
1000
0100
0001
0100
1000
0000
1001
0000
,
0010
0000
1000
0000
0001
1000
0010
0000
,
0100
0000
0010
0000
1000
0001
1000
0100
,
0010
0001
0100
0000
1000
0000
0001
0000
,
0010
0001
0010
0100
0010
0001
0010
0100
,
1000
0000
0000
0010
0000
0000
1000
0000
0001
0000
0000
0010
0000
0000
0001
0000
,
0100
0010
2000
0000
3002
0000
2003
0000
,
3010
1000
0100
0010
0001
0000
1000
0000
,
0010
1000
0010
1000
0001
0100
0001
0100
,
0010
0000
1000
0001
0100
0010
0100
0000
,
0001
0000
0010
0000
0001
0010
1000
0000
,
0100
1000
0001
0000
1010
0000
0101
0000
,
0010
0001
0100
0000
0011
0000
1100
0000
,
0001
0000
0000
0100
0000
0000
0001
0000
1000
0000
0000
0100
0000
0000
1000
0000
,
0020
0230
0302
2003
,
3100
0000
0010
0000
0001
0000
0000
1000
0000
0000
0001
0000
0100
0000
0010
0000
,
0100
0000
0001
0000
0010
0000
0000
0001
0000
0000
1000
0000
0100
0000
1000
0000
,
0001
0000
0010
0000
0001
0000
0000
1000
0000
0000
0010
0000
1000
0000
0100
0000
,
0010
0000
0100
0000
1000
0000
0000
0001
0000
0000
0010
0000
0001
0000
1000
0000
,
0010
0000
0100
0000
0010
0000
0000
1000
0000
0000
0001
0000
0200
0000
0000
0000
,
0301
0000
0010
0000
0001
0000
0000
0100
0000
0000
0010
0000
2000
0000
0000
0000
,
3100
0000
0010
0000
0100
0000
0000
1000
0000
0000
0010
0000
1000
0000
0001
0000
,
0100
0010
1000
0001
0100
0010
1000
0000
,
0000
0001
0010
1000
0000
0001
0100
1000
,
0010
0100
0000
0010
1000
0001
1000
0100
,
2002
0000
0000
3003
,
1000
0001
1000
0001
1000
0000
0000
0000
,
1001
0000
0000
0000
;

//---------------dance-single - ----------------
#NOTES:
     dance-single:
     :
     Hard:
     16:
     :
0000
0000
0000
0000
,
0000
0000
0000
0000
,
0000
0000
0000
0000
,
2002
0000
0000
3003
,
1000
0001
1000
0001
1000
0001
1000
0001
1000
0000
0000
0000
0000
0000
0000
0000
,
0010
0001
1000
0100
0100
0010
1000
0001
,
0100
1000
0001
0001
0100
1000
0010
0010
,
1000
0000
0100
0000
0010
0000
0001
0000
0100
0000
0001
1000
0001
0000
0100
0000
,
0010
0000
1000
0100
1000
0000
0001
0100
0002
0000
0000
0000
0023
0000
0000
0000
,
0031
0010
1000
0100
1000
0001
0100
0010
,
0100
1000
0010
0001
0100
0001
0010
1000
,
0001
0100
0001
0100
0010
1000
0010
1000
0001
0010
0001
0010
0100
1000
0100
1000
,
0001
0000
0000
0000
0001
0000
0000
0000
0001
0000
1000
0001
0100
0000
0000
0000
,
0110
0000
0000
0000
1001
0000
0010
1000
0000
1000
0001
0000
0010
0000
0100
0000
,
1000
0000
0000
0010
1000
0010
0000
0100
0001
0010
0100
0000
1000
0000
0001
0000
,
0010
0000
0001
0100
0001
0000
0010
0100
0000
1000
0010
1000
0010
0000
0100
0000
,
0001
0000
1000
0010
1000
0000
0100
0010
0000
0001
0100
0001
1000
0000
0010
0000
,
0100
0000
0001
0000
0010
0000
0001
1000
0000
1000
0010
0000
0100
0000
0001
0000
,
0010
0001
0000
0001
0100
0000
0000
0010
0000
1000
0001
0000
1000
0000
0100
0000
,
0010
0000
0001
1000
0001
0000
0100
0010
0000
0010
1000
0000
0001
0000
0100
0000
,
0001
0000
0010
0100
1000
0000
0010
1000
0000
1000
0001
0100
0001
0000
0010
0000
,
0110
0000
0000
0100
1000
0000
0100
0010
0000
0100
1000
0000
0001
0000
0100
0000
,
0010
0000
1000
0001
1000
0000
0100
0010
0000
0010
0001
0000
0100
0000
0010
0000
,
1000
0000
0001
0010
0001
0000
0100
0010
0000
0010
1000
0100
1000
0000
0001
0000
,
0010
0000
0001
1000
0001
0000
0010
0100
0000
0100
0010
0001
1000
0000
0100
0000
,
1000
0000
0001
0010
0001
0000
0100
0010
0000
0100
0001
0000
1000
0000
0100
0000
,
0010
0000
0100
0000
1000
0000
0010
1000
0000
1000
0001
0000
0100
0000
0010
0000
,
1000
0000
0100
0000
0001
0000
0010
0100
0000
0010
0100
1000
0001
0000
0100
0000
,
0001
0000
0010
0000
1000
0000
0100
0010
0001
0000
0100
0000
0110
0000
0000
0000
,
1001
0000
1001
0000
1001
1001
0000
1000
,
0001
0001
0001
0000
0011
0000
0110
0000
,
1100
0001
0100
0000
1010
0001
1000
0100
,
0010
0001
0100
0000
0110
1000
1000
0000
,
0001
0010
0100
0010
1000
0100
1000
0001
,
1000
0001
0010
0100
1000
0100
0010
0001
,
0100
0010
0100
0010
0100
0010
0100
0010
1000
0001
1000
0001
1000
0001
1000
0001
,
0010
0000
0001
0100
0000
0010
1000
0000
0100
0000
1000
0001
1000
0000
0000
0000
,
0010
0000
0110
0001
0010
0000
0110
1000
,
0001
0000
0110
0010
0001
0100
0110
1000
,
0001
0000
0110
1000
0100
0000
0110
0010
,
0001
0000
0110
1000
0010
0100
0001
1000
,
0100
0000
0110
0001
0010
0100
0110
1000
,
0001
0000
0110
0001
0010
1000
0110
0100
,
0001
0000
0110
0010
0001
0100
0110
1000
,
0001
0010
1000
0100
1001
0000
0010
0010
,
0100
0001
0010
0001
0100
0001
0010
0001
,
0100
0001
0010
0001
0100
1000
1000
0000
,
0010
0001
0100
0100
0001
1000
0010
1000
,
0001
0010
1000
0001
0010
0100
1000
0100
,
1000
0001
0001
0100
0010
0100
1000
0010
,
0100
0001
0010
0100
2000
3002
0203
0000
,
0310
0001
0100
1000
0100
1000
0001
0010
,
0100
0010
0010
1000
0001
0100
0001
1000
,
0001
1000
0100
0100
1000
0010
0001
0010
,
1000
0100
1000
0010
1000
0100
1000
0010
,
0100
0000
0000
0000
0001
0000
0010
0100
0010
0000
0001
0000
1000
0000
0100
0000
,
1000
0000
0010
0000
1000
0000
0100
0010
0001
0000
0100
0000
0001
0000
1000
0000
,
0010
1000
0100
0001
0010
0001
0100
1000
,
0010
0000
1000
0100
1000
0000
0001
0100
0002
0000
0000
0000
0023
0000
0000
0000
,
0130
0000
0010
0000
0001
0000
0100
0010
1000
0000
0001
0000
1000
0000
0100
0000
,
0010
0000
0001
0000
1000
0000
0001
0100
0010
0000
1000
0000
0100
0000
0010
0000
,
0001
1000
0001
1000
0010
0100
0010
0100
0001
1000
0001
1000
0010
0100
0010
0100
,
0001
0000
0000
0000
0001
0000
0000
0000
0001
0000
1000
0001
0100
0000
0000
0000
,
0010
1000
0100
0001
0000
0001
0100
1000
,
0010
0100
0010
0100
0010
0100
0010
0100
0010
0000
0000
0000
1001
0000
0000
0000
,
1000
0001
0100
0001
0010
0100
0001
0000
,
0010
1000
0001
0010
0100
0001
1000
0000
,
0100
0010
1000
0100
0001
1000
0010
0000
,
0001
0100
0010
0100
1000
0001
0100
0000
,
0010
0000
1000
0000
0100
0000
0010
0000
0001
0000
1000
0001
0000
1000
0001
0000
,
0010
0001
0010
0001
0100
1000
0100
1000
,
0001
1000
0010
0001
0100
0010
1000
0000
,
0010
1000
0100
0010
1000
0100
0001
0000
,
0010
0001
1000
0010
0001
1000
0100
0000
,
0010
0001
0100
0010
1000
0100
0001
0000
,
1000
0100
0001
0100
0010
0001
0100
0000
,
0010
1000
0001
0010
1000
0010
0100
0000
,
1100
0000
0000
0110
0000
0000
0011
0000
0011
0000
0000
0110
0000
0000
1100
0000
,
1100
0001
0100
0001
0100
0001
0100
0001
,
0010
0000
0100
1000
0010
0000
1000
0001
0000
0001
0100
0000
0010
0000
1000
0000
,
0100
0000
0010
0001
1000
0000
0001
0010
0000
0001
0100
0010
1000
0000
0100
0000
,
0010
0000
0001
0100
0001
0000
1000
0010
0000
1000
0100
0000
1000
0000
0001
0000
,
0010
0000
0100
1000
0010
0000
1000
0001
0000
0001
0010
0000
0001
0000
0100
0000
,
0010
0000
1000
0100
1000
0000
0010
0100
0000
0001
0100
0001
0020
0000
0000
0000
,
0130
0000
1000
0010
1000
0000
0100
0010
0000
0001
0100
0001
0200
0000
0000
0000
,
0310
0000
1000
0001
1000
0000
0100
0010
0000
0010
0001
0000
0100
0000
0010
0000
,
1000
0000
1000
0000
1000
0000
0001
0100
0001
0100
0001
0000
0020
0000
0000
0000
,
0031
0010
0100
1000
0000
1000
0010
0001
,
0100
0010
1000
0001
0100
0010
1000
0001
,
2002
0000
0000
3003
,
1000
0001
1000
0001
1000
0001
1000
0001
1000
0000
0000
0000
0000
0000
0000
0000
,
1001
0000
0000
0000
;

//---------------dance-single - ----------------
#NOTES:
     dance-single:
     :
     Challenge:
     17:
     :
0000
0000
0000
0000
,
0000
0000
0000
0000
,
0000
0000
0000
0000
,
2002
0000
0000
3003
,
1000
0001
1000
0001
1000
0001
1000
0001
1000
0000
0000
0000
0000
0000
0010
0000
,
0010
0000
1000
0000
0100
0000
0001
1000
0001
0000
0010
0000
0100
0000
1000
0000
,
0010
0000
0100
0000
0001
0000
1000
0010
1000
0000
0001
0000
1000
0000
0100
0000
,
0020
0000
0032
0000
2003
0000
3200
0000
1300
0010
0100
0010
1000
0000
0001
0000
,
0100
0000
0001
0010
0001
0000
1000
0010
2000
0000
0000
0000
3100
0000
0000
0000
,
1001
0000
0010
0000
0100
0000
0001
1000
0001
0000
0010
0100
0010
0000
0001
0000
,
1000
0000
0100
0000
0001
0000
0010
0100
0010
0000
0001
0000
1000
0100
1000
0000
,
0001
0010
0001
0010
0100
1000
0100
1000
0001
0100
0001
0100
0010
1000
0010
1000
,
0001
0000
0100
0000
0001
0000
0100
0000
0001
0000
1000
0100
0010
0000
0000
0000
,
1001
0000
0010
0000
0100
0000
0001
0010
0000
0001
1000
0000
0010
0000
0100
0000
,
0001
1000
0000
1000
0100
0010
0000
0001
0000
0100
0010
0100
0001
0000
1000
0000
,
0010
0000
1000
0100
1000
0000
0001
0100
0000
0100
0010
1000
0001
0000
0010
0000
,
0100
0000
1000
0010
1000
0000
0100
0010
0000
0010
0001
0100
0001
0000
1000
0000
,
0010
0000
1000
0001
1000
0000
0100
0010
0000
0100
1000
0000
0001
0000
0100
0000
,
0010
1000
0000
1000
0001
0010
0000
0001
0000
0100
0010
1000
0001
0000
0100
0000
,
0010
0000
0100
0001
0010
0000
0100
1000
0000
1000
0001
1000
0100
0000
0010
0000
,
0001
0000
1000
0100
1000
0000
0010
0100
0000
0010
1000
0001
1000
0000
0100
0000
,
0110
0000
0010
0000
0001
0000
0100
0010
0000
0010
1000
0001
1000
0000
0100
0000
,
1000
0000
0010
0100
0010
0000
1000
0001
0000
0001
0010
0001
1000
0000
0100
0000
,
0010
0000
0001
0100
0001
0000
0010
0100
0000
1000
0001
1000
0001
0000
0100
0000
,
0010
0000
1000
0100
0010
0000
0001
1000
0000
0100
1000
0001
0100
0000
0010
0000
,
1000
0000
0100
1000
0001
0000
0010
0100
0000
0010
0001
0010
0001
0000
1000
0000
,
0010
0000
0100
0001
0010
0000
0001
1000
0000
1000
0100
1000
0001
0000
0010
0000
,
0001
0000
0100
0000
1000
0000
0010
0100
0010
0100
0010
0100
0010
1000
0001
0000
,
0100
0000
0100
0000
0100
0000
0010
1000
0001
0000
0010
0100
1000
0000
0000
0000
,
1001
0000
1001
0000
1001
1001
0000
0100
,
0101
0100
0101
0000
0101
0000
1001
0000
,
1100
0100
1100
0000
0011
0001
1001
1000
,
1010
0010
0110
0000
0110
1000
1000
0000
,
1100
0001
0100
1000
0010
1000
0001
0010
,
0100
1000
0010
0001
1000
0010
0001
0100
,
0001
1000
0001
1000
0100
1000
0100
1000
0010
0100
0010
0100
0001
0010
0001
0010
,
0001
0000
1000
0100
0010
0000
0001
0100
0010
0000
1000
0001
0100
0000
0000
0000
,
0010
0000
0110
0001
1000
0010
0110
0100
,
0001
0010
0110
0100
1000
0001
0110
0010
,
1000
0000
0100
0000
0110
0000
0010
0000
0001
0000
1000
0000
0110
0000
0010
0100
,
0001
0000
0100
0000
0110
0000
0010
0000
1000
0000
0001
0100
0001
0000
1000
0000
,
1000
0010
0110
0001
1000
0100
0110
0010
,
0001
0100
0110
0001
1000
0010
0110
1000
,
0001
1000
0110
0010
0100
0010
0110
0001
,
0010
0001
0001
1000
1000
0000
0010
0010
,
0010
0000
1000
0000
0100
0000
0001
0000
0100
0000
1000
0000
0010
0100
0001
1000
,
0100
0000
0010
0000
0100
1000
0010
1000
0001
0000
0100
0000
1010
0000
0000
0000
,
0011
0000
0100
0000
1000
0000
0010
0100
0001
0000
0010
0000
0001
1000
0100
0000
,
1000
0000
0010
0000
0100
0000
0001
0010
0001
0000
1000
0000
0100
0010
0001
0000
,
0100
0000
0010
1000
0010
0000
1000
0100
1000
0000
0001
0000
0100
0001
0010
0000
,
0001
0000
0010
0100
0010
0000
0001
1000
0002
0000
0203
0000
0320
0000
1030
0000
,
1001
0000
0000
0000
0010
0000
1000
0001
1000
0000
0100
0000
0010
0001
0100
0000
,
0010
0000
1000
0001
1000
0000
0100
0000
0010
0000
0001
0000
0100
0010
1000
0000
,
0001
0000
0010
0001
0100
0000
0010
0000
1000
0001
0010
0000
0100
0000
1000
0000
,
0002
0023
2030
3020
0032
0203
2300
3200
,
0301
0000
0000
0000
0010
0001
0000
0000
0100
0000
0010
1000
0010
0000
0100
0000
,
0001
0000
0010
0000
0001
0000
0100
0010
1000
0000
0001
0000
1000
0000
0100
0000
,
2000
0000
3020
0000
0230
0000
0302
0000
0023
0000
0031
0100
0001
0000
1000
0000
,
0010
0000
1000
0100
1000
0000
0001
0100
0002
0000
0000
0000
2003
0000
0000
0000
,
3010
0000
0100
0000
0010
1000
0001
0000
0010
0000
0100
1000
0001
0000
0100
0000
,
0010
0000
0100
0000
0001
0000
1000
0010
1000
0000
0001
0000
1000
0001
0100
0000
,
0010
1000
0010
1000
0001
0100
0001
0100
0001
0010
0001
0010
0100
1000
0100
1000
,
0001
0000
0100
0000
0001
0000
0010
0000
0001
0000
1000
0001
0100
0000
0000
0000
,
0100
0000
0010
1000
0010
0000
0100
0000
0000
0000
0001
0000
0010
0000
1000
0000
,
0100
0010
0100
0010
0100
0010
0100
0010
0200
0000
1000
0000
1300
0000
0000
0000
,
0001
0000
0000
1000
0010
0000
0000
0001
1000
0000
0000
0010
0100
0000
0000
0100
,
0010
0000
0000
0001
1000
0000
0000
0100
0001
0000
0000
0010
0100
0000
1000
0000
,
0001
0000
0000
0001
1000
0000
0000
0010
0100
0000
0000
1000
0010
0000
0000
0100
,
1000
0000
0000
0100
0001
0000
0000
0001
0010
0000
0000
0010
0100
0000
1000
0000
,
0001
0000
0000
0010
0001
0000
0100
0000
1000
0000
0010
1000
0000
1000
0100
0000
,
2000
3020
0230
0320
0032
0023
0230
0320
,
1030
0000
0000
0001
0010
0000
0000
1000
0100
0000
0000
0010
0001
0000
0000
0100
,
0010
0000
0000
0001
0100
0000
0000
0010
1000
0000
0000
1000
0001
0000
0100
0000
,
0010
0000
0000
0100
1000
0000
0000
0010
0001
0000
0000
1000
0100
0000
0000
0001
,
1000
0000
0000
0001
0010
0000
0000
1000
0100
0000
0000
0010
0001
0000
0100
0000
,
0010
0000
0000
0001
0100
0000
0000
0010
0001
0000
0000
0100
1000
0000
0000
1000
,
0010
0000
0000
1000
0001
0000
0000
0010
1000
0000
0000
0001
0100
0000
0000
0100
,
0010
0000
1000
0010
0000
1000
0010
0000
0100
0000
0001
0100
0000
0001
0100
0000
,
0020
2030
3200
0302
0023
0032
0203
2300
,
3010
0000
0100
0001
0100
0000
0010
1000
0000
1000
0100
0010
0001
0000
1000
0000
,
0010
0000
1000
0001
1000
0000
0100
0010
0000
0010
0001
0100
0001
0000
1000
0000
,
0010
0000
1000
0001
1000
0000
0100
0010
0000
0010
0001
0100
0010
0000
1000
0000
,
0100
0000
0010
0100
1000
0000
0010
1000
0000
1000
0001
0000
0100
0000
0001
0000
,
0010
0000
0001
1000
0001
0000
0100
0010
0000
0010
1000
0001
0200
0000
0000
0000
,
0301
0000
0010
0001
1000
0000
0010
1000
0000
1000
0100
0010
0002
0000
2003
0000
,
3010
0000
1000
0100
0010
0000
0001
0100
0000
0100
0010
1000
0001
0000
0100
0000
,
0001
0000
0001
0000
0001
0000
0010
0100
0010
0100
0010
0000
0002
0000
2003
0000
,
3010
1000
0100
0001
0010
1000
0100
0001
,
0010
0100
1000
0001
0010
0100
1000
0001
,
2002
0000
0000
3003
,
1000
0001
1000
0001
1000
0001
1000
0001
1000
0000
0000
0000
0010
0000
0010
0000
,
1001
0000
0000
0000
;
