#TITLE:KI・SE・KI (DDR edit);
#ARTIST:Be For U;
#BANNER:KI SE KI (DDR edit).png;
#BACKGROUND:KI SE KI (DDR edit)-bg.png;
#JACKET:KI SE KI (DDR EDIT)-jacket.png;
#MUSIC:KI SE KI (DDR edit).ogg;
#SAMPLESTART:51.86;
#SAMPLELENGTH:20;
#DISPLAYBPM:155;
#BPMS:0=155;
#BGCHANGES:0=KI SE KI (DDR EDIT).avi=1=0=0=0,
;

//---------------dance-single - ----------------
#NOTES:
     dance-single:
     :
     Beginner:
     3:
     :
0000
0000
0000
0000
,
0000
0000
0000
0000
,
0000
0000
0000
0000
,
0000
0000
0000
0000
,
0000
0000
0000
0000
,
2000
0000
3000
0000
,
0020
0000
0030
0000
,
0200
0000
0300
0000
,
0002
0000
0003
0000
,
1000
0000
1000
0000
,
0010
0000
0010
0000
,
0001
0001
0001
0000
,
0100
0100
0100
0000
,
0001
0000
0001
0000
,
0100
0000
0100
0000
,
1000
1000
1000
0000
,
0010
0010
0010
0000
,
0001
0001
0001
0000
,
1000
0000
0100
0000
,
1000
1000
1000
0000
,
0001
0000
0010
0000
,
0001
0001
0001
0000
,
1000
0000
0100
0000
,
1000
1000
1000
0000
,
0110
0000
1001
0000
,
0000
0000
0010
0010
,
0000
0000
0010
0010
,
0000
0001
0000
0100
,
0000
1000
0000
0100
,
0000
0000
0100
0100
,
0000
0000
0100
0100
,
0000
1000
0000
0010
,
0000
0001
0000
0000
,
1001
0000
0000
0000
,
1000
1000
1000
0000
,
0001
0001
0001
0000
,
1000
0000
0001
0000
,
0010
0010
0010
0000
,
1000
0000
0100
0000
,
1000
0000
0100
0000
,
0001
0000
0100
0000
,
0001
0000
0110
0000
,
0001
0001
0001
0000
,
1000
1000
1000
0000
,
0001
0000
1000
0000
,
0100
0100
0100
0000
,
0001
0000
0010
0000
,
0001
0000
0010
0000
,
1000
0000
0010
0000
,
1000
0000
0110
0000
,
0000
0010
0010
0000
,
0100
0100
0100
0000
,
0001
0000
1000
0000
,
0110
0110
0000
0000
,
0000
0100
0100
0000
,
0010
0010
0010
0000
,
1000
0000
0001
0000
,
1000
0000
1001
0000
,
0010
0000
0001
0000
,
0100
0000
1000
0000
,
0010
0000
1001
0000
,
0110
0110
0000
0000
,
0100
0000
0001
0000
,
0010
0000
1000
0000
,
0100
0000
1001
0000
,
0110
0110
0000
0000
,
1001
0000
0000
0000
;

//---------------dance-single - ----------------
#NOTES:
     dance-single:
     :
     Easy:
     7:
     :
0000
0000
0000
0000
,
0000
0000
0000
0000
,
0000
0000
0000
0000
,
0000
0000
0000
0000
,
0000
0000
0000
0000
,
0000
0000
0000
0000
,
0000
0000
0000
0000
,
0000
0000
0000
0000
,
0000
0000
0000
0000
,
0010
0000
0010
0000
,
1000
0000
1000
0000
,
0001
0001
0001
1000
,
0001
1000
0100
0000
,
0010
0000
0010
0000
,
0001
0000
0001
0000
,
1000
1000
1000
0001
,
1000
0001
0100
0000
,
0001
0001
1000
0100
,
1000
0001
0100
0000
,
1000
1000
0001
0100
,
0001
1000
0100
0000
,
0001
0001
1000
0010
,
1000
0001
0010
0000
,
0100
0100
0010
1000
,
0010
0100
0110
0000
,
0010
0000
0001
0001
,
0100
0000
0001
0001
,
0001
0100
0001
0100
,
1000
0100
1000
0000
,
0010
0000
1000
1000
,
0100
0000
1000
1000
,
0001
0100
1000
0100
,
0010
0100
1001
0000
,
0000
0000
1000
0001
,
0010
1000
0010
1000
,
0001
0001
0110
0000
,
0010
0001
0010
0001
,
1000
0001
1000
0001
,
0010
0010
1000
0001
,
0100
0100
0001
0000
,
0010
0001
0010
0001
,
0100
1000
0100
0000
,
0100
0001
0100
0001
,
1000
1000
0110
0000
,
0100
1000
0100
1000
,
0001
1000
0001
1000
,
0100
0100
0001
1000
,
0010
0010
1000
0000
,
0100
1000
0100
1000
,
0010
0001
1000
0000
,
0001
0001
0001
0000
,
0010
0010
1000
0100
,
1000
1000
1000
0000
,
0010
0010
0001
1000
,
1000
1000
1000
0000
,
0010
0010
0001
0100
,
0001
0001
0001
0000
,
0010
0010
1000
0000
,
1000
1000
0001
0100
,
0001
0001
1000
0100
,
0010
0001
1000
0100
,
1000
0000
0000
0000
,
0001
0001
1000
0100
,
1000
1000
0001
0100
,
0010
1000
0001
0100
,
0010
0010
0100
0100
,
1001
0000
0000
0000
;

//---------------dance-single - ----------------
#NOTES:
     dance-single:
     :
     Medium:
     9:
     :
0000
0000
0000
0000
,
0000
0000
0000
0000
,
0000
0000
0000
0000
,
0000
0000
0000
0000
,
0000
0000
0000
0000
,
0002
1000
0000
0103
,
0020
0100
0000
1030
,
0200
0010
0000
0301
,
2000
0001
0000
3100
,
0001
0001
1000
0100
,
1000
0010
0001
0100
,
0001
0001
1000
0100
,
0001
0100
0001
1000
,
1000
1000
0001
0100
,
0001
0010
1000
0100
,
1000
1000
0001
0100
,
1000
0100
1000
0001
,
0001
1000
0100
0000
0010
0001
0100
0000
,
0010
1000
0100
0101
,
1000
0001
0100
0000
0010
1000
0100
0000
,
0010
0001
0100
1100
,
1000
0001
0010
0000
0100
1000
0010
0000
,
0100
0001
0010
0011
,
0001
1000
0010
0000
0100
0001
0010
0000
,
0100
1000
0110
0011
,
0001
0010
0100
0000
1000
0000
1000
0000
,
0001
0100
0010
0000
1000
0000
1000
0000
,
0001
0100
0001
0100
,
1000
0101
1000
0101
,
1000
0010
0100
0000
0001
0000
0001
0000
,
1000
0100
0010
0000
0001
0000
0001
0000
,
1000
0100
0001
1100
,
0010
0100
1001
0110
,
1001
0000
0000
0000
,
1001
0000
0101
0000
1000
0001
0100
0000
,
0001
0010
0100
0000
2000
3000
0110
0000
,
0001
0010
0100
0000
0001
0010
0100
0000
,
1000
0010
0100
0000
1100
0000
0001
0000
,
0011
1000
0010
0001
,
1010
0001
0010
1000
,
1100
0001
0100
1000
,
0011
1100
0101
1100
,
1001
0000
1010
0000
0001
1000
0010
0000
,
1000
0100
0010
0000
0002
0003
0110
0000
,
1000
0010
0100
0000
1000
0010
0100
0000
,
0001
0010
0100
0000
0011
0000
1000
0000
,
1100
0001
0100
1000
,
0101
1000
0100
0001
,
0011
1000
0010
0001
,
1010
0101
1100
0101
,
0010
0000
0010
0000
0001
0100
0001
0000
,
1000
0000
1000
0000
0001
0100
0001
0100
,
0010
0100
0010
0100
,
0010
1000
0001
0110
,
0100
0000
0100
0000
1000
0010
1000
0000
,
0001
0000
0001
0000
1000
0010
1000
0010
,
0100
0010
0100
0010
,
0100
0001
1000
0110
,
0001
0000
0010
0000
0100
1000
0001
0000
,
0100
0001
1000
0000
0100
0000
0001
0000
,
1000
0010
0100
0000
0001
0000
0010
0000
,
1001
0000
0000
0000
,
1000
0000
0010
0000
0100
0001
1000
0000
,
0100
1000
0001
0000
0100
0000
1000
0000
,
0001
0010
0100
0000
1000
0010
0100
0000
,
0001
0010
0100
1000
0010
0000
0100
0000
,
1001
0000
0000
0000
;

//---------------dance-single - ----------------
#NOTES:
     dance-single:
     :
     Hard:
     12:
     :
0000
0000
0000
0000
,
0000
0000
0000
0000
,
0000
0000
0000
0000
,
0000
0000
0000
0000
,
0000
0000
0000
0000
,
0020
0000
0000
0000
1000
0000
0000
0030
0001
0000
0100
0000
0000
0000
0000
0000
,
0002
0000
0000
0000
0010
0000
0000
0003
0100
0000
1000
0000
0000
0000
0000
0000
,
0020
0000
1000
0030
0001
0100
0000
0000
,
0200
0000
0010
0300
0001
1000
0000
0000
,
0001
0000
0000
1000
0000
0000
0010
0000
0100
0000
0000
0001
0000
0000
1000
0000
,
0010
0000
0000
1000
0000
0000
0100
0000
0010
0000
0000
0001
0000
0000
0100
0000
,
0010
0000
0010
0000
1000
0001
0100
0000
,
0001
1100
0010
0101
,
1000
0000
0000
0001
0000
0000
0010
0000
0100
0000
0000
1000
0000
0000
0001
0000
,
0010
0000
0000
0001
0000
0000
0100
0000
0010
0000
0000
1000
0000
0000
0100
0000
,
0010
0000
0010
0000
0001
1000
0100
0000
,
1000
0101
0010
1100
,
0001
1000
0010
0000
0100
0001
0100
0000
,
0001
0010
0100
0000
0100
0000
1100
0000
,
1000
0001
0010
0000
0100
1000
0100
0000
,
0001
0010
0100
0000
0100
0000
0101
0000
,
0001
1000
0100
0000
0010
0001
0010
0000
,
0001
0100
0010
0000
0010
0000
1010
0000
,
0001
1000
0100
0000
0001
0010
0100
0000
,
1000
0100
0010
0000
0110
0000
1001
0000
,
0001
0020
0100
0000
0001
0000
0031
0000
,
0001
0200
0010
0000
0001
0000
0301
0000
,
2000
3001
0100
0000
0002
1003
0100
0000
,
2000
3001
0100
0000
0002
1003
0100
0000
,
1000
0020
0100
0000
1000
0000
1030
0000
,
1000
0200
0010
0000
1000
0000
1300
0000
,
0002
1003
0010
0000
2000
3001
0010
0000
,
0001
0000
0000
0000
1000
0000
0000
0000
0100
0001
0100
0000
0001
0010
0001
0000
,
0100
0000
0101
1100
,
1001
0000
0110
0100
1000
0001
0010
1000
,
0100
0010
0001
0100
0020
0030
1001
0100
,
0001
0100
1000
0001
0010
1000
0100
0010
,
0001
0201
0300
0002
0023
0130
0100
0000
,
0011
0000
1000
0100
0010
0001
0100
0001
,
1010
0000
0001
0100
0010
1000
0100
0000
,
1100
0000
0001
0010
0100
1000
0010
0100
,
0001
0101
0000
1000
0010
0100
0001
0000
,
1001
0000
0110
0100
0001
1000
0010
0001
,
0100
0010
1000
0100
0020
0030
1001
0100
,
1000
0100
0001
1000
0010
0001
0100
0010
,
1000
1200
0300
2000
3020
0130
0100
0000
,
1010
0000
0001
0100
0010
1000
0100
1000
,
0011
0000
1000
0100
0010
0001
0100
0000
,
0101
0000
1000
0010
0100
0001
0010
0100
,
1000
1100
0000
0001
0010
0100
1000
0000
,
0010
0100
0010
1000
0010
0100
0010
1000
,
0001
0010
0100
1000
0001
0100
0001
0100
,
0010
1000
0001
0100
0010
1000
0001
0100
,
0010
1000
0100
0010
0001
1000
0010
1010
,
0100
0010
0100
0001
0100
0010
0100
0001
,
1000
0100
0010
0001
1000
0010
1000
0010
,
0100
0001
1000
0010
0100
0001
1000
0010
,
0100
0000
0000
0010
0000
0000
1000
0000
0000
0000
0000
0000
0000
0000
0000
0000
,
0010
0001
0100
0010
1000
0100
0010
0001
,
0100
0010
1000
0100
0010
0001
0100
0010
,
1000
0100
0001
1000
0010
0001
1000
0001
,
0101
0000
0001
0000
0100
0000
0000
0000
0010
0001
0010
0000
0100
0000
0000
0000
,
0100
1000
0010
0100
0001
0010
0100
1000
,
0010
0100
0001
0010
0100
1000
0010
0100
,
0001
0100
1000
0001
0010
1000
0001
1000
,
0001
0000
1000
0000
0100
0000
1000
0000
0010
0001
0010
0000
0001
0100
0001
0000
,
0011
0000
0000
0000
;

//---------------dance-single - ----------------
#NOTES:
     dance-single:
     :
     Challenge:
     15:
     :
0000
0000
0000
0000
,
0000
0000
0000
0000
,
0000
0000
0000
0000
,
0000
0000
0000
0000
,
0000
0000
0000
0000
,
0001
0010
1000
0100
0100
1000
0001
0010
,
1000
0010
1000
0100
0001
0010
0001
0100
,
0010
0001
1000
0100
0100
1000
0010
0001
,
1000
0001
0010
0100
1000
0100
0010
0001
,
1001
0000
0000
0010
0000
0000
1000
0000
0100
0000
0000
0010
0000
0000
0001
0000
,
1000
0000
0000
0010
0000
0000
1000
0000
0100
0000
0000
0010
0000
0000
0001
0000
,
1000
0000
0000
1000
0010
0000
0000
0010
0100
0000
0000
0100
0001
0000
0000
0001
,
0010
0000
0000
0010
0100
0000
0000
0100
1000
0000
0000
1000
0001
0000
0000
0001
,
0100
0000
0000
0010
1000
0000
0100
0000
0010
0000
0000
0001
1000
0000
0010
0000
,
1000
0000
0000
0100
0010
0000
0001
0000
1000
0000
0000
0001
0100
0000
0010
0000
,
1000
0000
0000
0001
1000
0000
0010
0000
0100
0000
0000
0001
0010
0000
0100
0000
,
1000
0100
0010
0001
0001
0010
1000
0100
,
0010
0000
0001
0100
0000
0010
1000
0000
0100
0000
0010
0001
0000
1000
0010
0000
,
1000
0000
0100
1000
0000
0010
0100
0000
0001
0010
0001
0000
0010
0001
0010
0000
,
0001
0000
1000
0010
0000
0100
0001
0000
0010
0000
0100
0010
0000
0001
1000
0000
,
0010
0000
0100
0010
0000
1000
0001
0000
1000
0100
1000
0000
0100
1000
0100
0000
,
0010
0000
0001
0100
0000
0001
1000
0000
0010
0000
1000
0100
0000
0010
0001
0000
,
0100
0000
0001
0010
0000
0001
1000
0000
0010
0100
0010
0000
0100
0010
0100
0000
,
0001
0000
0010
0100
0000
0010
0001
0000
0100
0000
0010
1000
0000
0100
1000
0000
,
0001
0000
0100
0000
0010
1000
0010
0000
0110
0000
0001
0000
0100
0000
1000
0000
,
0110
0000
0010
0000
1000
0000
0001
0000
0100
0010
0000
0010
1000
0001
0100
0000
,
0001
0000
0010
0000
0100
0000
0010
0001
1000
0001
0000
0001
0100
0010
1000
0000
,
0100
0000
1000
0010
1000
0000
0001
0100
0001
0000
1000
0010
1000
0000
0001
0000
,
0010
0000
0001
0100
0000
0001
1000
0000
0100
0010
0100
0000
0010
0100
0010
0000
,
0001
0000
1000
0010
0000
1000
0010
0000
0100
0001
0100
0000
0010
0000
1000
0001
,
1000
0000
0100
0010
0000
0100
0010
0000
0001
1000
0001
0000
1000
0100
0010
0001
,
0100
0000
0010
1000
0000
0010
0100
0000
0001
0000
0010
0100
0000
1000
0001
0000
,
0100
0000
0010
1000
0000
0001
1000
0000
0100
0010
0001
0010
0100
1000
0001
0000
,
0011
0000
0000
1000
0000
1000
0001
0000
1100
0000
0000
0000
0101
0000
0000
0000
,
0011
0000
0000
0110
0000
0000
1100
0000
1010
0000
0000
1001
0000
0000
1100
0000
,
0011
0000
0100
0000
0010
0000
1000
0001
1000
0000
0100
0010
0001
0000
0100
0000
,
1010
0000
0000
1001
0000
0000
0011
0000
1100
0000
0000
1001
0000
0000
0110
0000
,
1010
0000
0000
1100
0000
0000
0101
0000
0010
0001
0010
0100
1000
0001
1000
0100
,
0010
0000
0001
0000
0100
0000
0001
1000
0010
0000
0100
0010
0000
1000
0001
0000
,
1000
0100
1000
0100
0000
0010
0001
0000
0100
0001
0010
0001
0010
0001
1000
0000
,
0010
0000
1000
0001
1000
0000
0100
0000
0010
0000
0001
1000
0001
0000
0100
0000
,
0101
0000
0000
1010
0000
0000
1100
0000
0011
0000
1000
0001
1000
0001
1000
0000
,
0020
0000
0000
2030
0000
0000
3002
0000
0023
0000
0000
0230
0000
0000
2300
0000
,
3020
0000
0000
2030
0000
0000
3002
0000
0103
0001
0010
0100
1000
0010
1000
0000
,
0020
0000
0000
0230
0000
0000
0320
0000
2030
0000
0000
3002
0000
0000
0203
0000
,
0302
0000
0000
2003
0000
0000
3020
0000
1030
0100
0010
0001
0010
0100
1000
0000
,
0110
0000
0001
0000
0100
0000
0010
1000
0001
1000
0000
0100
0010
0000
0001
0000
,
0100
0001
0000
0010
0001
0000
1000
0100
0010
0000
0001
1000
0100
1000
0010
0000
,
1001
0000
0010
1000
0001
0000
0010
0001
0100
0000
0010
1000
0010
0100
0001
0000
,
0010
0000
0001
0100
0000
0010
1000
0000
0100
1000
0001
0000
0010
0001
1000
0010
,
0100
0000
0000
0001
0010
0000
0100
0000
1000
0000
0000
0010
1000
0000
0001
0000
,
0010
0000
0000
0001
1000
0000
0010
0000
1000
0000
0100
0000
0001
0000
0100
0000
,
0010
0000
0001
1000
0001
0000
0100
0010
0100
0000
0010
0000
1000
0000
0001
0000
,
1000
0100
0000
0100
0010
0000
0022
0000
0003
0000
0031
0000
1000
0000
0001
0000
,
0100
0000
0000
0001
0010
0000
0001
0000
1000
0000
0000
0010
0100
0000
0001
0000
,
0010
0000
0001
0100
0000
0010
2000
0000
0000
0000
3100
0000
1000
0001
0100
0000
,
0110
0000
0010
1000
0000
0100
0010
0000
0001
0000
1000
0001
0000
0010
0100
0000
,
1100
0000
0000
0101
0000
0000
1100
0000
0101
0000
1000
0001
1000
0001
1000
0001
,
2000
0000
0000
3020
0000
0000
0230
0000
0302
0000
0000
0023
0000
0000
0230
0000
,
2300
0000
0000
3002
0000
0000
2003
0000
3020
0000
0000
0230
0000
0000
0302
0000
,
0023
0000
0000
0230
0000
0000
2300
0000
3020
0000
0000
0230
0000
0000
0302
0000
,
1003
0000
0010
0000
1000
0001
0010
0001
0100
0010
0100
0001
0000
1000
0100
0000
,
0020
0000
0000
0230
0000
0000
0320
0000
0032
0000
0000
2003
0000
0000
3200
0000
,
2300
0000
0000
3002
0000
0000
0023
0000
0230
0000
0000
2300
0000
0000
3020
0000
,
2030
0000
0000
3200
0000
0000
0320
0000
0032
0000
0000
0203
0000
0000
0302
0000
,
2003
0000
0000
3002
0000
0000
0203
0000
0000
0000
0310
1000
0100
0000
0110
0000
,
1001
0000
0000
0000
;

//---------------dance-double - ----------------
#NOTES:
     dance-double:
     :
     Easy:
     6:
     :
00000000
00000000
00000000
00000000
,
00000000
00000000
00000000
00000000
,
00000000
00000000
00000000
00000000
,
00000000
00000000
00000000
00000000
,
00000000
00000000
00000000
00000000
,
20000000
00000000
00000000
30000000
,
02000000
00000000
00000000
03000000
,
00020000
00000000
00000000
00030000
,
00002000
00000000
00000000
00003000
,
00000100
00000001
00000100
00001000
,
00000100
00000001
00000010
00001000
,
00010000
00000000
02020000
03030000
,
00001000
00000000
00100000
00000000
,
01000000
10000000
01000000
00010000
,
01000000
10000000
00100000
00010000
,
00001000
00000000
00002200
00003300
,
00010000
00010000
00000010
00000010
,
00000100
00001000
00010000
00010000
,
00000010
00010000
00001000
00000000
,
01000000
00010000
00001000
00001000
,
00100000
00001000
00010000
00000000
,
00000100
00000100
00000010
00000010
,
00001000
00010000
01000000
00000000
,
10000000
00010000
01000000
00100000
,
00022000
00000000
00033000
00000100
,
00000010
00000000
00000000
00000110
,
00000001
00000000
00000100
00000110
,
00001000
00001000
00010000
00010000
,
01000000
00000000
10000000
11000000
,
00200000
00300000
00010000
00001000
,
00200000
00300000
01000000
00010000
,
00001000
00001000
00010000
00010000
,
00000010
00000010
00000200
00000300
,
00001001
00000000
00000010
00000010
,
00000001
00000010
00001000
00001000
,
00010000
00001000
01000000
00000000
,
00100000
10000000
00100000
00010000
,
00001000
00000000
00000100
00000100
,
00000101
00000000
00000010
00001000
,
00010000
00010000
00010100
00000000
,
01001000
00000000
00000000
00010000
,
00101000
00000000
01100000
00000000
,
10000000
00100000
00010000
00010000
,
00001000
00010000
00000100
00000000
,
00000010
00000000
00000001
00000101
,
00001000
00010000
01000000
01000000
,
10010000
00000000
00100000
00100000
,
00010000
00001000
00011000
00000000
,
00001100
00000000
00010000
00010000
,
00001010
00000000
00000100
00000100
,
00000010
00010000
00001000
00010000
,
00001000
00100000
00010000
00000000
,
10000000
01000000
00100000
01000000
,
00010000
00001000
00001000
00000000
,
00100000
00001000
00010000
00001000
,
00010000
00000010
00001000
00000000
,
00000001
00000100
00000010
00000100
,
00001000
00010000
00010000
00000000
,
02000000
03000000
10000000
00100000
,
00010000
00000000
00000010
00010000
,
00001000
00000000
00000100
00000001
,
00002200
00003300
00000000
00000000
,
00000020
00000030
00000001
00000100
,
00001000
00000000
01000000
00001000
,
00010000
00000000
00001000
00100000
,
01000000
00010000
00022000
00033000
;

//---------------dance-double - ----------------
#NOTES:
     dance-double:
     :
     Medium:
     8:
     :
00000000
00000000
00000000
00000000
,
00000000
00000000
00000000
00000000
,
00000000
00000000
00000000
00000000
,
00000000
00000000
00000000
00000000
,
00000000
00000000
00000000
00000000
,
20000000
00100000
00000000
30100000
,
02000000
00001000
00000000
03001000
,
00020000
00000010
00000000
00030010
,
00000200
00000001
00000000
00000301
,
00000010
00000100
00010000
00011000
,
00000100
00000000
00000001
00000000
00000010
00000000
00001000
00010000
,
00001000
00000000
00000000
00100000
00020000
00000000
00030000
00000000
,
01000000
00010000
00010000
10000000
,
00100000
01000000
00001000
00011000
,
01000000
00000000
10000000
00000000
00100000
00000000
00010000
00001000
,
00010000
00000000
00000000
00000100
00000020
00000000
00000030
00000000
,
00001000
00001000
00010000
00010000
,
00000010
00000000
00010000
00001000
00010000
00000000
00000100
00000000
,
00000010
00001000
00010000
01000000
,
00100000
00000000
00001000
00010000
00001000
00000000
01000000
00000000
,
00100000
00010000
00001000
00000100
,
00000001
00000000
00001000
00000010
00000100
00000000
00001000
00000000
,
00100000
00011000
01000000
10000000
,
00100000
00010000
00001000
00000010
,
00000200
00000000
00000300
00000000
00000000
00010000
00001000
00010000
,
00001000
00000000
00000000
00100000
,
11000000
00000000
00000000
00010000
02000000
00000000
03000000
00000000
,
00100000
00100000
00010000
00001000
,
00000010
00001000
00010000
00000000
,
01000000
10000000
00100000
01100000
,
00001000
00010000
00000100
00000110
,
00001000
00011000
00100000
00010000
,
00001000
00000000
00010000
01000000
00200000
00000000
00300000
00000000
,
10010000
00000000
00100000
00010000
,
00001000
00000000
00000100
00000000
00000010
00000000
00010000
00001000
,
00100000
00010000
10000000
00100000
,
00010000
00000000
00001000
00000000
00100000
00000000
00001000
00010000
,
00000100
00000100
00000010
00000100
,
00001001
00000000
00000010
00001000
,
00010000
00010000
00100000
10000000
,
01010000
00000000
00100000
00010000
,
00010100
00000010
00001010
00001000
,
00010000
00000000
01000000
00000000
00100000
00000000
00001000
00010000
,
00000010
00001000
00000001
00000010
,
00000100
00000000
00000000
00000000
00001001
00000000
00000000
00000000
00000010
00000000
00000000
00000001
00000000
00000000
00000010
00000000
,
00001000
00001000
00010000
01100000
,
10010000
00000000
00100000
00010000
,
00001000
00001000
00000010
00000001
,
00001100
00000000
00000000
01010000
,
00011000
00000000
00000010
00000110
,
00001000
00010000
00000010
00010000
,
00001000
00000000
00100000
00000000
01000000
10000000
00010000
00000000
,
00100000
01000000
00100000
00010000
,
00001000
00000010
00000100
00001100
,
00010000
00001000
00100000
00001000
,
00010000
00000000
00000010
00000000
00000100
00000001
00001000
00000000
,
00000010
00000100
00000010
00001000
,
00010000
00100000
01100000
00000000
,
20000000
00000000
00100000
01000000
,
30100000
00000000
00010000
00000000
00001000
00000000
00010000
00001000
,
00000020
00000000
00000001
00001030
,
00000200
00000300
00001000
00001100
,
00000002
00000000
00000010
00000100
,
00000013
00000000
00001000
00000000
00010000
00000000
00001000
00010000
,
02000000
00000000
10000000
03010000
,
00001000
00000000
00000000
00010000
00000000
00000000
01000000
00000000
00000000
00000000
00000000
00000000
00000000
00000000
10000000
00000000
,
00010000
00000000
00000000
00000000
;

//---------------dance-double - ----------------
#NOTES:
     dance-double:
     :
     Hard:
     10:
     :
00000000
00000000
00000000
00000000
,
00000000
00000000
00000000
00000000
,
00000000
00000000
00000000
00000000
,
00000000
00000000
00000000
00000000
,
00000000
00000000
00000000
00000000
,
00200000
00000000
01000000
00000000
00000000
00010000
00300000
00000000
,
00020000
00000000
00000010
00000000
00000000
00000100
00030000
00000000
,
00000200
00000000
00000010
00000000
00000000
00001000
00000300
00000000
,
00002000
00000000
00000100
00000000
00000000
00000001
00003000
00000000
,
00001000
00000000
00000101
00000000
00000010
00000000
00000100
00010000
,
00000010
00000000
00000110
00000000
00001000
00000000
00001000
00010000
,
01000000
00000000
10000000
01000000
10000000
00000000
00100000
01000000
,
00100000
00000000
00010000
00001000
00010000
00000000
00001000
00000000
,
00010000
00000000
11000000
00000000
00100000
00000000
01000000
00001000
,
00100000
00000000
01100000
00000000
00010000
00000000
00010000
00001000
,
00000100
00000000
00000001
00000100
00000001
00000000
00001000
00000100
,
00001000
00000000
00001000
00000000
00000100
00010000
00001000
01000000
,
00010000
00000000
01001000
00000000
00100000
00010000
00001000
00000000
,
00010000
00000000
00001000
00000000
00000101
00000000
00000001
00000010
,
00001000
00000000
00010100
00000000
00000010
00000000
00001000
00010000
,
00100000
00000000
10000000
00000000
11000000
00000000
10000000
00100000
,
00010000
00000000
00011000
00000000
00000100
00000000
00000001
00000010
,
00001000
00000000
00011000
00000000
01001000
00000000
00100000
00010000
,
00001000
00000000
00000110
00000000
00000001
00000000
00000010
00001000
,
00020000
00000000
00030000
00000000
00000000
00001000
00010000
01000000
,
10000000
00000000
00000000
10000000
,
01100000
00000000
01000000
00001000
00010000
00000000
00010100
00000000
,
00000010
00000011
00000100
00001100
,
00000001
00000000
00000000
00000100
00000000
00000000
00001000
00000000
00010000
00000000
00000000
00000000
01010000
00000000
00000000
00000000
,
10000000
00000000
00000000
00100000
00000000
00000000
00010000
00000000
00001000
00000000
00000000
00000000
00000110
00000000
00000000
00000000
,
00000001
00000000
00000000
00000010
00000000
00000000
00001000
00000000
00010000
00000000
00000000
00000000
01100000
00000000
00000000
00000000
,
00010000
00000000
00000000
00001000
00000000
00000000
00000010
00000000
00001000
00000000
00000000
00010000
00000000
00000000
00000100
00000000
,
00001000
00011000
02200000
03300000
,
10010000
00000000
00011000
00001001
,
00000010
00000000
00000010
00001000
00000100
00000010
00001000
00010000
,
00100000
10100000
01000000
10010000
,
00100000
00000000
00010000
00001000
00010000
00000000
00001010
00000000
,
00000001
00000110
00011000
00110000
,
02000000
00000000
10000000
03010000
,
00002000
00000000
00010000
00003100
,
00000020
00000000
00001030
00000100
00000000
00010000
00001000
00010000
,
00000010
00000101
00000010
00001000
,
00100000
00000000
00100000
00010000
01000000
00100000
00010000
00001000
,
00000010
00000011
00000100
00001001
,
00000010
00000000
00000000
00000000
00001000
00000000
00010000
00000000
00001000
00000000
00000000
00000100
00000000
00000000
00000001
00000000
,
00000100
00000000
00000000
00001000
00000000
00000000
00010000
00000000
00000000
00000000
00000000
00000000
01100000
00000000
00000000
00000000
,
10000000
00000000
00010000
10000000
01000000
00000000
00100000
00000000
,
00001000
00000000
00010000
00000010
00000100
00000000
00000001
00000000
,
00001100
00000000
00000001
00000010
00000000
00001000
00010000
01000000
,
00010000
00010010
00000101
00001010
,
00000001
00000000
00000000
00000010
00000000
00000000
00000001
00000000
00000100
00000000
00000000
00001000
00000000
00000000
00000100
00000000
,
00001000
00000000
00000000
00010000
00000000
00000000
01000000
00000000
10000000
00000000
01000000
00000000
00010000
00000000
01000000
00000000
,
00010000
00000000
00000000
00001000
00000000
00000000
01000000
00000000
00001000
00000000
00000000
00010000
00000000
00000000
00000010
00000000
,
00000100
00000000
00000000
00001000
00000000
00000000
00010000
00000000
00100000
00000000
00000000
00000000
01010000
00000000
00000000
00000000
,
10000000
00000000
00000000
00100000
00000000
00000000
10000000
00000000
01000000
00000000
00000000
00010000
00000000
00000000
01000000
00000000
,
00010000
00000000
00000000
00001000
00000000
00000000
00000100
00000000
00000001
00000000
00000100
00000000
00001000
00000000
00000100
00000000
,
00001000
00000000
00000000
00010000
00000000
00000000
00000010
00000000
00010000
00000000
00000000
00001000
00000000
00000000
01000000
00000000
,
10000000
00000000
00000000
01000000
00000000
00000000
00010000
00000000
00000000
00000000
00000000
00000000
00000000
00000000
00000000
00000000
,
00100000
00000000
01010000
00000000
10000000
00000000
01000000
00010000
,
00000010
00000000
00001100
00000000
00000001
00000000
00000100
00001000
,
01000000
10010000
00100000
00010000
,
00002000
00003000
01001000
00010100
,
00000010
00000000
00000101
00000000
00000010
00000000
00001000
00010000
,
00100000
00000000
11000000
00000000
00100000
00000000
00010000
00001000
,
00000010
00000000
00001001
00000000
00000100
00000000
00000010
00001000
,
00010000
00000000
00000000
01000000
00000000
00000000
10000000
00000000
00000000
00000000
00000000
00000000
00000000
00000000
00100000
00000000
,
00010000
00000000
00000000
00000000
;
