#TITLE:KEEP IT GOING;
#ARTIST:K.Wit feat. Anthony Shoemo;
#BANNER:KEEP IT GOING-bn.png;
#BACKGROUND:KEEP IT GOING-bg.png;
#JACKET:KEEP IT GOING-jacket.png;
#MUSIC:KEEP IT GOING.ogg;
#SAMPLESTART:52.82;
#SAMPLELENGTH:20;
#DISPLAYBPM:100;
#BPMS:0=100;
#BGCHANGES:;

//---------------dance-single - ----------------
#NOTES:
     dance-single:
     :
     Beginner:
     2:
     :
0000
0000
0000
0000
,
0000
0000
0000
0000
,
0010
0000
0001
0000
,
0100
0000
1000
0000
,
0010
0000
0100
0000
,
0001
0000
1000
0000
,
0010
0000
1000
0000
,
0001
0000
0100
0000
,
0001
0000
0100
0000
,
1000
0000
0010
0000
,
0001
0000
1000
0000
,
0100
0000
0010
0000
,
0001
0000
0010
0000
,
0100
0000
1000
0000
,
0010
0010
0000
0000
,
1000
0000
0001
0000
,
0100
0100
0000
0000
,
0001
0000
1000
0000
,
0001
0001
0000
0000
,
0010
0000
0100
0000
,
1000
1000
0000
0000
,
0010
0000
0100
0000
,
0001
0001
0000
0000
,
1000
1000
0000
0000
,
0010
0010
0000
0000
,
0100
0000
0100
0000
,
0010
0010
0000
0000
,
0100
0100
0000
0000
,
0001
0001
0000
0000
,
1000
0000
1000
0000
,
0100
0000
0010
0000
,
0001
0000
1000
0000
,
0100
0100
0000
0000
,
1000
0000
0001
0000
,
1000
1000
0000
0000
,
0010
0010
0000
0000
,
0100
0100
0000
0000
,
0001
0000
0001
0000
,
0010
0000
0000
0000
;

//---------------dance-single - ----------------
#NOTES:
     dance-single:
     :
     Easy:
     6:
     :
0000
0000
0000
0000
,
0000
0000
0000
0000
,
0010
0001
0100
1000
,
0001
1000
0100
0010
,
0100
0001
1000
0010
,
1000
0001
0100
0010
,
1000
0001
1000
0100
,
0001
0010
1000
0001
,
0100
0010
0100
1000
,
0001
0010
1000
0100
,
0001
1000
0010
0100
,
0110
0001
0010
1000
,
0100
0100
1000
0001
,
0010
1001
0100
0100
,
0110
1001
0000
0001
,
0010
0100
1000
0001
,
0010
0100
1000
0010
,
0100
0001
0010
1000
,
0110
1001
0000
0100
,
1000
0010
1000
0001
,
1000
0010
0001
0100
,
0110
1001
0110
1001
,
0001
0100
0010
1010
,
1000
0100
0010
0011
,
0100
0001
1000
1001
,
0020
0230
0302
2003
,
3100
0010
0001
0101
,
0010
0001
1000
1100
,
0100
1000
0010
0110
,
0002
2003
3020
0230
,
0301
0001
1000
0100
,
1000
0010
0001
1000
,
0110
1001
0010
1000
,
0100
1000
0010
0001
,
0100
0001
0010
0011
,
0001
1000
0010
1010
,
0100
1000
0001
0101
,
1000
0010
0001
0100
,
1100
0000
0000
0000
;

//---------------dance-single - ----------------
#NOTES:
     dance-single:
     :
     Medium:
     10:
     :
0000
0000
0000
0000
,
0000
0000
0000
0000
,
0010
0001
0100
0110
0010
1000
0100
0110
,
0001
0100
1000
1001
0010
1000
0001
1001
,
0100
0010
1000
0000
0001
0010
0001
0100
,
0010
1000
1100
0000
0001
0100
0101
0000
,
0010
1000
0100
1100
1000
0001
0010
0011
,
0001
0100
0010
0100
0001
0010
0100
1000
,
0010
0100
0001
0000
1000
0001
1000
0010
,
0100
0010
1001
0000
0001
1000
0110
0000
,
0001
0100
1000
0010
1000
0001
0100
0010
,
1000
0100
1000
0010
0100
0001
1000
0001
,
0010
0001
0100
0010
0101
0000
1000
1000
,
0010
0000
0000
0000
1010
0000
0000
0001
0200
0000
0320
0000
2030
0000
3002
0000
,
0013
0000
0011
0000
0000
0000
1100
0000
0000
0000
0001
0100
0001
0000
1000
0000
,
0100
1000
0010
1000
0100
0010
0001
1000
,
0000
0000
1100
0000
0000
0000
0101
0000
0000
0000
0010
0100
0010
0000
0000
0000
,
0001
0100
0010
1000
0100
0010
0001
1000
,
0010
1010
0000
0011
0000
0100
0001
0000
,
0010
0100
1000
0001
1000
0010
0000
0100
,
0000
0101
0000
1010
0000
0001
0100
1000
,
0010
0000
1000
0000
0100
0000
1000
0010
0000
0000
0001
0100
0001
0000
0000
0000
,
0000
0000
1001
0000
0000
0000
0110
0000
0000
0000
1000
0010
0100
0010
1000
0000
,
0000
0000
1100
0000
0000
0000
0011
0000
0000
0000
0010
0001
1000
0001
0010
0000
,
0000
0000
0101
0000
0000
0000
1010
0000
0000
0000
0100
1000
0001
1000
0100
0000
,
0010
0010
0100
0100
1000
0001
1000
0001
,
0000
0000
1001
0000
0000
0000
0110
0000
0000
0000
0100
0001
0010
0001
0100
0000
,
0000
0000
0101
0000
0000
0000
1100
0000
0000
0000
0010
1000
0001
1000
0010
0000
,
0000
0000
1010
0000
0000
0000
0011
0000
0000
0000
0100
1000
0001
1000
0100
0000
,
0010
0010
0100
0100
1000
0001
1000
0001
,
0010
0001
0010
0100
1000
0010
0100
0000
,
0001
0010
1001
0000
0100
1000
0110
0000
,
1010
0100
0011
0000
1000
0001
1000
0100
,
1000
0001
0100
0010
1000
0100
0010
0001
,
0000
0000
0110
0000
0000
0000
1001
0000
0000
0000
0010
0100
1000
0100
0010
0000
,
0000
0000
0101
0000
0000
0000
0011
0000
0000
0000
1000
0001
0100
0001
1000
0000
,
0000
0000
1010
0000
0000
0000
1100
0000
0000
0000
0001
0010
0100
0010
0001
0000
,
0010
0010
0100
0100
1000
0001
1000
0001
,
0010
0000
0000
0000
;

//---------------dance-single - ----------------
#NOTES:
     dance-single:
     :
     Hard:
     13:
     :
0000
0000
0000
0000
,
0000
0000
0000
0000
,
0010
0001
0010
0100
1000
0000
0001
0000
1000
0010
0100
0001
1000
0000
0100
0000
,
0010
0100
0010
0001
1000
0000
0100
0000
1000
0001
1000
0010
0100
0000
0001
0000
,
0010
0001
1000
0001
0100
0000
0010
1000
0010
0000
0100
0001
0100
0000
0001
1000
,
0100
0010
0001
0010
0100
0000
1000
0010
1000
0100
1000
0001
0010
0000
0001
0100
,
0001
0000
0010
0100
1000
0100
1000
0000
0010
0100
0010
1000
0001
1000
0001
0000
,
0010
0001
0010
0000
0001
0100
0001
0000
1000
0010
1000
0100
1000
0000
0001
0100
,
0000
0010
1000
0000
0100
1000
0001
0000
0010
0001
0010
0100
1000
0000
0001
0000
,
1000
0010
1000
0010
1000
0010
0000
0000
0100
0001
0100
0001
0100
0001
0000
0000
,
0001
0000
0101
0000
1000
0000
1100
0000
0010
1000
0100
0010
0001
0000
0100
0000
,
0010
1000
0001
0000
1001
0000
0110
0000
1000
0100
1000
0010
0100
0000
0001
0010
,
0001
0000
1000
0001
0100
0000
0001
1000
0100
0000
0000
0000
0010
0100
0010
0100
,
1000
0000
0000
0000
1010
0000
0000
0001
0100
0001
0010
0001
0100
0000
0010
1000
,
0001
0000
0011
0000
1000
0000
1010
0000
0000
0010
1000
0001
0100
0000
0110
0000
,
0002
0000
2003
0000
3200
0000
0310
0100
1000
0010
1000
0000
0001
0000
0100
0010
,
1000
0000
1100
0000
0001
0000
0101
0000
0000
0000
0010
1000
0100
0000
0010
0001
,
0100
0000
0020
0000
2030
0000
3100
1000
0001
0010
0002
0000
0203
0000
0320
0000
,
1030
0000
1010
0000
0001
0000
0101
0000
0000
0010
0001
1000
0000
0100
0010
0100
,
1000
0010
1000
0010
1000
0000
1001
0000
0001
0010
0001
0100
0000
0010
0100
0000
,
1000
0000
1100
0000
0001
0000
0011
0000
0000
0000
0100
0010
1000
0001
0100
0000
,
0110
0000
1001
0000
0110
0000
0001
1000
0000
0001
0100
0010
1000
0000
0001
0000
,
0010
0001
0010
0100
0000
0000
1100
0000
0000
0101
0000
0000
1000
0100
1000
0000
,
0010
1000
0001
1000
0000
0000
1010
0000
0000
0101
0000
0000
0100
0001
0100
0000
,
0001
0010
0100
1000
0000
0000
1010
0000
0000
1100
0000
0000
0100
0010
0001
0000
,
2000
3020
0230
0302
2003
3200
0320
0032
,
0103
0010
0100
0001
0000
0000
0011
0000
0000
1100
0000
0000
1000
0001
1000
0000
,
0010
1000
0001
1000
0000
0000
1010
0000
0000
0011
0000
0000
0100
0010
0100
0000
,
0001
0010
0100
1000
0000
0000
1010
0000
0101
0000
0000
0011
0000
0000
1100
0000
,
0002
0023
0230
2300
3002
0203
0320
2030
,
3100
1000
0001
1000
0100
1000
0001
1000
0010
0100
0001
0100
0010
0000
0100
0001
,
0100
0001
1000
0000
0010
0000
0100
0000
0001
0010
0001
1000
0001
0000
0100
0000
,
0110
0000
0001
0100
1000
0000
1001
0000
0010
1000
0010
0100
0001
0000
1000
0000
,
0100
0010
0001
0000
0100
0010
1000
0000
0001
0100
1000
0000
0010
1000
0001
0000
,
1000
0001
0010
0100
0000
0000
0110
0000
0000
1001
0000
0000
0010
1000
0001
0000
,
1000
0100
1000
0010
0000
0000
1010
0000
0000
0101
0000
0000
0010
0001
0100
0000
,
0001
0010
0001
0010
0000
0000
1100
0000
0000
0011
0000
0000
1000
0010
0100
0000
,
0002
2003
3002
2003
3020
0230
0320
0230
,
0301
0000
0000
0000
;

//---------------dance-single - ----------------
#NOTES:
     dance-single:
     :
     Challenge:
     14:
     :
0000
0000
0000
0000
,
0000
0000
0000
0000
,
0010
0001
0010
0100
1000
0000
0110
0000
0001
1000
0010
0100
0001
0000
0110
0000
,
0100
0001
0010
0001
1000
0000
1001
0000
0100
1000
0001
1000
0010
0000
1001
0000
,
0100
0001
0010
0001
0100
0000
0010
1000
0100
1000
0001
1000
0010
0100
0001
1000
,
0100
0010
0001
0010
0100
0010
0001
1000
0100
1000
0001
1000
0100
0010
0001
1000
,
0010
0000
1000
0100
0001
0100
1000
0000
0010
0001
0010
0100
0010
1000
0010
0000
,
1000
0001
0010
0001
0100
0010
1000
0000
0100
0001
0100
0010
0100
0001
0100
1000
,
0010
0100
0001
0100
1000
0100
0010
0000
0001
1000
0010
1000
0100
1000
0010
1000
,
0001
0000
0000
0100
0000
0000
0010
0000
0000
1000
0000
0000
0100
0000
0000
0001
0000
0000
0100
0000
0000
0010
0000
0000
0001
0000
0000
1000
0000
0000
0010
0000
0000
0100
0000
0000
0001
0000
0000
1000
0000
0000
0010
0000
1000
0000
0100
0000
,
0001
0000
0000
0000
0000
0000
0101
0000
0000
0000
0000
0000
1000
0000
0000
0000
0000
0000
1100
0000
0000
0000
0010
0000
0100
0000
0000
0001
0000
0000
1000
0000
0000
0010
0000
0000
0100
0000
0000
0000
0000
0000
0110
0000
0000
0000
0001
0000
,
1000
0000
0000
0000
1000
0000
0001
0000
0000
0000
0000
0000
1010
0000
0000
0000
0000
0000
0010
0000
0000
0100
0000
0000
1000
0000
0000
0100
0000
0000
0010
0000
0000
0100
0000
0000
0001
0000
0000
0000
0000
0000
0010
0000
0000
0001
0000
0000
,
1000
0000
0100
1000
0001
0000
0010
0001
0100
0000
0000
0000
0010
0100
0001
1000
,
0100
0010
0001
0100
0001
0000
1001
0000
0010
1000
0010
0001
0010
1000
0010
0100
,
0001
0000
0000
0000
0000
0000
0011
0000
0000
0000
0000
0000
0110
0000
0000
0000
0000
0000
1100
0000
0000
0000
0001
0000
1000
0000
0000
0010
0000
0000
0100
0000
0000
0001
0000
0000
1000
0000
0000
0000
0000
0000
0100
0000
0000
0000
0000
0000
,
1100
0000
1001
0000
0101
0000
0010
0001
0010
0100
1000
0000
0001
0000
0100
0010
,
1000
0000
0000
0000
0000
0000
1001
0000
0000
0000
0000
0000
0010
0000
0000
0000
0000
0000
0101
0000
0000
0000
1000
0000
0001
0000
0000
0000
0000
0000
0010
0000
0000
0100
0000
0000
0001
0000
0000
0100
0000
0000
1000
0000
0000
0001
0000
0000
,
0100
0010
1000
0000
0101
0000
0010
0001
0100
0010
1000
0001
1000
0100
0010
0001
,
0100
0000
0101
0000
0110
0000
1010
0000
0100
1000
0001
1000
0010
0000
0100
0001
,
0010
1000
0010
0001
0100
0000
1010
0000
0100
1000
0001
0010
0000
0001
0100
0010
,
1000
0000
0000
0000
0000
0000
1001
0000
0000
0000
0000
0000
0010
0000
0000
0000
0000
0000
0011
0000
0000
0000
0001
0000
0100
0000
0000
0000
0000
0000
0010
0000
0000
1000
0000
0000
0001
0000
0000
1000
0000
0000
0100
0000
0000
0000
0000
0000
,
1000
0000
0000
0010
0000
0000
0100
0000
0000
0010
0000
0000
1000
0000
0000
0001
0000
0000
0100
0000
0000
0001
0000
0000
1000
0000
0000
0100
0000
0000
0010
0000
0000
0001
0000
0000
0010
0000
0000
0100
0000
0000
1000
0000
0001
0000
1000
0000
,
0001
0100
0010
1000
0000
0000
0100
1000
0000
0001
0010
0001
0100
0010
1000
0000
,
0100
0010
0100
1000
0000
0000
0001
0100
0000
0001
0010
0001
1000
0010
1000
0000
,
0100
0010
0001
1000
0000
0000
0100
1000
0000
0010
0100
0001
0010
0001
1000
0000
,
0010
0001
0010
1000
0010
0001
0010
1000
0100
0001
0100
1000
0100
0001
0100
1000
,
0010
0100
0001
1000
0000
0000
0100
1000
0000
0010
1000
0001
0010
0001
0100
0000
,
0001
0010
0100
1000
0000
0000
0001
1000
0000
0010
1000
0100
0001
0100
0010
0000
,
0001
0100
0001
1000
0000
0000
0010
1000
0000
0100
0001
0100
0010
1000
0010
0000
,
0100
0001
0100
1000
0100
0001
0100
1000
0010
0001
0010
1000
0010
0001
0010
1000
,
0100
0010
0001
0010
0100
0010
0001
0010
1000
0010
0100
1000
0001
0000
1000
0100
,
1000
0010
0100
0000
0101
0000
0010
0001
0010
0100
1000
0010
1000
0000
0001
0100
,
0010
0000
1000
0100
0001
0000
1000
0100
0010
1000
0010
0100
0010
0001
0010
0000
,
0001
0000
0000
0100
0000
0000
0010
0000
0000
1000
0000
0000
0001
0000
0000
1000
0000
0000
0010
0000
0000
0100
0000
0000
0001
0000
0010
0000
0100
0000
1000
0000
0000
0001
0000
0000
1000
0000
0000
0010
0000
0000
0100
0000
0000
0000
0000
0000
,
0001
0010
0100
1000
0000
0000
0010
1000
0000
0100
0010
0001
1000
0001
0100
0000
,
0010
0100
0001
0010
0000
0000
0001
1000
0000
0100
1000
0010
1000
0001
0100
0000
,
0001
1000
0001
1000
0000
0000
0100
1000
0000
0010
0100
0010
0001
0010
0100
0000
,
0010
0001
0010
1000
0010
0001
0010
1000
0100
0001
0100
1000
0100
0001
0100
1000
,
1100
0000
0000
0000
;
