#TITLE:カゲロウ;
#ARTIST:Des-ROW・組スペシアルr;
#TITLETRANSLIT:KAGEROW (Dragonfly);
#ARTISTTRANSLIT:Des-ROW・UNITED special+r;
#BANNER:KAGEROW (Dragonfly).png;
#BACKGROUND:KAGEROW (Dragonfly)-bg.png;
#JACKET:KAGEROW (Dragonfly)-jacket.png;
#MUSIC:KAGEROW (Dragonfly).ogg;
#SAMPLESTART:37.929;
#SAMPLELENGTH:20;
#DISPLAYBPM:165;
#BPMS:0=163.8,4=164.5;
#BGCHANGES:;

//---------------dance-single - ----------------
#NOTES:
     dance-single:
     :
     Beginner:
     3:
     :
0000
0000
0000
0000
,
0000
0000
0000
0000
,
0000
0000
0000
0000
,
0000
0000
0000
0000
,
0000
0000
0000
0000
,
0000
0000
0000
0000
,
0010
0000
1000
0000
,
0010
0000
0001
0000
,
1000
0000
0001
0000
,
0100
0000
0000
0000
,
0010
0010
0000
0000
,
0001
0001
0000
0000
,
1000
0000
0001
0000
,
1000
1000
0000
0000
,
0001
0001
0000
0000
,
1000
1000
0000
0000
,
1000
1000
0000
0001
,
0000
0001
0000
0000
,
0010
0010
0000
0000
,
0001
0001
0000
0000
,
0100
0000
0010
0000
,
0100
0100
0000
0000
,
0010
0010
0000
0000
,
0001
0001
0000
0000
,
0001
0001
0000
1000
,
0000
1000
0000
1001
,
0000
0000
0100
0000
,
1000
0000
0001
0000
,
0100
0000
0010
0000
,
1000
0000
1000
0000
,
0001
0000
0100
0000
,
0010
0000
0100
0000
,
0001
0000
0010
0000
,
1001
0000
0000
0000
,
1000
0000
1000
0000
,
0001
0000
0001
0000
,
0010
0000
0100
0000
,
1000
0000
1000
0000
,
0001
0000
0001
0000
,
1000
0000
1000
0000
,
0100
0000
0010
0000
,
0001
0000
0001
0000
,
0010
0000
1000
0000
,
0001
0000
0010
0000
,
0100
0000
1000
0000
,
0010
0000
1000
0000
,
0001
0000
0100
0000
,
1000
0000
0100
0000
,
0001
0000
1000
0000
,
0100
0000
0010
0000
,
0001
0001
0000
0000
,
0010
0010
0000
0000
,
0001
0001
0000
0000
,
1000
1000
0000
0000
,
0001
0000
0100
0000
,
0010
0000
0100
0000
,
0010
0000
0100
0000
,
1000
0000
0010
0000
,
0100
0000
0000
0000
,
0000
0000
0000
0000
,
0010
0010
0000
0000
,
0001
0001
0000
0000
,
1000
0000
0001
0000
,
1000
1000
0000
0000
,
0001
0001
0000
0000
,
1000
1000
0000
0000
,
1000
1000
0000
0001
;

//---------------dance-single - ----------------
#NOTES:
     dance-single:
     :
     Easy:
     4:
     :
0000
0000
0000
0000
,
0000
0000
0000
0000
,
0000
0000
0000
0000
,
0000
0000
0000
0000
,
0000
0000
0000
0000
,
0000
0000
0000
0000
,
0010
0000
1000
0000
,
0010
0000
0001
0000
,
1000
0000
0001
0000
,
0200
0000
0000
0300
,
0010
0010
1000
0000
,
0001
0001
0100
0000
,
1000
0000
0001
0000
,
1000
1000
0100
0000
,
0001
0001
0010
0000
,
1000
1000
0010
0000
,
1000
1000
0001
0001
,
1000
0001
1000
0000
,
0010
0010
0100
0000
,
0001
0001
0010
0000
,
0100
0000
0010
0000
,
0100
0100
1000
0000
,
0010
0010
1000
0000
,
0001
0001
0100
0000
,
0001
0001
1000
1000
,
0001
1000
0001
1001
,
0010
0000
0100
0000
,
1000
0000
0001
0000
,
0100
0000
0010
0000
,
1000
0100
1000
0000
,
0001
0000
0100
0000
,
0010
0000
0100
0000
,
0001
0000
0010
0000
,
2002
0000
0000
3003
,
1000
0100
1000
0000
,
0001
0100
0001
0000
,
0010
0000
0100
0000
,
1000
0001
1000
0000
,
0001
0010
0001
0000
,
1000
0010
1000
0000
,
0100
0000
0010
0000
,
0001
1000
0001
0000
,
0010
0000
1000
0000
,
0001
0000
0010
0000
,
0100
0000
1000
0000
,
0010
0000
1000
0000
,
0001
0000
0100
0000
,
1000
0000
0100
0000
,
0001
0000
1000
0000
,
0100
0000
0010
0000
,
0001
0001
1000
0000
,
0010
0010
0100
0000
,
0001
0001
0010
0000
,
1000
1000
0010
0000
,
0001
1000
0100
0000
,
0010
0001
0100
0000
,
0010
1000
0100
0000
,
1000
0001
0010
0000
,
0200
0000
0000
0000
,
0000
0000
0000
0300
,
0010
0010
1000
0000
,
0001
0001
0100
0000
,
1000
0000
0001
0000
,
1000
1000
0100
0000
,
0001
0001
0010
0000
,
1000
1000
0010
0000
,
1000
1000
0001
0001
,
1001
0000
0000
0000
;

//---------------dance-single - ----------------
#NOTES:
     dance-single:
     :
     Medium:
     7:
     :
0000
0000
0000
0000
,
0000
0000
0000
0000
,
0000
0000
0000
0000
,
0000
0000
0000
0000
,
0000
0000
0000
0000
,
0000
0000
0000
0000
,
0010
1000
0100
0010
,
0001
0100
1000
0010
,
0001
0100
0010
0100
,
2002
0000
3003
0110
,
1000
0010
0100
0001
,
1000
0010
0100
1000
,
0010
1000
0100
1000
,
0001
0010
1000
1001
,
0010
1000
0001
0100
,
0010
0001
0010
1000
,
0101
0101
1100
1100
,
0010
1000
0100
1001
,
0010
0100
0001
0010
,
0100
0010
0001
1000
,
0001
0100
1000
0100
,
0001
0010
0001
1001
,
0100
1000
0100
0010
,
0001
0010
0100
0001
,
1010
1010
0011
0011
,
1100
0101
1100
1001
,
0001
0010
1000
0110
,
1000
0001
0010
0101
,
0010
1000
0001
1100
,
0001
0100
0010
1001
,
0010
1000
0001
1100
,
0001
1000
0100
1010
,
0100
0001
1010
0100
,
0020
0000
0000
0130
,
1000
0000
0001
0000
0100
0100
0100
0000
,
0010
0000
1000
0000
0001
0001
0001
0000
,
0010
0000
0001
0000
0100
0100
0100
0000
,
0001
0100
0010
1001
,
0010
0000
0100
0000
0001
0001
0001
0000
,
0010
0000
1000
0000
0100
0100
0100
0000
,
0001
0100
1000
0010
,
1000
0001
0010
1001
,
0100
0000
0000
1000
1000
0000
0000
0000
,
0100
0001
0010
0100
,
1000
0000
0000
0001
0001
0000
0000
0000
,
0100
0010
1000
0100
,
0001
0000
0000
0010
0010
0000
0000
0000
,
0010
1000
0010
0001
,
1000
0000
0000
0001
0001
0000
0000
0000
,
1000
0100
0010
1001
,
0001
0000
0000
0100
0100
0000
0000
0000
,
1000
0001
0100
1000
,
0001
0000
0000
0100
0100
0000
0000
0000
,
1000
0001
0010
1000
,
0010
0000
0000
0001
0001
0000
0000
0000
,
1000
0100
0001
1000
,
0001
0000
0000
0010
0010
0000
0000
0000
,
1000
0100
0001
0010
,
2000
0000
0000
0000
,
0000
3000
0100
0010
,
1000
0010
0100
0001
,
1000
0010
0100
1000
,
0010
1000
0100
1000
,
0001
0010
1000
1001
,
0010
1000
0001
0100
,
0010
0001
0010
1000
,
0100
0001
1000
0110
,
1001
0000
0000
0000
;

//---------------dance-single - ----------------
#NOTES:
     dance-single:
     :
     Hard:
     9:
     :
0000
0000
0000
0000
,
0000
0000
0000
0000
,
0000
0000
0000
0000
,
0000
0000
0000
0000
,
0000
0000
0000
0000
,
0000
0000
0000
0000
,
0010
1000
0000
0001
0100
0001
0000
0010
,
0001
0100
0000
0010
1000
0010
0000
0100
,
0001
1000
0000
0100
0010
0100
0000
2000
,
0002
0000
3003
0110
,
1000
0000
0010
0000
0100
0001
0000
1000
,
0000
0100
0000
0010
0100
0000
1000
0000
,
0010
0000
1000
0000
0100
1000
0000
0001
,
0000
0010
0000
0100
1000
0001
0100
0000
,
0010
0000
1000
0000
0001
0100
0000
0010
,
0000
0100
0000
0001
0010
0000
1000
0000
,
0010
0000
0001
0000
0100
1000
0000
0100
,
0000
0001
0000
1000
0010
0000
1000
0001
,
1000
0000
0100
0000
0010
0001
0000
0010
,
0000
0100
0000
0010
0001
0000
1100
0000
,
0001
0000
0100
0000
1000
0100
0000
0001
,
0000
1000
0000
0010
0001
0010
0100
0000
,
0001
0000
1000
0000
0100
0010
0000
0001
,
0000
1000
0000
0010
0100
0000
1001
0000
,
0010
0001
0010
0000
0100
1000
0000
0010
,
0000
1000
0000
0001
0100
0000
1010
0000
,
0001
0010
0000
1000
0010
0000
0110
0000
,
1000
0001
0000
0010
1000
0000
0101
0000
,
0010
1000
0000
0001
0010
0000
0100
1000
,
0000
0001
0100
0000
0010
0000
1001
0000
,
0010
1000
0000
0001
0010
0000
1100
0000
,
0001
0100
0000
1000
0100
0000
1010
0000
,
0001
1000
0000
0100
0010
0000
0100
1000
,
0020
0000
0000
0130
,
1000
0000
0000
0001
0100
0001
0010
0000
,
0100
0000
0000
1000
0001
0100
0001
0000
,
0010
0000
0001
0000
1000
0001
0100
0000
,
0010
1000
0100
1000
0010
0000
0101
0000
,
1000
0000
0000
0100
0010
0100
1000
0000
,
0001
0000
0000
1000
0010
1000
0100
0000
,
0001
0000
0100
0010
0001
0000
1000
0000
,
0010
0100
0001
0100
0010
0000
1001
0000
,
0100
0000
0000
1000
0010
0000
0000
0100
,
0000
0001
0000
1000
0100
0000
0010
0000
,
0001
0000
0000
1000
0001
0000
0000
0100
,
0000
0010
0000
1000
0100
0000
1000
0001
,
0100
0000
0000
0010
0100
0000
0000
0010
,
0000
1000
0000
0001
0010
0000
0100
0000
,
1000
0000
0000
0001
0100
0000
0000
1000
,
0000
0100
0000
0001
0010
0000
1100
0000
,
0001
0000
1000
0100
1000
0000
0010
1000
,
0000
0001
0000
0010
0100
0000
1000
0001
,
0100
0000
1000
0000
0100
0001
0000
1000
,
0000
0010
0000
0001
0010
0000
1000
0100
,
0010
0000
1000
0000
0001
0100
0000
0010
,
0000
1000
0000
0100
0001
0100
0000
1000
,
0001
0010
0000
0001
1000
0000
0010
1000
,
0000
0001
0000
0100
0001
0010
0000
0002
,
2000
0000
0000
0000
,
0000
0000
3003
0000
0100
0000
0010
1000
,
0001
0000
0100
0000
0010
1000
0000
0001
,
0000
0010
0000
0100
0010
0000
0001
0000
,
0100
0000
0001
0000
0010
0001
0000
1000
,
0000
0100
0000
0010
0001
1000
0010
0000
,
0100
0000
0001
0000
1000
0010
0000
0100
,
0000
0010
0000
1000
0100
0000
0001
0000
,
0010
0000
0001
0100
1000
0000
0100
0001
,
1000
0000
0000
0000
;

//---------------dance-single - ----------------
#NOTES:
     dance-single:
     :
     Challenge:
     13:
     :
0000
0000
0000
0000
,
0000
0000
0000
0000
,
0000
0000
0000
0000
,
0000
0000
0000
0000
,
0000
0000
0000
0000
,
0000
0000
0000
0000
,
0001
0010
1000
0000
0001
0100
0010
1000
,
0100
0010
0001
0000
0100
0010
1000
0001
,
1000
0100
0001
0000
0010
0001
0010
0100
,
1000
0010
0100
0001
1000
0100
0010
0001
,
0100
0010
0001
0010
1000
0100
0001
0100
,
0010
0000
1000
0000
0010
0000
0001
0000
0000
0100
0000
0000
0010
0000
1000
0000
,
0100
0001
0100
0010
0001
0100
0010
0001
,
0010
0000
1000
0000
0100
0000
1000
0000
0000
0001
0000
0000
0010
0000
0100
0000
,
0001
0100
0010
0100
1000
0010
1000
0001
,
1000
0100
0010
0001
0000
0100
0100
0000
,
0110
0001
0100
0000
1010
0001
0100
1000
,
0010
0000
1000
0000
0100
0000
0001
0000
0000
0000
1000
0000
0010
0100
0010
0000
,
1000
0100
0010
0100
0001
0100
0010
0001
,
0100
1000
0100
0010
1000
0001
1000
0100
,
0010
0001
0010
0001
0100
0010
1000
0001
,
1000
0000
0100
0000
0010
0000
0001
0000
0000
1000
0000
0000
0001
0000
0100
0000
,
0010
0100
0010
1000
0001
0010
0001
1000
,
0100
0000
0001
0000
0100
0000
1000
0000
0000
0010
0000
0000
0100
0000
0001
0000
,
0010
0001
0100
0010
1000
0100
1100
0000
,
0001
0010
1000
0001
0100
0010
1001
0000
,
0010
0000
0000
0010
0001
0000
0000
0001
0100
0000
0000
0100
0010
0000
0000
0010
,
1000
0000
0000
1000
0001
0000
0000
0001
1000
0000
0000
1000
0100
0000
0000
0100
,
1000
0000
0000
1000
0010
0000
0000
0010
0100
0000
0000
0100
0001
0000
0000
0001
,
0010
0000
0000
0001
0100
0000
0000
0001
0100
0000
0010
0000
1000
0000
0010
0000
,
0100
0000
0000
0100
0001
0000
0000
0001
1000
0000
0000
1000
0010
0000
0000
0010
,
1000
0000
0000
0001
0100
0000
0000
0001
1000
0000
0000
0001
0100
0000
0000
0000
,
0010
0100
1000
0000
0011
0001
0100
0010
,
1000
0000
0100
0000
0001
0000
0100
0000
1000
0000
0000
0000
0001
1000
0000
0000
,
0101
0000
0000
0100
0010
0000
1000
0000
0001
0000
0000
0010
0001
0000
1000
0000
,
0100
0000
0000
0010
0001
0000
0100
0000
0001
0000
0000
1000
0010
0000
0000
0000
,
1000
0000
0000
1000
0100
0000
0000
0100
0010
0000
0000
0010
0001
0000
0000
0001
,
0100
0000
0000
0100
0001
0000
0000
0001
1000
0000
0000
1000
0010
0000
0000
0000
,
0100
0010
1000
0001
0010
0100
1000
0001
,
0010
0001
0100
1000
0001
0000
1001
0000
,
0010
1000
0100
1000
0001
0010
0001
0100
,
1000
0010
0001
0100
0010
0000
0110
0000
,
0100
0000
0001
0010
0001
0010
0001
0010
,
0001
0100
0010
0100
1000
0100
0001
0010
,
1000
0010
0100
0010
0001
0100
1000
0001
,
1000
0010
1000
0100
0010
0010
0010
0000
,
0001
0000
1000
0100
1000
0010
0100
0001
,
0010
1000
0010
0001
0100
0010
0001
0010
,
1000
0000
0001
0100
0001
0000
1000
0000
0101
0000
0000
0000
1100
0000
0010
0000
,
1000
0000
0100
0000
0001
0000
0100
0000
1000
0000
0010
0100
0010
0000
0000
0000
,
1010
0000
0000
0001
0100
0000
0000
0000
0011
0000
0000
1000
0010
0000
0000
0100
,
0001
0000
0000
0001
1000
0000
0000
1000
0001
0000
0000
0001
0100
0000
0000
0000
,
0010
0001
0100
0001
0100
0001
0010
0001
,
1000
0100
0001
0100
1000
0001
0100
0000
,
0010
1000
0000
0010
0100
0000
0000
0000
0001
0000
0010
0000
0001
0000
1000
0000
,
0010
0000
0000
0010
1000
0000
0000
1000
0100
0000
0000
0100
0010
0000
0000
0000
,
0001
1000
0000
0001
1000
0000
0010
0000
0100
0000
1000
0000
0100
0000
0001
0000
,
0010
1000
0010
0100
0010
0001
0010
0200
,
2000
3000
0002
0003
,
2000
0000
0000
0000
3000
0000
0000
0000
0310
0000
0001
0100
0001
0100
0001
0100
,
0000
0010
1000
0001
1000
0100
0010
0001
,
0000
0100
0001
0010
0001
0010
0001
1000
,
0000
0010
1000
0010
1000
0100
0010
0001
,
0000
0100
0001
0010
0001
1000
0100
1000
,
0010
1000
0100
1000
0001
0100
0001
0010
,
0100
0010
1000
0010
0001
0100
0001
1000
,
0100
1000
0010
0001
0010
0100
0001
1000
,
0001
0100
1000
0100
0001
0100
1000
0100
;

//---------------dance-double - ----------------
#NOTES:
     dance-double:
     :
     Easy:
     4:
     :
00000000
00000000
00000000
00000000
,
00000000
00000000
00000000
00000000
,
00000000
00000000
00000000
00000000
,
00000000
00000000
00000000
00000000
,
00000000
00000000
00000000
00000000
,
00000000
00000000
00000000
00000000
,
00010000
00000000
00100000
00000000
,
01000000
00000000
10000000
00000000
,
01000000
00000000
00010000
00000000
,
00002000
00000000
00000000
00003000
,
00000100
00000000
00000001
00000000
,
00000010
00000010
00000001
00000000
,
00000100
00000000
00001000
00000000
,
00010000
00010000
01000000
00000000
,
10000000
00000000
01000000
00000000
,
10000000
00000000
00100000
00000000
,
10000000
10000000
00010000
00010000
,
01000000
00001000
00010000
00000000
,
00000100
00000000
00000100
00000000
,
00001000
00001000
00000010
00000000
,
00000001
00000000
00000100
00000000
,
00001000
00001000
00010000
00000000
,
00001000
00000000
00010000
00000000
,
00100000
00000000
01000000
00000000
,
10000000
10000000
00010000
00010000
,
10000000
00010000
10000000
00000000
,
10000000
00000000
01000000
00000000
,
00010000
00000000
00001000
00000000
,
00000100
00000000
00000001
00000000
,
00000001
00000001
00000001
00000000
,
00000001
00000000
00000100
00000000
,
00001000
00000000
00010000
00000000
,
00100000
00000000
10000000
00000000
,
02000000
00000000
00000000
03000000
,
10000000
10000000
00100000
00000000
,
01000000
01000000
00010000
00000000
,
10000000
00000000
00010000
00000000
,
00100000
01000000
00100000
00000000
,
00010000
00010000
00010000
00000000
,
00001000
00001000
00001000
00000000
,
00000010
00000000
00000100
00000000
,
00000001
00000001
00000001
00000000
,
00000100
00000000
00000010
00000000
,
00010000
00000000
00001000
00000000
,
01000000
00000000
00010000
00000000
,
10000000
00000000
01000000
00000000
,
00100000
00000000
10000000
00000000
,
01000000
00000000
00010000
00000000
,
00001000
00000000
00000010
00000000
,
00000100
00000000
00000010
00000000
,
00001000
00000000
00000001
00000000
,
00000010
00000000
00001000
00000000
,
00010000
00000000
00100000
00000000
,
10000000
00000000
00010000
00000000
,
01000000
00000000
00100000
00000000
,
10000000
00000000
01000000
00000000
,
00010000
00000000
00001000
00000000
,
00000100
00000000
00000001
00000000
,
00002000
00000000
00000000
00000000
,
00000000
00000000
00000000
00003000
,
00000010
00000000
00000100
00000000
,
00000001
00000000
00000010
00000000
,
00001000
00000000
00010000
00000000
,
00100000
00000000
10000000
00000000
,
00010000
00000000
00100000
00000000
,
01000000
00000000
10000000
00000000
,
00100000
00000000
01000000
00000000
,
10010000
00000000
00000000
00000000
;

//---------------dance-double - ----------------
#NOTES:
     dance-double:
     :
     Medium:
     6:
     :
00000000
00000000
00000000
00000000
,
00000000
00000000
00000000
00000000
,
00000000
00000000
00000000
00000000
,
00000000
00000000
00000000
00000000
,
00000000
00000000
00000000
00000000
,
00000000
00000000
00000000
00000000
,
01000000
00010000
00100000
00000000
,
10000000
00100000
00010000
00000000
,
10000000
00100000
01000000
00010000
,
00022000
00000000
00033000
00011000
,
00001000
00000100
00000001
00000000
,
00001000
00000100
00000010
00000000
,
00000100
00000001
00000010
00000000
,
00001000
00000100
00000001
00001001
,
00000100
00001000
00010000
00000000
,
01000000
10000000
00100000
00010000
,
10010000
10010000
01100000
10010000
,
00100000
10000000
01000000
10010000
,
01000000
10000000
00100000
00010000
,
00001000
00000010
00001000
00000000
,
00000010
00000100
00001000
00000001
,
00001000
00000010
00000001
00000000
,
00000010
00000001
00000010
00000100
,
00001000
00000010
00000100
00000000
,
00000110
00000110
00001001
00000110
,
00000001
00000100
00001000
00011000
,
00010000
01000000
10000000
00100000
,
00010000
10000000
01000000
00100000
,
01000000
00010000
10000000
00100000
,
01000000
00100000
00010000
00000000
,
00001000
00000100
00000001
00000010
,
00001000
00000001
00000010
00000100
,
00000010
00001000
00000001
00000010
,
00000200
00000000
00000000
00000310
,
00000001
00000100
00001000
00011000
,
01000000
10000000
00100000
10010000
,
01000000
10000000
00010000
01100000
,
10000000
00100000
00010000
00011000
,
00000100
00000010
00001000
00000110
,
00000100
00000001
00000010
00001001
,
00000010
00001000
00000100
00000010
,
00000001
00001000
00000010
00001001
,
00000100
00000001
00000100
00000000
,
00001000
00010000
00100000
10000000
,
00010000
01000000
10000000
00000000
,
00100000
01000000
00010000
00100000
,
10000000
00010000
01000000
00000000
,
10000000
00100000
00010000
00001000
,
00010000
00001000
00000100
00000000
,
00000001
00000010
00000100
00001001
,
00000010
00000001
00000100
00000000
,
00000001
00001000
00000010
00001001
,
00000100
00001000
00010000
00000000
,
00010000
00100000
10000000
01100000
,
01000000
00010000
10000000
00000000
,
00010000
00100000
10000000
10010000
,
00100000
00010000
01000000
00000000
,
00100000
10000000
01000000
00010000
,
00002000
00000000
00000000
00000000
,
00000000
00000000
00000000
00003000
,
00000010
00000100
00000010
00001000
,
00000001
00000100
00000010
00000001
,
00000100
00000001
00000010
00000001
,
00001000
00000100
00000001
00001001
,
00000010
00001000
00010000
00100000
,
01000000
10000000
01000000
00010000
,
00100000
10000000
00010000
01000000
,
10010000
00000000
00000000
00000000
;

//---------------dance-double - ----------------
#NOTES:
     dance-double:
     :
     Hard:
     9:
     :
00000000
00000000
00000000
00000000
,
00000000
00000000
00000000
00000000
,
00000000
00000000
00000000
00000000
,
00000000
00000000
00000000
00000000
,
00000000
00000000
00000000
00000000
,
00000000
00000000
00000000
00000000
,
00000000
00000100
00000001
00001000
00000000
00000010
00010000
00001000
,
00000000
00100000
00010000
10000000
00000000
01000000
00010000
00001000
,
00000000
00000100
00000001
00001000
00000000
00000100
00000010
00000000
,
00000002
00000000
00000003
00001001
,
00000100
00000000
00010000
00000000
00001000
00100000
00000000
00010000
,
00000000
10000000
00000000
01000000
00100000
00000000
00010000
00000000
,
01000000
00000000
00001000
00000000
00100000
00010000
00000000
10000000
,
00000000
01000000
00000000
00010000
00001000
00000000
00011000
00000000
,
00000100
00000000
00001000
00000000
00000001
00000010
00000000
00000100
,
00000000
00000010
00000000
00001000
00010000
00000000
00100000
00000000
,
10010000
01001000
00011000
00010010
,
00001000
00000001
00000100
00000010
00000000
00010000
00001000
00000000
,
00100000
00000000
00010000
00000000
10000000
01000000
00000000
00010000
,
00000000
00001000
00000000
00000100
00000001
00000000
00001100
00000000
,
00000001
00000000
00000100
00000000
00001000
00010000
00000000
00000010
,
00000000
00000100
00000000
00000001
00001000
00000000
00000100
00000000
,
00010000
00000000
00001000
00000000
00100000
00010000
00000000
10000000
,
00000000
00100000
00000000
01000000
00010000
00000000
11000000
00000000
,
00110000
00011000
00001100
00000101
,
00000010
00001000
00000100
00010000
00000000
00001000
00000100
00000000
,
00000001
00001000
00000000
00000100
00000010
00000000
00001001
00000000
,
00000100
00010000
00000000
00001000
00100000
00000000
10010000
00000000
,
01000000
00001000
00000000
00010000
00000100
00000000
00000010
00000001
,
00000000
00001000
00000010
00000000
00000100
00000000
00001001
00000000
,
00000100
00010000
00000000
00001000
00100000
00000000
10010000
00000000
,
01000000
00001000
00000000
00010000
00000010
00000000
00001001
00000000
,
00000100
00010000
00000000
00001000
00100000
00000000
00010000
10000000
,
02000000
00000000
00000000
03100000
,
00010000
00000000
00000000
10000000
00100000
10000000
01000000
00000000
,
00010000
00000000
00000000
00001000
00000100
00000001
00000100
00000000
,
00000010
00010000
00000000
00001000
01000000
00000000
00010000
10000000
,
00000000
01000000
00100000
00000000
00010000
00000000
11000000
00000000
,
00010000
00000000
00000000
00001000
00000100
00001000
00010000
00000000
,
01000000
00000000
00000000
10000000
00100000
10000000
00010000
00000000
,
01000000
00001000
00000000
00010000
01000000
00000000
10000000
00100000
,
00000000
00100000
00010000
00000000
00001000
00000000
00001010
00000000
,
00000100
00000000
00000000
00000001
00000010
00000000
00000000
00000100
,
00000000
00010000
00000000
00001000
01000000
00000000
10000000
00000000
,
00010000
00000000
01000000
00100000
00010000
00000000
00000000
00001000
,
00000000
00000010
00000000
00000001
00001000
00000000
00000100
00010000
,
00001000
00000000
00000000
00000010
00000001
00000000
00000000
00000100
,
00000000
00001000
00000000
00010000
01000000
00000000
10000000
00000000
,
00010000
00000000
00000000
01000000
00100000
00000000
00000000
00010000
,
00000000
00001000
00000000
00000010
00000001
00000000
00001100
00000000
,
00010000
00000000
00000000
00001000
00100000
00000000
00000000
01000000
,
00000000
10000000
00000000
00010000
01000000
00000000
00001000
00010000
,
00000010
00000000
00000000
00001000
00000100
00000000
00000000
00010000
,
00000000
00001000
00000000
00000100
00000001
00000000
00001000
00000100
,
00010000
00000000
00000000
00001000
00100000
00000000
00000000
01000000
,
00000000
10000000
00000000
00010000
01000000
00000000
00001000
00010000
,
01000000
00000000
00000000
00010000
00001000
00000000
00000000
00000100
,
00000000
00000001
00000000
00000010
00000000
00000100
00000000
00020000
,
00002000
00000000
00000000
00000000
,
00000000
00000000
00000000
00033000
,
00100000
00000000
01000000
00000000
10000000
00100000
00000000
01000000
,
00000000
00010000
00000000
10000000
01000000
00000000
00100000
00000000
,
00010000
00000000
10000000
00000000
01000000
00010000
00000000
00001000
,
00000000
00000100
00000000
00000001
00000010
00000000
00000100
00000000
,
00010000
00000000
00001000
00000000
00100000
00010000
00000000
01000000
,
00000000
00001000
00000000
00010000
00000010
00000000
00001000
00000000
,
00000100
00000000
00000010
00000001
00000100
00000000
00001000
00010000
,
01000000
00000000
00000000
00000000
;
