#TITLE:Just a Little More Love;
#ARTIST:David Guetta ft. Chris Willis;
#BANNER:Just a Little More Love-bn.png;
#BACKGROUND:Just a Little More Love-bg.png;
#JACKET:Just a Little More Love-jacket.png;
#MUSIC:Just a Little More Love.ogg;
#OFFSET:0.444;
#SAMPLESTART:70.3;
#SAMPLELENGTH:20;
#DISPLAYBPM:123;
#BPMS:0=122.91;
#BGCHANGES:;

//---------------dance-single - ----------------
#NOTES:
     dance-single:
     :
     Beginner:
     2:
     :
0000
0000
0000
0000
,
0000
0000
0000
0000
,
0000
0000
0000
0000
,
0000
0000
0000
0000
,
0000
0000
0000
0000
,
0000
0000
0000
0000
,
0000
0000
0000
0000
,
0000
0000
0000
0000
,
0000
0000
0000
0000
,
0010
0000
0000
0000
,
0001
0000
0000
0000
,
1000
0000
0000
0000
,
0100
0000
0000
0000
,
1000
0000
0000
0000
,
0001
0000
0000
0000
,
0100
0000
0000
0000
,
0020
0000
0000
0000
,
0000
0000
0000
0000
,
0000
0000
0000
0000
,
0000
0000
0000
0000
,
0030
0000
1000
0000
,
0001
0001
0000
0100
,
0000
0010
0000
1000
,
0000
0100
0000
0010
,
0000
0001
0000
0100
,
0000
0001
0000
1000
,
0000
0010
0000
1000
,
0000
0100
0000
0010
,
0000
0001
0000
0100
,
0000
0001
0000
0010
,
0000
0001
0000
0100
,
0000
1000
0000
0010
,
0000
1000
0000
0001
,
0000
0010
0000
0100
,
0000
0010
0000
0001
,
0000
0100
0000
0010
,
0000
0000
1000
1000
,
0000
0000
0001
0001
,
0000
0000
0100
0100
,
0000
0000
0010
0010
,
0000
0000
1000
0000
,
0100
0000
1000
0000
,
0001
0000
0100
0000
,
0010
0000
0010
0000
,
1000
0000
0100
0100
,
0000
0000
1000
1000
,
0000
0000
0001
0001
,
0000
0000
0010
0010
,
0000
0000
0001
0000
,
1000
0000
0001
0000
,
0010
0000
0001
0000
,
0100
0000
0010
0000
,
1000
0000
0100
0000
,
0010
0000
0000
0000
,
0001
0000
0000
0000
,
1000
0000
0000
0000
,
0100
0000
0000
0000
,
1000
0000
0000
0000
,
0010
0000
0000
0000
,
0100
0000
0000
0000
,
0001
0000
1000
0000
,
0020
0000
0000
0000
,
0000
0000
0000
0030
;

//---------------dance-single - ----------------
#NOTES:
     dance-single:
     :
     Easy:
     7:
     :
0000
0000
0000
0000
,
0000
0000
0000
0000
,
0000
0000
0000
0000
,
0000
0000
0000
0000
,
0000
0000
0000
0000
,
0000
0000
0000
0000
,
0000
0000
0000
0000
,
0000
0000
0000
0000
,
0000
0000
0000
0000
,
0010
0010
0010
0010
,
0001
0001
0001
0001
,
1000
1000
1000
1000
,
0100
0100
0100
0100
,
1000
0001
1000
0001
,
0100
0010
0100
0010
,
1000
0100
0010
0001
,
0020
0000
0000
0030
,
0002
0000
0000
0003
,
2000
0000
0000
3000
,
0200
0000
0000
0300
,
2000
3000
0001
0002
,
0013
0001
0100
0010
,
1000
0100
1000
0001
,
0010
0100
0010
0001
,
0100
0010
1000
0100
,
1000
0010
0001
0100
,
0010
1000
0100
0010
,
0001
0100
0001
0010
,
0100
1000
0010
0010
,
0100
0001
0010
0100
,
1000
0010
0100
0001
,
0010
1000
0001
0010
,
0001
0100
0010
1000
,
0100
0010
0100
1000
,
0010
1000
0001
0010
,
0001
0100
0010
1000
,
0200
0300
1000
1000
,
0000
0010
0100
0001
,
0010
0000
0001
1000
,
0100
0000
1000
0010
,
0100
0001
0001
1000
,
1000
0010
0100
0010
,
1000
0000
0100
0010
,
0001
0100
0001
1000
,
0000
0010
1000
0100
,
1000
0010
1000
0001
,
0010
0100
0010
0001
,
0100
0010
1000
0001
,
1000
0100
0010
0001
,
0100
0010
0100
0001
,
0010
0100
1000
0001
,
0010
0001
1000
0010
,
0100
0010
1000
0001
,
0000
0010
0001
0100
,
0000
1000
0010
0100
,
0000
0001
0010
0001
,
0000
1000
0100
1000
,
0000
0010
0100
0001
,
0000
0010
0100
1000
,
0000
0010
1000
0001
,
0000
0100
0010
0100
,
0020
0000
0000
0000
,
0000
0000
0000
0030
;

//---------------dance-single - ----------------
#NOTES:
     dance-single:
     :
     Medium:
     10:
     :
0000
0000
0000
0000
,
0000
0000
0000
0000
,
0000
0000
0000
0000
,
0000
0000
0000
0000
,
0000
0000
0000
0000
,
0000
0000
0000
0000
,
0000
0000
0000
0000
,
0000
0000
0000
0000
,
0000
0000
0000
0000
,
0010
0001
0000
0001
0000
0001
0000
0001
,
0000
1000
0000
1000
0000
1000
0000
1000
,
0000
0010
0000
0010
0000
0010
0000
0010
,
0000
0100
0000
0100
0000
0100
0000
0100
,
0000
0001
0000
0100
0000
0001
0000
0100
,
0000
0010
0000
1000
0000
0010
0000
1000
,
0000
0100
1000
0001
1000
0000
0010
0100
,
0002
0003
2000
3000
,
0020
0030
0200
0300
,
0002
0003
0020
0030
,
0200
0300
2000
3000
,
0010
0000
0010
0000
1000
0001
0100
0000
,
0010
0000
0000
1000
0100
0000
0010
0000
0001
0000
0000
0000
0101
0000
0000
0000
,
0001
0000
0000
1000
0010
0000
0100
0000
0001
0000
0000
0000
1010
0000
0000
0000
,
0100
0000
0000
1000
0010
0000
0100
0000
0001
0000
0000
0000
0011
0000
0000
0000
,
1000
0000
0000
0010
0100
0000
0001
0000
1000
0000
0000
0000
1100
0000
0000
0000
,
1000
0000
0000
0001
0010
0000
0100
0000
1000
0000
0000
0000
1001
0000
0000
0000
,
0010
0000
0000
0100
0001
0000
1000
0000
0010
0000
0000
0000
0110
0000
0000
0000
,
0100
0000
0000
0001
0010
0000
0100
0000
1000
0000
0000
0000
1100
0000
0000
0000
,
0010
0000
1001
0000
1000
0001
0100
0000
,
0010
0000
0000
1000
0001
0000
0010
0000
0100
0000
0000
0000
0110
0000
0000
0000
,
0100
0000
0000
0010
0001
0000
1000
0000
0010
0000
0000
0000
1001
0000
0000
0000
,
0001
0000
0000
0010
0001
0000
1000
0000
0100
0000
0000
0000
0011
0000
0000
0000
,
0100
0000
0000
0010
1000
0000
0001
0000
1000
0000
0000
0000
1100
0000
0000
0000
,
0010
0000
0000
1000
0100
0000
0010
0000
0001
0000
0000
0000
0101
0000
0000
0000
,
0010
0000
0000
1000
0001
0000
0100
0000
0010
0000
0000
0000
1010
0000
0000
0000
,
0100
0000
0000
1000
0010
0000
0100
0000
0001
0000
0000
0000
0011
0000
0000
0000
,
0110
0000
1000
0010
1000
0100
0010
0001
,
0000
0000
0100
0001
1000
0100
1000
0010
,
0000
1000
0000
0001
0020
0000
0130
1000
,
0000
0010
0000
1000
0002
0000
1003
0010
,
0000
0100
0002
0000
2003
0000
3010
0100
,
0010
0000
1000
0100
2000
0000
3001
0100
,
0000
0010
0000
1000
0001
0100
0000
0010
,
0000
1000
0100
1000
0002
0000
0013
0100
,
0000
0000
1000
0010
1000
0100
0010
0001
,
0000
0000
0100
0001
0010
0001
1000
0100
,
0000
0010
0000
0001
2000
0000
3100
0010
,
0000
0001
0000
0100
0002
0000
1003
0001
,
0000
1000
0020
0000
0230
0000
0310
1000
,
0100
0000
1000
0001
2000
0000
3010
0100
,
0000
0001
0000
0010
0001
1000
0000
0010
,
0000
1000
0100
1000
0002
0000
0013
0100
,
0000
0000
1000
0010
1000
0001
0010
0100
,
1000
0000
1010
0000
0001
0100
0010
0000
,
1000
0000
0101
0000
0001
0010
0100
0000
,
1000
0000
1100
0000
0010
0100
0001
0000
,
0010
0000
0011
0000
0001
0100
1000
0000
,
0110
0000
1000
0001
0100
0000
1001
0000
,
0101
0000
0001
1000
0010
0000
1010
0000
,
1000
0000
0100
0010
0002
0000
0103
0010
,
0000
0000
1000
0100
1000
0001
0100
0020
,
0000
0000
0000
0000
,
0000
0000
0000
0030
;

//---------------dance-single - ----------------
#NOTES:
     dance-single:
     :
     Hard:
     12:
     :
0000
0000
0000
0000
,
0000
0000
0000
0000
,
0000
0000
0000
0000
,
0000
0000
0000
0000
,
0000
0000
0000
0000
,
0000
0000
0000
0000
,
0000
0000
0000
0000
,
0000
0000
0000
0000
,
0000
0000
0000
0000
,
0010
0001
0010
0001
0010
0001
0010
0001
,
0010
0100
0010
0100
0010
0100
0010
0100
,
1000
0100
1000
0100
1000
0100
1000
0100
,
1000
0001
1000
0001
1000
0001
1000
0001
,
0100
0001
0100
0001
0100
0001
0100
0001
,
1000
0010
1000
0010
1000
0010
1000
0010
,
1000
0100
0010
0001
1000
0010
0100
0001
,
0010
0010
0010
0010
,
0001
0001
0001
0001
,
1000
1000
1000
1000
,
0100
0100
0100
0100
,
1000
0000
0000
0000
0001
0000
0000
0000
1000
0100
1000
0100
1000
0100
0000
0000
,
0010
0000
0001
0100
0000
0001
0100
0000
0010
0000
0000
1000
0000
0000
0001
0000
,
0100
0000
1000
0010
0000
1000
0010
0000
0100
0000
0000
0001
0000
0000
1000
0000
,
0010
0000
1000
0001
0000
1000
0001
0000
0010
0000
0000
0100
0000
0000
1000
0000
,
0001
0000
0100
0010
0000
0100
0010
0000
1000
0000
0000
0100
0000
0000
0010
0000
,
0001
0000
1000
0100
0000
1000
0100
0000
0010
0000
0000
0001
0000
0000
0100
0000
,
0001
0000
1000
0100
0000
1000
0100
0000
0010
0000
0000
0100
0000
0000
1000
0000
,
0010
0000
0100
0001
0000
0100
0001
0000
1000
0000
0000
0001
0000
0000
0010
0000
,
0100
0000
0000
1000
0000
0000
0010
0000
1000
0100
1000
0100
1000
0100
0000
0000
,
0010
0000
0001
0100
0000
0001
0100
0000
0010
0000
0000
1000
0001
0000
0100
0000
,
0010
0000
1000
0100
0000
1000
0100
0000
0010
0000
0000
0001
1000
0000
0010
0000
,
0100
0000
0001
1000
0000
0001
1000
0000
0100
0000
0000
0010
0001
0000
0100
0000
,
0001
0000
0010
0100
0000
0010
0100
0000
1000
0000
0000
0010
1000
0000
0001
0000
,
0100
0000
0001
0010
0000
0001
0010
0000
0100
0000
0000
1000
0001
0000
0100
0000
,
0001
0000
1000
0010
0000
1000
0010
0000
0100
0000
0000
0010
1000
0000
0100
0000
,
0010
0000
0001
1000
0000
0001
1000
0000
0010
0000
0000
1000
0100
0000
0010
0000
,
0001
0000
1000
0100
1000
0001
0100
0010
,
1000
0000
0000
0100
1000
0000
0010
0000
0100
0000
0001
0000
0010
0000
0100
0000
,
0010
0000
0000
0001
1000
0000
0010
0000
0100
0000
0010
0000
1000
0000
0100
0000
,
0010
0000
0000
0001
1000
0000
0010
0000
0100
0000
0001
0000
1000
0000
0100
0000
,
0010
0000
0000
0100
0010
0000
0001
0000
0100
0000
0010
0000
1000
0000
0001
0000
,
0100
0000
0000
0001
0010
0000
0100
0000
0010
0000
0001
0000
1000
0000
0001
0000
,
1000
0000
0000
0010
0100
0000
0010
0000
1000
0000
0100
0000
0010
0000
0001
0000
,
0100
0010
1000
0001
1000
0100
0010
0001
,
0100
0000
0000
0001
1000
0000
0001
0000
0010
0000
0100
0000
1000
0000
0010
0000
,
0100
0000
0000
0010
1000
0000
0100
0000
1000
0000
0001
0000
0010
0000
0100
0000
,
0010
0000
0000
0001
1000
0000
0010
0000
0100
0000
0010
0000
1000
0000
0100
0000
,
0010
0000
0000
0001
0100
0000
0001
0000
1000
0000
0100
0000
1000
0000
0010
0000
,
0100
0000
0000
0010
1000
0000
0100
0000
1000
0000
0001
0000
0010
0000
0100
0000
,
1000
0000
0010
0100
0010
0000
1000
0000
0001
0000
0010
0000
0100
0000
1000
0000
,
0010
0000
0000
0100
0001
0000
0010
0000
0100
0000
1000
0000
0001
0000
1000
0000
,
0010
1000
0100
1000
0001
0010
0001
1000
,
0010
0000
0000
1000
0100
0000
0010
0000
0001
0000
1000
0000
0001
0000
0010
0000
,
0001
0000
0000
0001
1000
0000
0010
0000
1000
0000
0100
0000
0010
0000
0001
0000
,
0100
0000
0000
0100
0010
0000
1000
0000
0002
0000
0000
0000
0013
0000
0001
0000
,
1000
0000
0000
0010
1000
0000
0100
0000
2000
0000
0000
0000
3001
0000
0010
0000
,
0001
0000
0000
0100
0020
0000
0000
0000
2030
0000
0000
0000
3100
0000
0010
0000
,
0001
0000
0000
0010
0001
0000
1000
0000
0020
0000
0000
0000
1030
0000
0100
0000
,
1000
0000
0000
1000
0010
0000
0100
0000
0001
0000
1000
0000
0000
0000
0001
0000
,
0000
0010
0001
1000
0010
1000
0100
0010
,
0001
0000
1000
0100
1000
0001
0100
0020
,
0000
0000
0000
0000
,
0000
0000
0000
0030
;
