#TITLE:Jump Around;
#ARTIST:House of Pain;
#BANNER:Jump Around-bn.png;
#BACKGROUND:Jump Around-bg.png;
#JACKET:Jump Around-jacket.png;
#MUSIC:Jump Around.ogg;
#OFFSET:2.1;
#SAMPLESTART:24.538;
#SAMPLELENGTH:20;
#LASTBEATHINT:1.946;
#DISPLAYBPM:107;
#BPMS:0=106.91;
#BGCHANGES:;

//---------------dance-single - ----------------
#NOTES:
     dance-single:
     :
     Beginner:
     3:
     :
0000
0000
0000
0000
,
0000
0000
0000
0000
,
0000
0000
0000
0000
,
0000
0000
0000
0000
,
0110
0000
0000
0000
,
0110
0000
0000
0000
,
0110
0000
0000
0000
,
0110
0000
0000
0000
,
1001
0000
0000
0000
,
1001
0000
0000
0000
,
1001
0000
0000
0000
,
1001
0000
0000
0000
,
0010
0000
0001
0000
,
0100
0000
1000
0000
,
0001
0000
0100
0000
,
0010
0000
1000
0000
,
0100
0000
0010
0000
,
0001
0000
1001
0000
,
0010
0000
1000
0000
,
0100
0100
0100
0000
,
0110
0000
0000
0000
,
0110
0000
0000
0000
,
1001
0000
0000
0000
,
1001
0000
0000
0000
,
0110
0000
1001
0000
,
0110
0000
1001
0000
,
1001
0000
0000
0000
,
0110
0000
0000
0000
,
1001
0000
0000
0000
,
0010
0000
0100
0000
,
0110
0000
0000
0000
,
0110
0000
0000
0000
,
1001
0000
0000
0000
,
1001
0000
0000
0000
,
0001
0000
1000
0000
,
0010
0010
0010
0000
,
0100
0000
0010
0000
,
1000
1000
1000
0000
,
1001
0000
0000
0000
,
0110
0000
0000
0000
,
1001
0000
0000
0000
,
0110
0000
0110
0000
,
1001
0000
0001
0000
,
0010
0000
0100
0000
,
1000
0000
0010
0000
,
0001
0001
0001
0000
,
1000
0000
0001
0000
,
1001
0000
0110
0000
,
1001
0000
0000
0000
,
0110
0000
0000
0000
,
1001
0000
0000
0000
,
0010
0000
0100
0000
,
0110
0000
0000
0000
,
0110
0000
0000
0000
,
1001
0000
0000
0000
;

//---------------dance-single - ----------------
#NOTES:
     dance-single:
     :
     Easy:
     7:
     :
0000
0000
0000
0000
,
0000
0000
0000
0000
,
0000
0000
0000
0000
,
0000
0000
0000
0000
,
0110
0001
0100
1000
,
0110
0010
1000
0100
,
0110
0001
0010
1000
,
0110
1000
0010
0100
,
1001
0001
0010
0100
,
1001
0010
1000
0100
,
1001
0010
1000
0001
,
1001
0100
0001
1000
,
0010
0101
0010
1100
,
0001
1010
0100
0011
,
1000
1001
0010
1010
,
0100
0010
0001
1000
,
1100
0011
0100
0010
,
1001
0010
1001
0100
,
0001
0010
1000
0100
,
1000
0110
0001
0100
,
1010
0001
0010
0100
,
0011
0100
0010
1000
,
1001
0010
1000
0100
,
1100
0010
0001
0100
,
1001
0100
1001
0100
,
1100
0110
0011
0000
,
1001
0010
1000
0100
,
0110
0010
0001
0100
,
1001
0010
1000
0100
,
0010
0110
0100
0000
,
1001
0001
0010
1000
,
1100
0010
0001
0100
,
0110
0010
0100
0010
,
1010
0001
1000
0100
,
1000
0001
0010
1000
,
0100
0010
1001
0110
,
0001
0101
1000
1100
,
0010
0100
0001
1001
,
1100
0010
1000
0001
,
0011
0100
0001
0010
,
0101
0010
1000
0100
,
1001
1010
1100
0000
,
0110
0010
0001
0100
,
0000
1000
0010
0100
,
0000
1010
0100
1010
,
0001
0100
1001
0110
,
1001
0100
1001
0100
,
0101
0110
1010
0000
,
1100
0001
0010
1000
,
0101
0010
0001
0100
,
1010
0010
0100
0001
,
0010
0110
0100
0000
,
1100
0010
0001
1000
,
0110
0001
0100
0010
,
1001
0000
0000
0000
;

//---------------dance-single - ----------------
#NOTES:
     dance-single:
     :
     Medium:
     10:
     :
0000
0000
0000
0000
,
0000
0000
0000
0000
,
0000
0000
0000
0000
,
0000
0000
0000
0000
,
0110
0001
0000
0100
0000
0010
0000
1000
,
0110
0010
0000
1000
0000
0100
0000
0001
,
1001
0100
0000
0010
0000
1000
0000
0001
,
1001
1000
0000
0001
0000
0010
0000
0100
,
0110
0010
0000
0001
0000
0100
0000
1000
,
0110
0100
0000
0001
0000
0010
0000
1000
,
1001
0001
0000
0100
0000
0010
0000
1000
,
1001
0100
0000
0010
0000
1000
0000
0001
,
0010
0100
1100
0000
1000
0001
0101
0000
,
0010
1000
1100
0100
0010
0001
0011
0000
,
1000
0001
1001
0000
0010
0100
0110
0000
,
0001
0100
0001
0010
0100
1000
0010
0010
,
1010
0000
0101
0000
1000
0001
0100
0010
,
1000
0100
1100
0000
0011
0001
0100
0000
,
1000
0001
1001
1001
0010
0100
0110
0001
,
1000
0100
0011
0000
1001
0010
0100
0001
,
1010
0000
1100
0000
0011
0001
0100
1000
,
1010
1000
0100
0010
0001
0100
0001
1000
,
1001
0010
1000
0100
1000
0001
0010
0100
,
0110
0010
0001
0100
0001
1000
0010
0000
,
1000
0001
0100
0000
0001
1000
0100
0000
,
1000
0010
0100
0110
1001
0000
0000
1100
,
0011
0100
0000
0010
0000
1000
0000
1010
,
0101
0001
0000
0010
0000
0001
0000
0101
,
1100
0010
0000
0001
0000
0100
0000
1001
,
0010
1001
0010
1000
0100
0000
0000
0110
,
0000
0011
0000
0101
0000
1010
0000
1100
,
0000
1001
0000
1010
0000
0110
0000
0101
,
0000
0011
0000
1100
0000
0101
0000
1010
,
0000
1001
0000
0011
0000
0110
0000
1100
,
0001
0100
0010
1000
0100
0010
0001
0100
,
0001
1000
0010
0100
0110
0001
0100
0000
,
0010
0100
1010
0000
0100
0010
0101
0000
,
1001
0001
0010
0100
1000
0010
1100
0000
,
0110
0010
0001
0100
1000
0010
0100
0000
,
0110
0001
0010
1000
0100
0010
0001
0000
,
0011
0100
0010
0000
1100
0001
1000
0100
,
1000
0010
0100
0001
1001
0110
1001
0110
,
1000
0010
0100
0001
0010
0100
1100
1100
,
0000
0001
0100
0010
1000
0001
0101
0101
,
0000
0100
1010
0000
0001
0100
1001
0000
,
0010
1000
0100
0001
0011
0110
1100
0000
,
0001
1000
0100
0000
1000
0001
0100
0000
,
0010
1000
0100
0110
1001
0000
0000
0011
,
1100
0010
0000
0100
0000
0001
0000
1010
,
0011
1000
0000
0010
0000
0100
0000
0101
,
1010
0001
0000
1000
0000
0010
0000
1001
,
0010
1001
0010
1000
0100
0000
0000
0110
,
0000
0011
0000
0101
0000
1010
0000
1100
,
0000
1001
0000
0011
0000
1100
0000
0101
,
0110
0000
0000
0000
;

//---------------dance-single - ----------------
#NOTES:
     dance-single:
     :
     Hard:
     13:
     :
0000
0000
0000
0000
,
0000
0000
0000
0000
,
0000
0000
0000
0000
,
0000
0000
0000
0000
,
0110
0010
0001
0100
1000
0100
0001
0100
,
0110
0100
0001
0010
1000
0010
0100
0010
,
0110
0010
0001
0100
0010
0100
1000
0100
,
0110
0010
0100
0001
0010
1000
0010
0100
,
0110
0100
0010
1000
0010
0001
0100
0010
,
0110
0100
0010
0001
0010
1000
0010
0100
,
0110
0010
0100
0010
1000
0100
0001
0100
,
0110
0000
0100
0000
0010
0000
1000
0000
0010
0000
0001
0000
0100
0000
0010
1000
,
0010
0000
0100
0001
0100
0000
0000
0000
0010
1000
0000
1000
0001
0000
0000
0000
,
0010
0001
0000
0001
0100
0000
0010
1000
0010
0000
0100
0001
0000
1000
0000
0001
,
0100
0000
0010
1000
0010
0000
0100
0000
0001
0010
0001
0010
0001
0010
0000
0000
,
0100
1000
0100
0000
1000
0001
1000
0000
0100
0000
0010
0001
0010
0000
0100
0000
,
1000
0010
0000
0000
0001
0010
0000
0000
1000
0100
1000
0100
1000
0000
0010
0000
,
0100
0001
0100
0001
0100
0001
0000
0000
1000
0010
1000
0010
1000
0010
0000
0000
,
0100
0000
0001
0010
0001
0000
0100
0000
0010
1000
0010
1000
0010
0000
0100
0001
,
1000
0001
1000
0001
0100
0000
0000
0010
1000
0001
1000
0001
1000
0000
0010
0000
,
0110
0100
0001
0010
1000
0010
0100
0010
,
0011
0001
0100
0010
0001
0010
1000
0001
,
0101
0100
0010
0100
1000
0100
0001
1000
,
1001
0010
1000
0100
0010
0001
0100
0010
,
1000
0001
1000
0100
0000
0000
0000
0000
1000
0001
1000
0100
0000
0000
0000
0000
,
1000
0010
0000
0100
0001
0000
1001
0000
0110
0000
0010
0000
0100
0000
0101
0000
,
1010
1000
0100
0001
0100
0010
0001
0011
,
0101
0100
0010
1000
0001
0010
0100
1100
,
1001
0010
0100
0001
0010
1000
0010
0110
,
0010
0000
0001
1000
0000
0001
1000
0000
0200
0000
0010
0000
0310
0000
0110
0000
,
0001
0011
0100
1010
1000
0101
0010
0011
,
1000
1100
0100
1001
0010
1010
0001
1001
,
0100
1100
0010
1010
1000
0110
0001
0101
,
0010
0011
0001
1010
0100
1001
1000
1100
,
0010
0000
0001
1000
0001
0000
0100
0010
0000
0010
0000
0010
1000
0000
0100
0010
,
0001
0000
1000
0000
0010
0000
0100
0000
0001
0010
0100
1000
0000
0000
0000
0000
,
0010
0000
1000
0001
0100
0000
0000
0001
1000
0001
0100
0000
0110
0000
0000
0010
,
1000
0000
0100
0000
0010
0000
0001
0000
0100
0010
1000
0000
0101
0000
0000
0000
,
0110
1000
0100
0010
1000
0010
0001
0100
,
0110
0010
0100
0001
0010
1000
0010
0100
,
1100
0001
1000
0010
0100
1000
0100
0001
,
0011
0000
0010
0000
0001
0000
0100
0000
1000
0001
1000
0001
1000
0001
1000
0001
,
1000
0000
0010
0100
0001
0000
1000
0000
0100
0000
0010
0000
0001
0100
0001
0000
,
0000
1000
0010
1000
0100
0000
0010
0001
0000
0001
1000
0001
1000
0000
0101
0000
,
0000
0000
0100
0000
0010
0000
1000
0000
0000
0000
0001
0000
0000
0000
0000
0000
0001
0000
0000
0010
0000
0000
0100
0000
1000
0000
0000
0000
0000
0000
0010
0000
,
1000
0001
0000
0001
0000
0001
0100
0010
0000
1000
0000
0001
0100
0000
0000
0000
,
0001
1000
0001
0100
0000
0000
0000
0000
0001
1000
0001
0100
0000
0000
0000
0000
,
0010
0100
0000
0001
1000
0000
1001
0000
0110
0000
0010
0000
1000
0000
1100
0000
,
0011
0100
0010
1000
0100
0010
0001
1001
,
1100
0010
1000
0001
0100
0010
1000
0101
,
1010
1000
0100
0001
0100
0010
0001
1001
,
0010
0000
1000
0001
0000
1000
0001
0000
0200
0000
0010
0000
0310
0000
0110
0000
,
0001
1100
0010
1001
1000
0011
0100
1100
,
0010
0110
0100
1100
1000
1001
0001
0011
,
0110
0000
0000
0000
;

//---------------dance-single - ----------------
#NOTES:
     dance-single:
     :
     Challenge:
     14:
     :
0000
0000
0000
0000
,
0000
0000
0000
0000
,
0000
0000
0000
0000
,
0000
0000
0000
0000
,
0110
0010
0001
0100
1000
0100
0010
0100
,
1010
0001
0010
1000
0010
0100
0010
0001
,
0101
0010
1000
0100
1000
0010
0001
0010
,
0110
1000
0100
0001
0100
0010
0001
1000
,
1001
0010
1000
0100
0001
0100
0010
0001
,
0011
1000
0001
0100
1000
0100
0001
0010
,
0110
0010
0100
0010
0001
1000
0100
0001
,
0101
0000
0100
0000
0010
0000
1000
0000
0100
0000
0010
0000
0001
0000
1000
0001
,
0010
0000
0001
0100
0001
0000
0000
0000
0010
0100
0000
0100
1000
0000
0000
0000
,
0001
0100
0000
0100
0010
0000
1000
0001
1000
0000
0100
0010
0000
0110
0000
1000
,
0001
0000
0100
0001
0100
0010
0000
0000
1000
0100
1000
0001
1000
0010
0000
0000
,
0100
0001
0100
0001
0100
0010
1000
0001
1000
0000
0100
1000
0001
0000
0010
0000
,
0001
0010
0000
0000
1000
0010
0000
0000
0100
0001
0100
0010
1000
0000
0010
0000
,
1000
0001
0010
0001
0100
0010
0000
0000
1001
0010
1000
0100
0000
1000
0001
0000
,
0010
0000
0001
0100
1000
0000
1010
0000
1000
0100
0010
0100
1000
0000
0001
1000
,
0010
0100
0001
0100
0010
0000
0000
1000
0100
0001
0100
1000
0010
0000
0101
0000
,
1100
0001
0000
0000
0010
0100
0000
0000
1001
0000
0010
1000
0100
0000
1000
0001
,
0010
0000
0100
0000
0010
0000
0001
0100
0010
0000
1000
0100
1000
0000
0001
0000
,
0010
0100
0000
0110
0000
0000
1000
0010
0000
0100
0001
0000
0011
0000
0100
1000
,
0100
0000
0010
0100
0010
0000
1000
0100
0010
0001
1000
0001
0000
0000
0000
0100
,
0001
0010
0001
0100
0000
0000
0000
0010
0001
1000
0001
0100
0000
0000
0000
0010
,
1000
0100
0000
1000
0001
0100
0010
1000
0001
0000
0100
0000
0010
0000
1001
1000
,
0001
0000
0010
0000
0001
0000
0100
0000
0010
0000
1000
0000
0100
0000
1100
1000
,
0100
0000
0010
0000
1000
0000
0010
0000
0100
0000
0010
0000
0001
0000
0101
0001
,
0100
0010
0001
0010
1000
0100
1000
1001
,
0010
0000
1001
0010
0000
1000
0001
0000
0200
0000
0010
0000
0310
0000
0110
0000
,
0001
0000
0101
0000
0010
0000
1010
0000
0100
0000
1000
0010
0100
0001
1001
0000
,
0010
0011
0100
1100
0001
0101
0010
1010
,
0100
0000
1100
0000
0001
0000
1010
0000
0010
0000
0100
0001
1000
0010
0110
0000
,
0100
0101
0001
0011
1000
1001
0010
0110
,
0001
0100
0000
0010
1000
0000
0100
0010
0000
0011
0000
0001
1000
0000
0010
1000
,
0001
0000
0100
0000
0010
0000
1010
0000
1000
0100
0010
0001
0000
0000
0000
0000
,
0100
0000
0001
0010
0001
0000
0000
1000
0100
0010
0001
0000
0110
0000
0000
0100
,
1000
0000
0010
0100
0000
0010
1000
0001
0010
0100
0000
1100
0000
0000
0000
0001
,
1000
0000
0010
0100
0010
1000
0100
0010
0000
0001
0000
1000
0001
0000
0000
0000
,
0100
0001
0010
0000
0001
1000
0100
0000
1000
0010
0100
0000
0110
0000
0000
0001
,
1000
0000
1100
0000
1000
0001
0000
0010
0001
0100
0000
0110
0000
1001
0000
0000
,
1000
0100
0001
0100
1000
0100
0001
0100
1000
0010
1000
0010
1000
0010
1000
0010
,
0100
0000
0001
0010
0001
0000
0100
0010
0000
1000
0000
0000
0001
0100
1000
0000
,
0000
0010
1000
0001
1000
0000
0100
0010
0000
0001
0100
0001
1000
0000
0011
0000
,
0000
0000
0010
0000
0001
0000
1000
0000
0000
0000
1010
0000
0000
0000
0000
0000
0100
0000
0000
1000
0000
0000
0001
0000
0101
0000
0000
0000
0000
0000
0010
0000
,
1000
0100
0000
1001
0000
0010
0001
0100
0000
0100
0000
0100
0010
0000
0000
1000
,
0001
0010
0001
0100
0000
0000
0000
0001
1000
0010
1000
0100
0000
0000
0000
1000
,
0010
0100
0000
0001
0010
0001
0100
0010
1000
0000
0100
0000
0010
0000
0110
0010
,
0100
0000
1000
0000
0010
0000
0001
0000
0010
0000
1000
0000
0100
0000
1100
0100
,
1000
0000
0001
0000
0100
0000
1000
0000
0100
0000
0001
0000
0010
0000
0011
0010
,
0001
0100
0010
0001
0010
1000
0100
1001
,
0010
0000
1001
0010
0000
1000
0001
0000
0200
0000
0010
0000
0310
0000
0110
0000
,
0001
0000
0011
0000
0010
0000
1010
0000
0100
0000
1000
0010
0100
0001
1001
0000
,
0010
1100
0001
0011
0100
1010
0001
1100
,
0011
0000
0000
0000
;
