#TITLE:Jewelya of De'Nile;
#ARTIST:Big Idea;
#BANNER:Jewelya of De'Nile-bg.png;
#BACKGROUND:Jewelya of De'Nile-bg.png;
#JACKET:Jewelya of De'Nile-jacket.png;
#DISCIMAGE:Jewelya of De'Nile-bn.png;
#MUSIC:Jewelya of De'Nile.ogg;
#OFFSET:-0.042;
#SAMPLESTART:16.937;
#SAMPLELENGTH:20;
#DISPLAYBPM:170;
#BPMS:0=170;
#BGCHANGES:;

//---------------dance-single - ----------------
#NOTES:
     dance-single:
     :
     Beginner:
     2:
     :
0000
0000
0000
0000
,
0000
0000
0000
0000
,
0000
0000
0000
0000
,
0000
0000
0000
0000
,
1000
0000
0000
0000
,
0001
0000
0000
0000
,
0100
0000
0000
0000
,
1010
0000
0000
0000
,
0100
0000
0000
0000
,
0001
0000
0000
0000
,
1000
0000
0000
0000
,
1001
0000
0000
0000
,
0000
0000
1000
0000
,
0100
0000
1000
0000
,
0010
0000
0000
0100
,
0100
0000
0000
0000
,
0001
0000
0000
1000
,
1000
0000
0000
0000
,
1001
0000
0000
0000
,
0000
0000
0000
0000
,
0000
0000
0001
0000
,
0100
0000
0001
0000
,
0010
0000
0000
0100
,
0100
0000
0000
0000
,
1000
0000
0000
0001
,
0001
0000
0000
0000
,
1001
0000
0000
0000
,
1000
0000
0100
0000
,
1000
0000
0000
0000
,
0000
0000
0001
0000
,
0100
0000
0000
0000
,
0000
0000
0010
0000
,
1000
0000
0000
0000
,
0000
0000
0001
0000
,
1000
0000
0000
0000
,
0100
0000
0010
0000
,
0100
0000
0000
0000
,
1000
0000
0000
0000
,
0001
0000
0100
0000
,
0001
0000
0000
0000
,
0100
0000
0000
0000
,
0010
0000
0000
0000
,
1000
0000
0100
0000
,
1000
0000
0000
0000
,
0100
0000
0000
0000
,
0010
0000
0000
0000
,
0001
0000
1000
0000
,
0001
0000
0000
0000
,
1000
0000
0000
0000
,
0001
0000
0000
0000
,
1000
0000
0100
0000
,
1000
0000
0010
0000
,
1000
0000
0000
0000
,
0000
0000
0001
0000
,
0010
0000
0000
0000
,
0000
0000
0001
0000
,
0100
0000
0000
0000
,
0010
0000
1000
0000
,
0100
0000
0000
0000
,
1000
0000
0001
0000
,
0100
0000
0000
0000
,
0000
0000
0010
0000
,
1000
0000
0000
0000
,
0000
0000
0001
0000
,
1000
0000
0000
0000
,
0000
0000
0010
0000
,
0100
0000
0000
0000
,
0010
0000
0100
0000
,
0110
0000
0000
0000
;

//---------------dance-single - ----------------
#NOTES:
     dance-single:
     :
     Easy:
     4:
     :
0000
0000
0000
0000
,
0000
0000
0000
0000
,
0000
0000
0000
0000
,
0000
0000
0000
0000
,
1000
0000
0100
0000
,
1000
0000
0000
0000
,
0001
0000
0100
0000
,
0001
0000
0000
0000
,
1000
0000
0010
0000
,
1000
0000
0000
0000
,
1001
0000
0000
0000
,
1000
0001
1000
0001
,
1000
0000
0100
0000
,
1000
0000
0010
0000
,
0100
0000
0000
0001
,
1000
0000
0000
0000
,
1001
0000
0000
1000
,
0001
0000
0000
0000
,
0100
0000
0000
0000
,
0110
0000
0000
0000
,
0001
0000
0100
0000
,
0001
0000
0010
0000
,
0100
0000
0000
1000
,
0001
0000
0000
0000
,
1001
0000
0000
0001
,
1000
0000
0000
0000
,
0100
0000
0000
0000
,
0010
0000
0001
0000
,
0010
0000
0000
0000
,
0001
0000
1000
0000
,
0001
0000
0000
0000
,
1000
0000
0010
0000
,
1000
0000
0000
0000
,
0001
0000
1000
0001
,
1001
0000
0000
0000
,
1000
0001
1000
0001
,
1000
0000
0100
0000
,
1000
0100
1000
0000
,
0001
0100
0001
0000
,
1000
0000
0010
0000
,
0100
0010
0100
0000
,
0001
0000
0010
0100
,
0010
0000
0100
0000
,
0000
1000
0100
0010
,
0001
0000
0100
0000
,
0001
0000
1000
0000
,
0100
1000
0100
0000
,
1000
0000
0001
0000
,
0100
0001
0100
0000
,
0010
0000
0100
0000
,
0001
0010
0001
0000
,
1000
0000
0100
0000
,
1000
0000
0000
0000
,
0001
0000
0100
0001
,
0100
0000
0000
0000
,
0001
0000
1000
0100
,
1000
0000
0000
0000
,
0010
0000
1000
0000
,
0100
0000
0000
0000
,
0010
0000
0001
0000
,
0100
0000
0000
0000
,
0001
0000
1000
0010
,
1000
0000
0000
0000
,
1000
0000
0001
0010
,
0001
0000
1000
0000
,
0100
0000
0001
0000
,
0100
0000
0000
0000
,
1000
0001
1000
0001
,
1001
0000
0000
0000
;

//---------------dance-single - ----------------
#NOTES:
     dance-single:
     :
     Medium:
     8:
     :
0000
0000
0000
0000
,
0000
0000
0000
0000
,
0000
0000
0000
0000
,
0000
0000
0000
0000
,
0001
0010
0000
0001
0000
0100
0000
0010
,
0000
0100
0010
0000
,
1000
0001
0000
0100
0000
0000
0000
0000
,
0001
1000
0000
0100
0000
0000
0000
0000
,
1000
0010
0000
1000
0000
0100
0000
0010
,
0000
0100
0010
0000
,
1001
0000
0000
0000
,
1000
1000
0001
0001
,
1000
0000
0100
1000
0000
0010
0000
1000
,
0000
0100
0010
0000
0001
0000
0000
0000
,
0001
0000
0100
0001
0000
0010
0000
0001
,
0000
0100
0010
0000
1000
0000
0000
0000
,
1000
0000
0001
0010
0000
0100
0000
1000
,
0000
0010
0100
0000
0001
0000
0000
0000
,
0001
0000
1000
0010
0000
0100
0000
0001
,
0000
0010
0100
0000
1000
0000
0000
0000
,
1000
0000
0000
0100
0000
1000
0000
0010
,
0000
1010
0011
0000
,
0001
0000
0000
0100
0000
0001
0000
0010
,
0000
0011
1100
0000
,
1000
0000
0000
0001
0000
1000
0000
0100
,
0000
1100
0101
0000
,
0001
0000
0000
1000
0000
0001
0000
0100
,
0000
1001
0110
0000
,
1000
0100
0001
0100
,
1000
0000
0000
0001
1000
0000
0000
0000
,
0001
0100
1000
0100
,
0001
0000
0000
1000
0001
0000
0000
0000
,
1000
0010
0001
0010
,
1000
0000
0000
0001
1000
0000
0000
0000
,
1001
0000
0000
0000
,
1000
1000
0001
0001
,
1000
0000
0100
1000
0100
0000
1000
0000
,
0001
0000
0000
0100
0000
0010
0000
0000
,
0100
0000
0000
0000
0000
0001
0000
1000
,
0000
0100
0000
0000
1000
0010
1000
0000
,
0001
0000
0010
0001
0010
0000
0001
0000
,
1000
0000
0100
1000
0100
0000
1000
0000
,
0001
0000
1000
0010
,
0100
0000
0001
0010
,
0100
0000
1000
0100
0010
0000
0000
0000
,
0001
0000
0100
0010
1000
0000
0000
0000
,
0001
0000
0010
0100
1000
0000
0000
0000
,
0010
0000
0100
0001
1000
0000
0000
0000
,
0001
0000
0001
0000
1000
0100
0000
0000
,
1000
0000
1000
0000
0001
0010
0000
0000
,
0001
0100
0000
0000
1000
0100
0000
0000
,
0010
0010
0100
0100
,
0110
0000
1000
0100
,
1000
0000
0000
0001
1000
0000
0001
0000
,
0100
0000
0001
0010
,
0001
0000
0000
1000
0001
0000
1000
0000
,
0010
0000
1000
0100
0000
0010
0000
0001
,
0000
0000
0000
0100
0010
0000
0100
0000
,
0001
0000
1000
0100
0000
0010
0000
0100
,
0000
0000
0000
1000
0001
0000
0100
0000
,
0010
0000
0100
0001
,
1000
0000
0000
0001
1000
0000
0100
0000
,
0010
0000
0100
1000
,
0010
0000
0000
1000
0001
0000
1000
0000
,
0001
0000
0100
0001
0000
0010
0000
0100
,
0000
0000
0000
1000
0001
0000
1000
0000
,
1001
0000
0000
0000
,
1000
1000
0001
0001
,
1001
0000
0000
0000
;

//---------------dance-single - ----------------
#NOTES:
     dance-single:
     :
     Hard:
     11:
     :
0000
0000
0000
0000
,
0000
0000
0000
0000
,
0000
0000
0000
0000
,
0000
0000
0000
0000
,
0001
0100
0000
0001
0000
1000
0000
0100
,
0000
0000
0010
0000
0100
0010
0000
0000
,
0100
1000
0000
0001
0000
1000
0000
0000
,
0010
0100
0000
0001
0000
1000
0000
0000
,
1000
0100
0000
1000
0000
0001
0000
0100
,
0000
0000
0010
0000
0100
0010
0000
0000
,
0110
0000
0000
0000
,
0100
0010
1000
0001
1000
0001
1000
0001
,
1000
0000
0001
0100
0000
0001
1000
0100
,
0000
1000
0001
0000
0100
0010
0100
0000
,
0010
1000
0001
0010
0000
0001
1000
0010
,
0000
1000
0001
0000
0100
0010
0100
0000
,
0010
1000
0100
0010
0000
0100
1000
0010
,
0000
0100
0001
0000
0100
0001
1000
0000
,
0001
1000
0010
0100
0000
0010
1000
0001
,
0000
1000
0100
0000
1000
0001
0100
0000
,
1001
0000
1000
0100
0000
1000
0001
0100
,
0000
0001
0100
0000
0010
0010
0010
0000
,
1001
0000
0001
0010
0000
0001
1000
0010
,
0000
1000
0001
0000
0100
0100
0100
0000
,
0101
0000
0001
0010
0000
0001
0100
0010
,
0000
0100
0001
0000
0010
0100
1000
0000
,
1100
0000
1000
0100
0000
1000
0010
0100
,
0000
0010
1000
0001
0010
0100
1000
0000
,
1100
1100
0101
0101
,
1100
0000
0000
1000
0100
0010
0001
0000
,
0011
0011
1010
1010
,
0011
0000
0000
0010
0001
1000
0100
0000
,
1001
0000
0100
0010
0000
1000
0000
0001
,
0000
0010
0001
1000
0010
0000
0000
0000
,
0110
0000
0000
0000
,
0100
0010
1000
0001
1000
0001
1000
0001
,
0010
0000
0001
0010
0001
0000
0100
0001
,
0100
0000
0000
0010
0000
1000
0000
0100
,
1000
0000
1100
0101
,
1100
0000
0000
1000
0100
0010
0001
0100
,
1000
0000
0100
0001
0010
0000
0001
0010
,
1000
0000
0010
0001
0100
0000
0001
1000
,
0100
0000
1000
0010
0100
0000
0000
0000
,
0010
0000
1001
0000
1000
0100
1000
0010
,
0100
0000
0001
0100
0001
0010
0100
1000
,
0000
0010
1000
0100
0000
1000
0001
0000
,
0100
0000
0010
1000
0100
0010
0001
0100
,
0010
0000
0000
1000
0100
0001
0000
0100
,
1000
0010
0000
1000
0100
0001
0000
0100
,
0000
0010
0000
0011
0000
1010
0000
1000
,
0100
0000
0000
0101
0000
0001
0100
1000
,
0100
0000
0001
0100
0010
1000
0100
0000
,
1100
0101
1100
0101
,
1001
0000
0000
0100
1000
0001
0010
0000
,
0011
1010
0011
1010
,
1001
0000
0000
0010
1000
0001
0010
0000
,
0001
1000
0000
1001
0000
1000
0100
1000
,
0000
0001
0100
0001
0010
0000
0100
0000
,
1000
0001
0000
1001
0000
0001
0100
0001
,
0000
1000
0100
1000
0010
0000
0100
0000
,
0101
1100
1010
0011
,
1001
0000
0000
0100
0001
1000
0100
0000
,
1100
0101
0011
1010
,
1001
0000
0000
0010
0001
1000
0010
0000
,
1000
0000
0000
0001
0000
1000
0000
0101
,
0000
1100
0000
0000
1010
0000
0011
0000
,
0110
0000
0000
0000
,
0100
0010
0001
1000
0010
1000
0001
0010
,
0100
0000
0000
0000
;

//---------------dance-single - ----------------
#NOTES:
     dance-single:
     :
     Challenge:
     17:
     :
0000
0000
0000
0000
,
0000
0000
0000
0000
,
0000
0000
0000
0000
,
0000
0000
0000
0000
,
1000
1000
0000
0101
0000
1100
0000
0101
,
0000
0001
1000
0000
0010
0100
0010
0100
0010
1000
0100
1000
0001
0010
0001
0000
,
0100
0000
0110
0000
0000
0000
1001
0000
0000
0000
0110
0000
0000
0000
0001
0100
,
0001
0000
1000
0000
0100
0000
0010
0001
1000
0000
0010
0000
0100
0001
1000
0100
,
0010
0010
0000
0011
0000
1100
0000
0011
,
0001
1000
0001
0000
0010
0100
1000
0100
0010
0000
0001
0000
0100
0010
1000
0000
,
1001
0000
0000
0000
0000
0000
0010
0000
0100
0000
0001
1000
0010
1000
0001
1000
,
0200
0320
0230
0320
0032
2003
3002
2003
3020
0230
0320
0230
0302
2003
3002
2003
,
3100
0000
0010
0000
0001
0000
1000
0010
1000
0100
0010
0000
0001
0000
1000
0001
,
0100
0000
0010
0000
1000
0000
0001
0010
0001
1000
0001
0000
0100
0000
0010
1000
,
0100
0000
0010
0000
0001
0000
0100
0010
1000
0001
1000
0000
0100
0000
0010
0001
,
1000
0000
0010
0000
0100
0000
0001
0010
0001
0000
1000
0100
1000
0100
0010
0001
,
0100
0000
0001
0000
0010
0000
0001
1000
0100
0010
0001
0000
1000
0000
0010
0100
,
0010
0000
1000
0000
0100
0000
0010
0001
1000
0000
0010
1000
0100
0010
0001
0100
,
0001
0000
0010
0000
0001
0010
0100
1000
0010
1000
0100
0010
0001
0000
1000
0001
,
0100
0000
0010
0000
1000
0000
0010
0100
0000
0000
0001
1000
0001
1000
0001
1000
,
0100
0000
0010
0000
0100
0000
1000
0001
0010
0001
1000
0000
0010
0000
0001
0000
,
0100
0000
0010
0000
1000
0000
0100
0010
0100
1000
0001
0000
0010
0001
1000
0001
,
0010
0000
0100
0000
1000
0000
0100
1000
0001
0010
0001
0000
0100
0000
0010
0000
,
1000
0000
0100
0000
1000
0010
0100
0010
1000
0000
0001
0100
0001
0010
0001
0100
,
0010
0000
1000
0000
0100
0000
0010
0100
1000
0001
0010
0000
0100
0000
1000
0001
,
1000
0000
0010
0000
0100
0001
0100
0001
0010
0100
1000
0000
0001
0100
0010
0100
,
0001
0000
1000
0000
0100
0000
1000
0001
0010
0000
0100
0000
0010
0000
0001
1000
,
0100
0000
0010
0000
0001
0000
1000
0010
1000
0000
0100
0010
0001
0000
1000
0100
,
1000
0000
1010
0000
0000
0000
0101
0000
0000
0000
0011
0000
0000
0000
0001
0100
,
0001
0000
1000
0010
1000
0000
0100
0000
0010
0000
0001
0000
1000
0010
0100
0001
,
0010
0001
0100
0000
0010
1000
0100
0000
1000
0001
0010
0000
0001
1000
0100
0000
,
0010
0000
0001
0100
0001
0000
1000
0000
0010
0000
0100
0000
0010
0000
1000
0001
,
0100
0000
0010
0000
1000
0000
0100
0010
0001
1000
0001
0000
0010
0000
0100
1000
,
0001
0000
0010
0000
0100
0000
1000
0001
1000
0000
0001
1000
0010
0100
0010
0100
,
0001
0000
0000
0000
0000
0000
1000
0100
1000
0000
0010
0100
0001
1000
0010
0100
,
0002
0023
0032
0023
0230
2300
3200
2300
3020
2030
3020
2030
3002
0203
0302
0203
,
0310
0100
0101
0101
0101
0001
1000
1100
,
1100
0010
0100
0110
0000
1001
0000
1100
,
0011
0000
0100
0000
0010
0000
1000
0001
0010
0001
1000
0000
0100
0000
0010
0001
,
1000
1010
0000
0101
0101
0101
0101
0101
,
0101
0000
1001
0000
0010
0000
1000
0000
0110
0000
0001
0010
0001
0000
1000
0000
,
1010
0000
0010
0100
0001
0000
0011
0000
0011
0000
0100
1000
0001
0000
0011
0000
,
0011
0000
0100
1000
0010
0000
1100
0000
1100
0000
0001
0000
1000
0000
0010
0100
,
0010
0000
1000
0000
0100
0000
0010
0001
0100
0000
0010
1000
0001
0000
1000
0100
,
0001
0010
1000
0010
0001
0100
0010
0110
,
0000
0000
1000
0010
0100
0000
1000
0100
0010
0000
0001
0000
0001
0000
0010
0100
,
1000
0000
0001
0000
1010
0000
0100
0010
0001
0000
1000
0000
0010
0000
1000
0100
,
0001
0000
0010
0000
0100
0000
0010
0100
1000
0000
0001
0000
0100
0000
0010
1000
,
0001
0000
0011
0000
0100
0000
1000
0001
1000
0000
1001
0000
0010
0000
0100
0000
,
0001
0000
0010
0100
1000
0000
0010
1000
0001
0000
0100
0000
0010
0000
1000
0000
,
1100
0001
0100
0101
0010
1000
0001
1000
,
0100
0010
0001
1000
1010
1010
1010
1010
,
1010
0000
0100
0000
0010
0000
0001
0100
0001
0000
1000
0000
0010
0000
1000
0100
,
1000
0000
0001
0010
0001
0000
0100
0010
1000
0000
0100
0000
0010
0000
0001
1000
,
0001
0010
0100
0000
1000
0010
0100
0000
0001
1000
0010
0000
0100
0001
1000
0000
,
0100
0000
0010
0001
1000
0000
0010
0000
0100
0000
0001
0000
1000
0000
0100
0001
,
0010
0000
0100
0000
1000
0000
0010
0000
0100
0001
1000
0000
0010
0000
0100
0001
,
0010
0000
0100
0000
0010
0000
0001
0100
0010
1000
0001
0000
1000
0100
1000
0001
,
0010
0000
1100
0000
0001
0000
0100
0010
1000
0010
0100
0000
0001
0000
1000
0100
,
0010
0000
0001
0000
0100
0010
0000
0010
1000
0000
1000
0100
0010
0000
0001
1000
,
0001
0000
0010
0001
1000
0000
0010
1000
0100
0000
0010
0000
0001
0000
1000
0100
,
0010
0000
0001
1000
0001
0000
0010
0100
1000
0000
0010
0000
0100
0000
0001
1000
,
0001
0010
0100
0000
0010
0001
1000
0000
0100
1000
0001
0000
1000
0010
0100
0000
,
0110
0001
0010
1000
0101
0001
0100
1000
,
0010
0000
1000
0000
0100
0000
0010
0001
1000
0001
1000
0000
0010
0100
0001
0000
,
1000
0000
0100
0000
0010
0000
0001
1000
0001
0010
0100
0000
1000
0000
0001
0010
,
0001
0000
0010
0000
0100
0000
1000
0010
0000
0010
1000
0001
1000
0100
0010
0001
,
0200
0302
0203
0302
0023
0032
0023
0032
2003
3020
2030
3020
2030
3200
2300
3200
,
0310
0000
0001
0000
1000
0010
0100
0001
1000
0000
0000
0000
0000
0000
0000
0000
;

//---------------dance-double - ----------------
#NOTES:
     dance-double:
     :
     Easy:
     5:
     :
00000000
00000000
00000000
00000000
,
00000000
00000000
00000000
00000000
,
00000000
00000000
00000000
00000000
,
00000000
00000000
00000000
00000000
,
00100000
00000000
10000000
00000000
,
01000000
00000000
00000000
00000000
,
00010000
00000000
00001000
00000000
,
00000100
00000000
00000000
00000000
,
00000001
00000000
00000010
00000000
,
00000100
00000000
00000000
00000000
,
00000110
00000000
00000000
00000000
,
00000100
00010000
00000100
00010000
,
00000100
00000000
00010000
00000000
,
00001000
00000000
00100000
00000000
,
00010000
00000000
00000000
10000000
,
00010000
00000000
00000000
00000000
,
10010000
00000000
00000000
00010000
,
10000000
00000000
00000000
00000000
,
01000000
00000000
00000000
00000000
,
01100000
00000000
00000000
00000000
,
00010000
00000000
01000000
00000000
,
00001000
00000000
00010000
00000000
,
00000100
00000000
00000000
00001000
,
00000001
00000000
00000000
00000000
,
00001001
00000000
00000000
00000001
,
00001000
00000000
00000000
00000000
,
00000010
00000000
00000000
00000000
,
00001000
00000000
00000100
00000000
,
00001000
00000000
00000000
00000000
,
00000100
00000000
00010000
00000000
,
00001000
00000000
00000000
00000000
,
01000000
00000000
00010000
00000000
,
01000000
00000000
00000000
00000000
,
00100000
00000000
01000000
00100000
,
01100000
00000000
00000000
00000000
,
00100000
10000000
00100000
10000000
,
00100000
00000000
10000000
00000000
,
01000000
10000000
01000000
00000000
,
00010000
01000000
00010000
00000000
,
00001000
00000000
00010000
00000000
,
00001000
00000100
00001000
00000000
,
00000100
00000000
00000001
00000100
,
00000001
00000000
00000010
00000000
,
00000000
00000100
00010000
00001000
,
01000000
00000000
00000000
00000000
,
00100000
00000000
10000000
00000000
,
01000000
10000000
01000000
00000000
,
10000000
00000000
01000000
00000000
,
00010000
00001000
00010000
00000000
,
00001000
00000000
00000100
00000000
,
00000001
00000010
00000001
00000000
,
00001000
00000000
00000001
00000000
,
00000010
00000000
00000000
00000000
,
00000100
00000000
00010000
00001000
,
00010000
00000000
00000000
00000000
,
01000000
00000000
00100000
00010000
,
00100000
00000000
00000000
00000000
,
00010000
00000000
10000000
00000000
,
01000000
00000000
00000000
00000000
,
00010000
00000000
00001000
00000000
,
00010000
00000000
00000000
00000000
,
00001000
00000000
00000100
00000010
,
00000100
00000000
00000000
00000000
,
00000001
00000000
00001000
00000100
,
00001000
00000000
00000100
00000000
,
00010000
00000000
00001000
00000000
,
01000000
00000000
00000000
00000000
,
00001000
00010000
00001000
00010000
,
00011000
00000000
00000000
00000000
;

//---------------dance-double - ----------------
#NOTES:
     dance-double:
     :
     Medium:
     9:
     :
00000000
00000000
00000000
00000000
,
00000000
00000000
00000000
00000000
,
00000000
00000000
00000000
00000000
,
00000000
00000000
00000000
00000000
,
10000000
00100000
00000000
01000000
00000000
00010000
00000000
00100000
,
00000000
00001000
00010000
00000000
,
00001000
00010000
00000000
01000000
00000000
00000000
00000000
00000000
,
00010000
00001000
00000000
00000100
00000000
00000000
00000000
00000000
,
00000001
00000010
00000000
00000100
00000000
00001000
00000000
00000010
,
00000000
00010000
00001000
00000000
,
00011000
00000000
00000000
00000000
,
00001000
00001000
00010000
01000000
,
10000000
00000000
01000000
00100000
00000000
00010000
00000000
01000000
,
00000000
00010000
00100000
00000000
00001000
00000000
00000000
00000000
,
00010000
00000000
00000100
00001000
00000000
00000010
00000000
00000100
,
00000000
00000001
00001000
00000000
00001001
00000000
00000000
00000000
,
00000001
00000000
00000100
00000010
00000000
00001000
00000000
00000100
,
00000000
00001000
00000010
00000000
00010000
00000000
00000000
00000000
,
00001000
00000000
01000000
00010000
00000000
00100000
00000000
01000000
,
00000000
10000000
00010000
00000000
10010000
00000000
00000000
00000000
,
01000000
00000000
00000000
00100000
00000000
00010000
00000000
01000000
,
00000000
01010000
00011000
00000000
,
00010000
00000000
00000000
00000010
00000000
00001000
00000000
00000100
,
00000000
00001100
00000101
00000000
,
00000010
00000000
00000000
00000001
00000000
00000100
00000000
00001000
,
00000000
00010000
00011000
00000000
,
00001000
00000000
00000000
00010000
00000000
01000000
00000000
10000000
,
00000000
10010000
01100000
00000000
,
10000000
10000000
01000000
01000000
,
00010000
00000000
00000000
00001000
00010000
00000000
00000000
00000000
,
00001000
00001000
00000010
00000010
,
00000001
00000000
00000000
00000010
00000001
00000000
00000000
00000000
,
00000001
00000100
00000010
00010000
,
00001000
00000000
00000000
00010000
00000100
00000000
00000000
00000000
,
00011000
00000000
00000000
00000000
,
00001000
00010000
00100000
10000000
,
01000000
00000000
10000000
01000000
10000000
00000000
01000000
00000000
,
00100000
00000000
00000000
00010000
00000000
01000000
00000000
00000000
,
00001000
00000000
00000000
00000000
00000000
00010000
00000000
00000100
,
00000000
00001000
00000000
00000000
00000010
00001000
00000010
00000000
,
00000100
00000000
00000001
00000010
00000001
00000000
00000100
00000000
,
00001000
00000000
00010000
00001000
00010000
00000000
00001000
00000000
,
01000000
00000000
00100000
10000000
,
01000000
00000000
00010000
00001000
,
00000100
00000000
00000010
00001000
00000100
00000000
00000000
00000000
,
00000010
00000000
00000001
00000100
00001000
00000000
00000000
00000000
,
00010000
00000000
00001000
00010000
01000000
00000000
00000000
00000000
,
10000000
00000000
00100000
10000000
01000000
00000000
00000000
00000000
,
00100000
00000000
00100000
00000000
00010000
01000000
00000000
00000000
,
00001000
00000000
00001000
00000000
00010000
00000100
00000000
00000000
,
00001000
00000100
00000000
00000000
00000010
00000001
00000000
00000000
,
00000100
00001000
00010000
01000000
,
01100000
00000000
01000000
10000000
,
01000000
00000000
00000000
10000000
00010000
00000000
01000000
00000000
,
00001000
00000000
00010000
00001000
,
00010000
00000000
00000000
00000100
00001000
00000000
00000001
00000000
,
00000010
00000000
00000001
00000100
00000000
00000010
00000000
00001000
,
00000000
00000000
00000000
00000100
00010000
00000000
00001000
00000000
,
01000000
00000000
00010000
00100000
00000000
01000000
00000000
10000000
,
00000000
00000000
00000000
00100000
10000000
00000000
01000000
00000000
,
00010000
00000000
00001000
00010000
,
00001000
00000000
00000000
00010000
00000010
00000000
00001000
00000000
,
00000001
00000000
00000010
00001000
,
00010000
00000000
00000000
00001000
00010000
00000000
00100000
00000000
,
10000000
00000000
01000000
10000000
00000000
00010000
00000000
00100000
,
00000000
00000000
00000000
00001000
00010000
00000000
00001000
00000000
,
00011000
00000000
00000000
00000000
,
01000000
00010000
00001000
00010000
,
00001100
00000000
00000000
00000000
;

//---------------dance-double - ----------------
#NOTES:
     dance-double:
     :
     Hard:
     11:
     :
00000000
00000000
00000000
00000000
,
00000000
00000000
00000000
00000000
,
00000000
00000000
00000000
00000000
,
00000000
00000000
00000000
00000000
,
00010000
10000000
00000000
01000000
00000000
00010000
00000000
00001000
,
00000000
00000000
00010000
00000000
00000100
00001000
00000000
00000000
,
00000010
00010000
00000000
00001000
00000000
01000000
00000000
00000000
,
00100000
00001000
00000000
00010000
00000000
00000100
00000000
00000000
,
00001000
00000001
00000000
00000100
00000000
00001000
00000000
00010000
,
00000000
00000000
00001000
00000000
01000000
00010000
00000000
00000000
,
01100000
00000000
00000000
00000000
,
00100000
10000000
01000000
00010000
00001000
00000100
00000001
00000010
,
00000001
00000000
00000100
00000010
00000000
00001000
00000100
00000010
,
00000000
00000100
00010000
00000000
00001000
01000000
00010000
00000000
,
00100000
01000000
10000000
00100000
00000000
10000000
01000000
00010000
,
00000000
01000000
00100000
00000000
00010000
01000000
00001000
00000000
,
00010000
00000100
00001000
00000010
00000000
00000100
00000001
00000010
,
00000000
00000100
00001000
00000000
00000001
00000100
00001000
00000000
,
00000100
00001000
00010000
01000000
00000000
00010000
01000000
10000000
,
00000000
00100000
01000000
00000000
00010000
10000000
00100000
00000000
,
10100000
00000000
10000000
00010000
00000000
01000000
00010000
00100000
,
00000000
00001000
00010000
00000000
00000100
00001000
00000010
00000000
,
00000101
00000000
00000100
00000010
00000000
00010000
00001000
00000100
,
00000000
00001000
00010000
00000000
01000000
00100000
00010000
00000000
,
10010000
00000000
10000000
01000000
00000000
00100000
00010000
01000000
,
00000000
00001000
00010000
00000000
00000100
00001000
00000010
00000000
,
00000110
00000000
00000100
00000001
00000000
00000100
00001000
00010000
,
00000000
00001000
00010000
01000000
00010000
01000000
10000000
00000000
,
11000000
11000000
01010000
01010000
,
00011000
00000000
00000000
00000100
00001000
00000001
00000010
00000000
,
00000011
00000011
00001010
00001010
,
00011000
00000000
00000000
00100000
00010000
10000000
01000000
00000000
,
10000000
00000000
00010000
01000000
00000000
00010000
00000000
00100000
,
00000000
01000000
00010000
00001000
00000100
00000000
00000000
00000000
,
00000110
00000000
00000000
00000000
,
00000010
00000001
00000100
00001000
00010000
01000000
10000000
00100000
,
10000000
00000000
01000000
00100000
01000000
00000000
00010000
00001000
,
00010000
00000000
00000000
00001000
00000000
00000100
00000000
00000010
,
00001000
00000000
00000101
00001100
,
00011000
00000000
00000000
00001000
01000000
00010000
00100000
01000000
,
10000000
00000000
00100000
10000000
01000000
00000000
10000000
01000000
,
00010000
00000000
01000000
00010000
00001000
00000000
00010000
00001000
,
00000100
00000000
00001000
00000100
00000001
00000000
00000000
00000000
,
00000010
00000000
00001001
00000000
00000010
00001000
00000001
00000100
,
00000010
00000000
00010000
00000100
00001000
00000010
00010000
00001000
,
00000000
00100000
00010000
01000000
00000000
00010000
10000000
00000000
,
01000000
00000000
00100000
00010000
01000000
00001000
00100000
00010000
,
01000000
00000000
00000000
00100000
01000000
00100000
00000000
10000000
,
01000000
10000000
00000000
01000000
00010000
00001000
00000000
00010000
,
00000000
00001000
00000000
00011000
00000000
00010100
00000000
00000100
,
00001000
00000000
00000000
00001001
00000000
00000001
00000010
00000001
,
00000100
00000000
00000010
00010000
00000100
00001000
00000010
00000000
,
00001100
00010100
00011000
01001000
,
01010000
00000000
00000000
00010000
01000000
00100000
10000000
00000000
,
10100000
10010000
00110000
00101000
,
00011000
00000000
00000000
00001000
00010000
00000100
00001000
00000000
,
00000010
00001000
00000000
00001001
00000000
00000100
00000001
00000100
,
00000000
00000001
00000010
00000100
00010000
00000000
00001000
00000000
,
00100000
00001000
00000000
00101000
00000000
00100000
00010000
00100000
,
00000000
01000000
10000000
00100000
10000000
00000000
00010000
00000000
,
11000000
01010000
00011000
00001100
,
00000101
00000000
00000000
00000001
00001000
00000100
00000010
00000000
,
00000011
00001010
00011000
00110000
,
10100000
00000000
00000000
10000000
00010000
00100000
01000000
00000000
,
10000000
00000000
00000000
00010000
00000000
01000000
00000000
01001000
,
00000000
00011000
00000000
00000000
00010100
00000000
00001100
00000000
,
00001010
00000000
00000000
00000000
,
00000100
00010000
00001000
01000000
00010000
00100000
00001000
00010000
,
00000010
00000000
00000000
00000000
;
