#VERSION:0.83;
#TITLE:JaZzY;
#SUBTITLE:;
#ARTIST:The Purge;
#TITLETRANSLIT:;
#SUBTITLETRANSLIT:;
#ARTISTTRANSLIT:;
#GENRE:;
#ORIGIN:;
#TAGS:;
#CREDIT:;
#BANNER:JaZzY-bn.png;
#BACKGROUND:JaZzY-bg.png;
#PREVIEWVID:;
#JACKET:JaZzY-jacket.png;
#CDIMAGE:;
#DISCIMAGE:;
#LYRICSPATH:;
#CDTITLE:;
#MUSIC:JaZzY.ogg;
#OFFSET:0.000000;
#SAMPLESTART:24.000000;
#SAMPLELENGTH:20.000000;
#SELECTABLE:YES;
#DISPLAYBPM:160.000000;
#BPMS:0.000000=160.000000;
#STOPS:;
#DELAYS:;
#WARPS:;
#TIMESIGNATURES:0.000000=4=4;
#TICKCOUNTS:0.000000=4;
#COMBOS:0.000000=1;
#SPEEDS:0.000000=1.000000=0.000000=0;
#SCROLLS:0.000000=1.000000;
#FAKES:;
#LABELS:0.000000=Song Start;
#BGCHANGES:;
#KEYSOUNDS:;
#ATTACKS:
;

//---------------dance-single - ----------------
#NOTEDATA:;
#CHARTNAME:;
#CHARTHASH:0:
#STEPSTYPE:dance-single;
#BANNER:;
#DESCRIPTION:;
#CHARTSTYLE:;
#DIFFICULTY:Hard;
#METER:13;
#METERF:0.000000;
#RADARVALUES:0.674735,0.726656,0.405104,0.165725,0.156518,513.000000,469.000000,44.000000,18.000000,0.000000,0.000000,0.000000,0.000000,0.000000,0.674735,0.726656,0.405104,0.165725,0.156518,513.000000,469.000000,44.000000,18.000000,0.000000,0.000000,0.000000,0.000000,0.000000;
#CREDIT:;
#DISPLAYBPM:160.000000;
#NOTES:
0000
0000
0000
0000
,
0000
0000
0000
0000
,
0000
0000
0000
0000
,
0000
0000
0000
0000
,
1000
1000
0000
1100
0000
0101
0000
0001
,
0200
0010
0310
0000
0110
0000
0001
0001
,
1000
0010
0000
1010
0000
0011
0000
0100
,
0001
1000
0010
1000
0200
0010
0310
0000
,
0001
1000
0010
1000
0002
0100
0103
0000
,
0010
0001
0100
0010
2000
0100
3100
0000
,
1000
0001
0010
0100
2000
0010
3010
0000
,
0100
0001
0010
0001
2000
0010
3010
0000
,
0200
0010
0310
1000
0002
0010
0013
0100
,
2000
0001
3001
0100
0020
1000
1030
0001
,
0010
0001
0000
0000
1000
0100
0000
0000
1000
0010
0000
0000
0100
0001
0000
0000
,
0010
0001
2000
0000
3002
0000
0103
0100
,
0110
0001
0000
0010
0000
0100
0000
1000
,
0010
0010
0010
0000
1010
0000
0001
1000
,
0100
0100
0000
0010
0000
0001
0000
0100
,
1000
1000
1000
0000
0101
0000
0001
0010
,
0100
0100
0000
1100
0000
0011
0000
1000
,
0001
0001
0001
0000
1001
0000
0100
0010
,
1000
1000
0000
0001
0000
0100
0000
0010
,
1000
0000
0100
0000
0110
0000
0000
0000
0001
1000
0001
0000
0100
0000
0000
0000
,
1001
0010
1000
0001
1000
0100
0010
0001
,
0100
0010
0100
0001
0010
0100
1000
0010
,
1000
0001
1000
0100
1000
0100
0010
0001
,
0100
0010
1000
0001
1000
0100
0010
0001
,
0100
0001
0010
0001
1000
0010
0100
1000
,
0100
0001
0010
0100
0010
0001
1000
0010
,
1000
0100
0001
0100
0010
0001
1000
0010
,
1000
0000
0001
0000
1000
0000
0100
0000
0010
0001
0000
0001
0100
0000
0000
0000
,
0101
1100
1100
0101
,
0001
0001
0001
0000
1010
0000
0100
0100
,
0110
1001
1001
0110
,
0010
0010
0010
0000
0101
0000
0001
0001
,
1000
0000
0001
0000
0010
0000
0100
0000
0010
0000
0001
0000
1000
0100
1000
0100
,
1000
0000
0010
0000
0100
0000
0001
0000
1000
0000
0010
0000
0100
0001
0100
0001
,
0100
0000
0010
0000
1000
0000
0001
0000
0010
0000
0100
0000
1000
0001
1000
0001
,
1000
0010
0100
0001
0011
0000
1000
1000
,
1000
0000
0000
0100
0010
0000
0000
0010
0001
0000
0000
0001
0100
0000
0000
0100
,
0010
0000
0000
0010
1000
0000
0000
1000
0001
0000
0100
0000
0001
0010
0001
0010
,
0001
0000
1000
0000
0010
0000
1000
0000
0100
0000
0010
0001
0010
0000
0000
0000
,
0001
1000
0001
0000
0100
0000
0000
0000
0110
0000
0000
0000
1001
0000
0000
0000
,
1000
0100
1000
0000
0010
0000
0010
0000
0010
0000
0000
0000
0100
0000
0001
1000
,
0001
0000
0000
0000
0100
0000
0010
0000
1000
0000
0001
0000
1000
0100
1000
0000
,
0010
0000
0100
0000
1010
0000
0000
0000
0001
1000
0001
0000
0101
0000
0000
0000
,
1000
0001
1000
0001
1000
0001
1000
0001
,
0100
0010
1000
0010
1000
0100
0010
0001
,
0100
0010
0100
1000
0100
0001
0010
0100
,
1000
0001
1000
0010
1000
0100
0001
0100
,
1000
0000
0010
0100
0010
0100
0010
0000
2000
0000
0000
0000
0001
0000
0001
0000
,
3001
1000
0100
0010
1000
0010
0100
0010
,
0001
0100
0010
0100
0001
1000
0010
0001
,
0010
1000
0010
0100
1000
0010
1000
0001
,
0100
0000
0001
0000
0010
0100
0010
0000
0001
0000
1000
0000
0100
0000
0100
0000
,
0100
0000
0000
0000
1100
0000
0000
0000
0110
0000
0000
0000
0011
0000
0000
0001
,
1000
0000
1001
0000
0110
0000
0010
0010
,
0010
1000
0001
1000
0010
0100
0001
0001
,
1000
0100
0011
0000
1000
0100
0011
0000
,
1010
0000
0000
0000
0100
0000
0100
0000
0100
0000
0000
0000
0110
0000
0000
0001
,
1000
0000
0000
0000
1100
0000
0000
0000
0101
0000
0000
0000
0010
0100
0010
0100
,
0010
0001
1000
0001
0010
0100
1000
0010
,
0100
0010
1010
0000
0001
0000
1100
0000
,
0002
1000
0000
0010
0000
0100
0000
0013
,
0001
1000
0100
0000
0110
0000
1000
0001
,
2000
0010
0000
0100
0000
0001
0000
3100
,
1000
0001
0100
0000
1010
0000
0010
0100
,
0002
0010
0000
1000
0000
0100
0000
0013
,
0001
0100
1000
0000
1001
0000
0010
0100
,
0020
1000
0000
0001
0000
1000
0000
0130
,
0010
0010
0010
0000
0020
0000
0030
0000
;

//---------------dance-single - ----------------
#NOTEDATA:;
#CHARTNAME:;
#CHARTHASH:0:
#STEPSTYPE:dance-single;
#BANNER:;
#DESCRIPTION:;
#CHARTSTYLE:;
#DIFFICULTY:Medium;
#METER:10;
#METERF:0.000000;
#RADARVALUES:0.522164,0.594537,0.220966,0.257794,0.009207,397.000000,373.000000,24.000000,28.000000,0.000000,0.000000,0.000000,0.000000,0.000000,0.522164,0.594537,0.220966,0.257794,0.009207,397.000000,373.000000,24.000000,28.000000,0.000000,0.000000,0.000000,0.000000,0.000000;
#CREDIT:;
#DISPLAYBPM:160.000000;
#NOTES:
0000
0000
0000
0000
,
0000
0000
0000
0000
,
0000
0000
0000
0000
,
0000
0000
0000
0000
,
1000
0001
0000
0010
0000
0001
0000
1000
,
0001
0100
0001
0000
0001
0000
0001
0010
,
0100
1000
0000
0001
0000
1000
0000
0010
,
1000
0001
0010
0001
0200
0000
0310
0000
,
1000
0001
0010
0001
0200
0000
0300
0000
,
0001
0010
0001
0100
0020
0000
0030
0000
,
1000
0100
1000
0001
0020
0000
0030
0000
,
0100
1000
0010
0100
0002
0000
0003
0000
,
0010
0001
0100
0000
0001
0010
0100
0000
,
1000
0010
1000
0000
0100
0010
0001
0000
,
0200
0320
0230
0320
,
1030
0001
1000
0000
0020
0000
0130
0010
,
0220
0000
0300
0001
0000
1000
0000
0031
,
1000
0010
0100
0000
0100
0000
0001
1000
,
2002
0000
3000
0010
0000
0100
0000
0013
,
0100
1000
0001
0000
0001
0000
0010
0100
,
1000
0001
0000
0010
0000
0001
0000
0100
,
0010
1000
0010
0000
0100
0000
0001
1000
,
0001
0010
0000
0100
0000
1000
0000
0010
,
1000
0001
1000
0000
1100
0000
0101
0000
,
1000
0010
1000
0010
0000
0100
0000
0001
,
0000
0010
0000
0100
0000
1000
0000
0001
,
0000
1000
0001
1000
0000
0010
0000
0100
,
0000
0010
1000
0100
0000
0010
0000
0001
,
0000
1000
0001
1000
0000
0100
0000
0010
,
0000
0100
0010
0001
0000
1000
0000
0010
,
0000
1000
0100
0010
0000
0001
0000
0001
,
0000
0001
1000
0100
0000
0010
0000
0010
,
0001
0011
1010
0100
,
1000
0001
1000
0000
0010
0000
0010
0100
,
0001
0011
1100
0100
,
1000
0010
1000
0000
0100
0000
0010
0001
,
1000
0010
1000
0001
1000
0100
1000
0000
,
0001
0010
0001
1000
0001
0100
0001
0000
,
0010
0001
0010
0001
1000
0100
1000
0100
,
1000
0001
1000
0001
1000
0000
0010
0100
,
0010
1000
0100
1000
0010
0100
0001
0000
,
1000
0001
1000
0100
0010
0001
0100
0000
,
1010
0000
0101
0000
1000
0001
0100
0000
,
0001
0010
1000
0000
0110
0000
1001
0000
,
0010
1000
0100
0010
0001
0000
0001
0100
,
0010
0000
0010
1000
0100
0000
1000
0010
,
1000
0000
1001
0000
0010
0100
0110
0000
,
0001
0010
0001
0010
0001
0010
0001
0000
,
1100
0100
0000
1000
0000
0001
0000
0100
,
0010
1000
0000
0001
0000
0010
0000
0001
,
1000
0100
0000
1000
0000
0001
0000
0010
,
0001
0100
0010
1000
2010
0000
3001
0000
,
0011
0001
0000
1000
0000
0100
0000
0010
,
0100
0010
0000
0001
0000
0100
0000
1000
,
0001
0010
0000
0001
0000
0100
0000
1000
,
0010
1000
0001
0100
0102
0000
1003
0001
,
0010
0000
0000
0000
0010
0000
0000
0000
0010
0000
0000
0000
0010
0000
0000
0001
,
1000
0000
1000
0000
1000
0000
0001
0100
,
0001
0010
0001
0100
0001
0010
0001
0100
,
0001
0010
0011
0000
0001
0100
0101
0000
,
1000
0000
0000
0000
1000
0000
1000
0000
1000
0000
0000
0000
1000
0000
0000
0001
,
0100
0000
0100
0000
0100
0000
0010
0010
,
1000
0100
1000
0010
1000
0100
1000
0010
,
1000
0001
1001
0000
1000
0010
1010
0000
,
2200
0000
0300
0001
0000
0001
0000
3001
,
1000
0100
1000
0000
1000
0000
1000
0010
,
0220
0000
0030
0010
0000
0010
0000
0310
,
0100
0001
1000
0000
1000
0000
1000
0100
,
0020
0000
0000
0032
0000
2003
0000
3100
,
1000
0001
0010
0000
0010
0000
0001
0100
,
0002
0000
0000
0023
0000
0230
0000
1300
,
0010
1000
0002
0000
0023
0000
0030
0000
;

//---------------dance-single - ----------------
#NOTEDATA:;
#CHARTNAME:;
#CHARTHASH:0:
#STEPSTYPE:dance-single;
#BANNER:;
#DESCRIPTION:;
#CHARTSTYLE:;
#DIFFICULTY:Easy;
#METER:7;
#METERF:0.000000;
#RADARVALUES:0.424833,0.594537,0.570829,0.165725,0.000000,323.000000,261.000000,62.000000,18.000000,0.000000,0.000000,0.000000,0.000000,0.000000,0.424833,0.594537,0.570829,0.165725,0.000000,323.000000,261.000000,62.000000,18.000000,0.000000,0.000000,0.000000,0.000000,0.000000;
#CREDIT:;
#DISPLAYBPM:160.000000;
#NOTES:
0000
0000
0000
0000
,
0000
0000
0000
0000
,
0000
0000
0000
0000
,
0000
0000
0000
0000
,
1000
0010
0001
0100
,
0010
0010
0010
0100
,
0001
0010
1000
0100
,
0001
0010
1000
1001
,
0010
0100
0001
1000
,
0100
0010
0001
0100
,
0001
0010
0100
1000
,
0010
1000
0100
0001
,
1000
1100
0001
0101
,
1000
1010
0001
0011
,
0100
0010
0100
0010
,
1000
0001
1001
1001
,
0120
0000
0000
0001
0000
0001
0000
0000
,
1030
0001
0100
0100
,
0020
0000
0000
1000
0000
0100
0000
0000
,
1030
0001
0010
0010
,
0001
0100
1000
0010
,
1000
1000
1000
0100
,
0010
0001
0100
1000
,
0010
0010
1001
1001
,
0000
0001
0000
0010
0000
0001
0000
0100
,
0000
0010
0000
1000
0000
0100
0000
1000
,
0000
0001
0000
1000
0000
0001
0000
0010
,
0000
0001
0000
0100
0000
1000
0000
0010
,
0000
1000
0000
0001
0000
1000
0000
0100
,
0000
0010
0000
0001
0000
0100
0000
0010
,
0000
1000
0000
0100
0000
0010
0000
0001
,
0000
0100
0000
0010
0000
1000
0001
0000
,
0011
0011
1100
1100
,
0101
1100
0101
1100
,
1010
1010
0101
0101
,
0011
1100
0011
1100
,
0001
0010
0100
1000
,
0001
0100
0010
1000
,
0001
1000
0010
0100
,
0001
0100
1000
1001
,
0110
0010
1000
0001
,
1000
0100
0010
0001
,
0100
0001
0010
1100
,
0000
0101
0000
0101
0000
0101
0000
0000
,
2000
0010
0001
0100
,
0010
0010
3100
0001
,
0010
0101
1000
0011
,
0200
0320
2030
3001
,
1001
0010
0001
0100
,
1001
0010
1000
0100
,
1001
1000
0100
0001
,
1100
0110
0022
0030
,
0203
0001
1000
0301
,
2000
0100
0010
3100
,
0002
1000
0010
1003
,
0101
1100
0101
0010
,
1001
1001
1001
1001
,
1001
1001
1001
0100
,
0001
0010
1000
0100
,
0001
0110
1000
0110
,
1001
1001
1001
1001
,
1001
1001
1001
0100
,
0001
0010
1000
0100
,
0001
1001
0101
0011
,
2000
0000
3020
0000
,
1030
0001
0100
0100
,
0002
0000
2003
0000
,
3001
0010
0100
0100
,
2000
0000
0000
0001
0000
0001
0000
0000
,
3010
1000
0100
0100
,
0020
0000
0000
1000
0000
0001
0000
0000
,
0130
0100
0020
0030
;

//---------------dance-single - ----------------
#NOTEDATA:;
#CHARTNAME:;
#CHARTHASH:0:
#STEPSTYPE:dance-single;
#BANNER:;
#DESCRIPTION:;
#CHARTSTYLE:;
#DIFFICULTY:Beginner;
#METER:5;
#METERF:0.000000;
#RADARVALUES:0.236749,0.296233,0.165725,0.018414,0.000000,180.000000,162.000000,18.000000,2.000000,0.000000,0.000000,0.000000,0.000000,0.000000,0.236749,0.296233,0.165725,0.018414,0.000000,180.000000,162.000000,18.000000,2.000000,0.000000,0.000000,0.000000,0.000000,0.000000;
#CREDIT:;
#DISPLAYBPM:160.000000;
#NOTES:
// measure 0
0000
0000
0000
0000
,  // measure 1
0000
0000
0000
0000
,  // measure 2
0000
0000
0000
0000
,  // measure 3
0000
0000
0000
0000
,  // measure 4
1000
0000
0001
0000
,  // measure 5
1000
1000
1000
0000
,  // measure 6
0100
0000
0010
0000
,  // measure 7
0001
0001
0001
0000
,  // measure 8
1000
1000
1000
0000
,  // measure 9
0010
0010
0010
0000
,  // measure 10
0100
0100
0100
0000
,  // measure 11
0001
0001
0001
0000
,  // measure 12
0010
0000
0001
0000
,  // measure 13
0100
0000
1000
0000
,  // measure 14
0001
0000
1000
0000
,  // measure 15
0100
0100
0100
0000
,  // measure 16
0110
0000
0000
0000
,  // measure 17
0001
0001
0001
0000
,  // measure 18
1001
0000
0000
0000
,  // measure 19
0010
0010
0010
0000
,  // measure 20
1000
0000
0001
0000
,  // measure 21
0010
0010
0010
0000
,  // measure 22
0001
0000
0100
0000
,  // measure 23
1000
1000
1000
0000
,  // measure 24
1001
0000
0010
0000
,  // measure 25
0100
0000
0001
0000
,  // measure 26
0100
0000
0010
0000
,  // measure 27
1000
0000
0100
0000
,  // measure 28
1000
0000
0001
0000
,  // measure 29
1000
0000
0100
0000
,  // measure 30
1000
0000
0010
0000
,  // measure 31
0100
0000
0110
0000
,  // measure 32
0001
0001
0001
0001
,  // measure 33
0001
0001
0001
0000
,  // measure 34
1000
1000
1000
1000
,  // measure 35
1000
1000
1000
0000
,  // measure 36
0020
0000
0030
0000
,  // measure 37
0200
0000
0300
0000
,  // measure 38
0001
0000
1000
0000
,  // measure 39
0001
0001
0001
0000
,  // measure 40
1001
0000
0010
0000
,  // measure 41
1000
0000
0100
0000
,  // measure 42
0010
0000
0001
0000
,  // measure 43
0100
0100
0100
0000
,  // measure 44
0110
0000
0001
0001
,  // measure 45
0001
0000
0010
0000
,  // measure 46
1000
1000
1000
0000
,  // measure 47
0100
0100
0100
0000
,  // measure 48
0110
0000
0001
0000
,  // measure 49
0110
0000
1000
0000
,  // measure 50
0110
0000
0001
0000
,  // measure 51
0100
0100
0100
0000
,  // measure 52
1001
0000
0010
0000
,  // measure 53
1001
0000
0100
0000
,  // measure 54
1001
0000
0010
0000
,  // measure 55
1000
1000
1000
0000
,  // measure 56
0010
0010
0010
0010
,  // measure 57
0010
0010
0010
0000
,  // measure 58
0100
0001
0100
0000
,  // measure 59
1001
0000
0110
0000
,  // measure 60
0100
0100
0100
0100
,  // measure 61
0100
0100
0100
0000
,  // measure 62
0001
0010
0001
0000
,  // measure 63
1000
0100
1000
0000
,  // measure 64
0110
0000
0000
0000
,  // measure 65
0001
0000
1000
0000
,  // measure 66
1001
0000
0000
0000
,  // measure 67
0010
0000
0100
0000
,  // measure 68
1001
0000
0000
0000
,  // measure 69
1000
0000
0001
0000
,  // measure 70
0110
0000
0000
0000
,  // measure 71
0010
0010
0010
0000
;
