#TITLE:JET WORLD;
#SUBTITLE:(Ryu* Remix);
#ARTIST:Mutsuhiko Izumi Remixed by Ryu*;
#BANNER:JET WORLD (Ryu Remix)-bn.png;
#BACKGROUND:JET WORLD (Ryu Remix)-bg.png;
#JACKET:JET WORLD (Ryu Remix)-jacket.png;
#MUSIC:JET WORLD (Ryu Remix).ogg;
#SAMPLESTART:100.375;
#SAMPLELENGTH:20;
#DISPLAYBPM:165;
#BPMS:0=165;
#BGCHANGES:;

//---------------dance-single - ----------------
#NOTES:
     dance-single:
     :
     Beginner:
     4:
     :
0000
0000
0000
0000
,
0000
0000
0000
0000
,
0000
0000
0000
0000
,
0000
0000
0000
0000
,
1001
0000
0000
0001
,
0001
0000
0000
0000
,
1001
0000
0000
1000
,
1000
0000
0000
0000
,
0110
0000
0000
0010
,
0010
0000
0000
0000
,
0110
0000
0000
0100
,
0100
0000
0000
0000
,
1001
0000
0000
0000
,
0010
0010
0000
0000
,
1000
0000
0001
0000
,
0010
0000
0100
0000
,
0010
0000
0001
0000
,
0100
0000
0010
0000
,
0100
0000
0001
0000
,
1000
0000
0100
0000
,
1000
0000
0010
0000
,
0001
0000
0100
0000
,
0001
0000
1000
0000
,
0010
0010
0010
0000
,
0110
0000
0001
0000
,
0010
0010
0010
0000
,
1001
0000
0000
1000
,
1000
0000
0000
0000
,
0110
0000
0000
0001
,
0001
0000
0000
0000
,
0100
0000
0010
0000
,
1000
1000
1000
0000
,
1001
0000
0010
0000
,
0100
0100
0100
0000
,
0110
0000
0000
0000
,
0001
0001
0001
0000
,
1001
0000
0000
0000
,
1000
0000
0010
0000
,
1000
0000
0001
0000
,
0010
0000
0100
0000
,
0010
0000
0001
0000
,
0100
0000
1000
0000
,
0010
0000
0110
0000
,
0100
0100
0100
0000
,
0010
0000
1000
0000
,
0001
0000
0100
0000
,
0010
0000
0100
0000
,
0001
0001
0000
0000
,
0001
0000
0100
0000
,
0010
0000
1000
0000
,
0100
0000
0010
0000
,
0001
0000
0100
0000
,
0001
0000
1000
0000
,
0010
0000
1000
0000
,
0100
0000
0010
0000
,
0001
0000
1000
0000
,
0001
0000
0010
0000
,
0100
0000
1000
0000
,
0010
0010
0010
0000
,
0110
0000
0100
0000
,
0001
0001
0001
0000
,
1001
0000
0000
0010
,
0010
0000
0000
0000
,
0110
0000
0000
0100
,
0100
0000
0000
0000
,
0001
0000
0010
0000
,
0001
0001
0001
0000
,
1001
0000
0100
0000
,
0010
0010
0010
0000
,
0110
0000
0000
0000
,
1000
1000
1000
0000
,
1001
0000
0000
0000
,
0100
0000
0010
0000
,
0001
0000
0100
0000
,
0001
0000
0010
0000
,
0100
0000
0010
0000
,
0001
0000
0100
0000
,
1000
0000
0110
0000
,
0100
0100
0100
0000
,
0010
0000
1000
0000
,
0001
0000
0100
0000
,
0010
0000
0100
0000
,
0001
0001
0000
1001
;

//---------------dance-single - ----------------
#NOTES:
     dance-single:
     :
     Easy:
     7:
     :
0000
0000
0000
0000
,
0000
0000
0000
0000
,
0000
0000
0000
0000
,
0000
0000
0000
0000
,
1001
0001
0100
1000
,
1001
0010
1000
0100
,
0110
0010
0001
0100
,
0110
0010
1000
0100
,
1000
1000
1000
1000
,
0001
0001
0001
0001
,
0100
0100
0010
0010
,
1000
0100
0010
0001
,
2002
0000
0000
3003
,
0010
0100
0010
0100
0000
0000
0110
0000
,
0001
0010
0001
1000
,
0010
1000
0100
0010
,
0001
0100
0001
0010
,
0100
1000
0010
1000
,
0100
0010
0001
1000
,
0010
0001
0100
1000
,
0010
1000
0001
0010
,
0001
0100
1000
0010
,
1000
0001
0000
0000
0001
1000
0000
0000
,
0010
0100
0010
1000
,
2200
0300
0001
3001
,
0010
0001
1001
0110
,
1001
0001
0010
0100
,
0110
0010
0001
1000
,
1001
1000
0010
0100
,
0110
0010
1000
0100
,
0010
0100
0000
0000
0100
0010
0000
0000
,
0001
0100
1000
0001
,
0202
0300
1000
1003
,
0010
1000
0100
0010
,
0022
0000
0000
0033
,
1000
0001
0100
0010
,
2020
0000
0000
3030
,
0010
1000
0100
0001
,
0010
0010
0010
0010
,
0001
0100
1000
0100
,
0010
0010
0010
0010
,
1000
0100
0001
0100
,
0001
0010
0100
1000
,
1001
1001
0010
0100
,
0010
1000
0010
1000
,
0001
0100
0001
0100
,
0010
0100
0010
0100
,
0001
1001
0000
0110
,
0001
0010
0100
1000
,
0010
1000
0001
0010
,
0001
0100
1000
0001
,
0010
0001
0100
0010
,
0001
0100
1000
0010
,
1000
0001
1000
0100
,
0010
0100
0010
0001
,
0100
0001
0010
0100
,
1000
0010
0001
0100
,
1000
0001
0000
0000
0001
1000
0000
0000
,
0010
1000
0100
0010
,
0022
0030
1000
1003
,
0010
1000
0001
0100
,
0110
0001
0010
1000
,
1001
0010
1000
0100
,
0110
0001
0010
0001
,
1001
0100
1000
0010
,
0100
0000
0001
0000
0010
0010
0000
0000
,
0001
1000
0001
0100
,
2020
0030
0001
3001
,
0100
0001
0010
0100
,
2200
0000
0000
3300
,
0001
0100
0010
1000
,
0202
0000
0000
0303
,
0010
0001
0100
1000
,
0010
0010
0010
0010
,
1000
0100
0001
0100
,
0010
0010
0010
0010
,
0001
0100
1000
0100
,
0010
0001
0100
0010
,
1001
1001
1000
0100
,
0010
1000
0010
1000
,
0001
0100
0001
0100
,
0010
0100
0010
0100
,
0001
1001
0000
0220
,
0000
0000
0000
0000
,
0000
0000
0000
0000
,
0000
0000
0000
0000
,
0330
0000
0000
0000
;

//---------------dance-single - ----------------
#NOTES:
     dance-single:
     :
     Medium:
     11:
     :
0000
0000
0000
0000
,
0000
0000
0000
0000
,
0000
0000
0000
0000
,
0000
0000
0000
0000
,
1001
0000
1000
0000
0100
0010
0001
0000
,
0110
0000
0010
0000
0001
0100
1000
0000
,
1001
0000
0100
0000
0001
1000
0010
0000
,
0110
0000
0001
0000
0010
1000
0100
0000
,
1001
0010
0100
0001
,
0110
1000
0100
0010
,
0001
0100
0001
0000
1000
0100
1000
0000
,
0001
0100
0010
0100
0001
1000
0100
0000
,
2002
0000
0000
3003
,
0010
0100
0010
0100
0000
0001
1000
0000
,
0010
0000
0000
1000
0000
0000
0001
0000
0000
1000
0000
0000
0200
0000
0000
0000
,
0310
0000
0000
0001
0000
0000
0100
0000
0000
0000
0001
0000
1000
0000
0010
0000
,
1000
0000
0000
0100
0000
0000
0010
0000
0000
0001
0000
0000
0100
0000
0001
0000
,
0010
0000
1000
0010
1000
0001
0010
0100
,
1000
0000
0000
0001
0000
0000
1000
0000
0000
0010
0000
0000
0200
0000
0000
0000
,
0301
0000
0000
0010
0000
0000
0001
0000
0000
0000
1000
0000
0100
0000
0010
0000
,
0001
0000
0000
0100
0000
0000
0001
0000
0000
0010
0000
0000
0100
0000
1000
0000
,
0010
0000
1000
0001
1000
0100
0010
0000
,
0001
0001
0000
0100
1000
1000
0000
0000
,
0010
1000
0100
1000
0010
0100
0001
0000
,
0022
0000
0030
0000
1000
0000
1003
0001
,
0010
0100
0010
0100
0010
0001
1000
0000
,
1001
0000
1000
0001
0000
1000
0100
0010
,
0110
0000
0001
0100
0000
0010
1000
0000
,
1001
0000
0010
0001
0000
1000
0001
0100
,
0110
0000
0010
1000
0000
0100
0001
0000
,
0010
0010
0000
0001
0100
0100
0000
0000
,
0010
1000
0100
1000
0001
0010
0100
0000
,
2200
0000
0300
0000
0001
0000
3001
1000
,
0010
1000
0100
0010
0001
0100
1000
0000
,
0202
0300
1000
1003
,
0010
1000
0010
2000
0000
3001
1000
0100
,
2200
0300
0001
3001
,
0010
0000
0000
0001
0000
0000
0100
0000
0010
0000
0000
1000
0000
0000
0100
0000
,
1000
0000
0001
0000
0010
0001
1000
0000
,
0010
1000
0100
1000
0010
1000
0100
1000
,
0001
0000
0010
0000
0001
0100
1000
0000
,
0001
0010
0001
0100
0001
0010
0001
0100
,
0020
0000
2030
0000
3100
0010
0001
0000
,
1001
0000
1001
0000
0001
0100
1000
0000
,
0010
0000
1000
0000
0010
1000
0010
1000
,
0001
0000
0100
0000
0001
0100
0001
0100
,
0010
0100
0010
0100
0010
0100
0010
0100
,
0001
1000
0100
0110
0000
1000
0001
0000
,
0002
0023
0230
2300
,
3010
0000
0000
0100
0000
0000
0001
0000
0000
1000
0000
0000
0002
0000
0000
0000
,
0013
0000
0000
0001
0000
0000
1000
0000
0000
0000
0010
0000
1000
0000
0100
0000
,
1000
0000
0000
0001
0000
0000
0010
0000
0000
0100
0000
0000
0010
0000
0001
0000
,
1000
0000
1000
0001
0010
0001
0100
0010
,
0100
0000
0000
0001
0000
0000
0010
0000
0000
0100
0000
0000
2000
0000
0000
0000
,
3100
0000
0000
0010
0000
0000
0100
0000
0000
0000
1000
0000
0010
0000
0001
0000
,
0100
0000
0000
0001
0000
0000
1000
0000
0000
0100
0000
0000
0010
0000
0001
0000
,
0100
0000
0100
0001
0010
0001
1000
0000
,
0010
0010
0000
1000
0001
0001
0000
0000
,
0100
0001
0010
0001
0100
0001
1000
0000
,
2020
0000
0030
0000
0001
0000
3001
1000
,
0100
0010
0100
0010
0100
1000
0001
0000
,
0110
0000
0001
0100
0000
0010
1000
0001
,
1001
0000
0010
0100
0000
0001
1000
0000
,
0110
0000
1000
0010
0000
1000
0100
0001
,
1001
0000
0010
0001
0000
1000
0100
0000
,
1000
0000
0000
0001
0000
0000
1000
0000
0010
0000
0010
0000
0000
0000
0000
0000
,
0100
0001
1000
0100
1000
0010
0001
0000
,
0022
0000
0030
0000
1000
0000
1003
0001
,
0010
0100
1000
0010
1000
0001
0100
0000
,
0202
0300
1000
1003
,
0010
1000
0010
2000
0000
3001
1000
0100
,
2200
0300
0001
3001
,
1010
0101
0011
1100
,
0001
0000
0010
0000
0001
0100
1000
0000
,
0010
1000
0100
0000
0010
0001
0100
0000
,
0010
0000
0100
0000
0010
1000
0001
0000
,
1000
0100
0001
0000
1000
0010
0001
0000
,
0100
0001
0100
0001
0010
0100
1000
0000
,
1001
0000
1001
0000
1000
0100
0001
0000
,
0010
0000
1000
0000
0010
1000
0010
1000
,
0001
0000
0100
0000
0001
0100
0001
0100
,
0010
0100
0010
0100
0010
0100
0010
0100
,
0001
1000
0100
0110
0000
0010
2002
0000
,
0000
0000
0000
0000
,
0000
0000
0000
0000
,
0000
0000
0000
0000
,
3003
0000
0000
0000
;

//---------------dance-single - ----------------
#NOTES:
     dance-single:
     :
     Hard:
     13:
     :
0000
0000
0000
0000
,
0000
0000
0000
0000
,
0000
0000
0000
0000
,
0000
0000
0000
0000
,
1001
0000
1000
0010
0100
1000
0100
0001
,
0010
0100
0001
0100
0010
0100
1000
0001
,
1001
0000
0010
0001
0100
0010
0001
0010
,
1000
0100
1000
0010
0001
0010
1000
0100
,
0110
0000
0001
0000
1000
0000
0010
0100
,
0110
0000
1000
0000
0100
0000
0010
0001
,
0100
0010
0100
1000
0100
0010
0100
0001
,
0010
0100
0001
0100
1000
0010
0100
0001
,
2002
0000
0000
3003
,
0010
0000
0010
0000
0010
0000
0010
0000
0000
0000
1000
0001
1000
0000
0000
0000
,
0010
0000
0000
1000
0000
0000
0100
0000
0000
0010
0000
0000
0002
0000
0000
0000
,
0103
0000
0000
0010
0000
0000
1000
0000
0000
0001
1000
0000
0100
0010
0100
0010
,
0100
0000
0000
1000
0000
0000
0100
0000
0000
0001
1000
0000
0001
0000
0010
0000
,
0110
0000
0000
0000
0001
0010
0001
0010
0001
0000
0100
0000
0010
0000
1000
0000
,
0100
0000
0000
0010
0000
0000
0001
0000
0000
0100
0000
0000
2000
0000
0000
0000
,
3010
0000
0000
1000
0000
0000
0001
0000
0000
0010
0100
0000
1000
0010
1000
0010
,
1000
0000
0000
0001
0000
0000
0010
0000
0000
0001
0100
0000
0010
0000
1000
0000
,
1100
0000
0000
0000
0001
0100
0001
0100
0001
0000
1000
0000
0100
0000
0000
0000
,
0110
0110
0000
0001
1001
1001
0000
0000
,
0010
0000
1000
0000
0010
0000
0100
0000
0001
0000
1000
0001
0000
0000
0000
0000
,
0022
0000
0000
0000
0030
0000
0000
0000
1003
0100
1000
0000
0001
0100
0001
0000
,
0010
0001
0010
0100
1000
1100
1100
0000
,
1001
0000
0000
0010
1000
0000
0100
0000
0000
0010
0001
0000
0100
0000
0010
0000
,
0110
0000
0000
1000
0010
0000
0100
0000
0000
0001
0010
0000
0001
0000
1000
0000
,
1001
0000
0000
0001
1000
0000
0100
0000
0000
0010
0001
0000
1000
0000
0010
0000
,
0110
0000
0000
0100
0001
0000
0010
0000
0000
0001
1000
0001
1000
0000
0000
0000
,
1100
1100
0000
0001
0101
0101
0000
0000
,
0010
0000
1000
0000
0001
0000
0010
0000
0001
0000
1000
0100
0000
0000
0000
0000
,
2020
0000
0000
0000
0030
0000
0000
0000
3001
0010
0001
0000
1000
0010
1000
0000
,
0100
0000
0010
0000
0001
0000
0100
0000
0001
0000
1000
0010
0000
0000
0000
0000
,
0202
0300
1000
1003
,
0001
0000
0010
0000
0001
0000
1000
0100
0000
1000
0100
0000
0010
0000
0001
0000
,
0202
0300
1000
1003
,
0010
0000
1000
0001
0000
1000
0001
0000
0010
0000
0001
1000
0000
0001
1000
0000
,
0200
0000
0000
0310
0000
0000
0002
0000
0000
0103
0000
0000
0010
1000
0010
0000
,
0100
1000
0100
0001
0100
1000
0100
0001
,
0200
0000
0000
0310
0000
0000
2000
0000
0000
3100
0000
0000
0010
0001
0010
0000
,
0100
0001
0100
1000
0100
0001
0100
1000
,
0010
1000
0001
0100
0101
0101
0101
0000
,
1001
0000
0000
0000
1001
0000
0000
0001
1000
0000
1100
0000
1100
0000
0000
0000
,
0010
0000
1000
0000
0010
0000
1000
0010
0000
1000
0010
0000
1000
0000
0010
0000
,
0100
0000
0001
0000
0100
0000
0001
0100
0000
0001
0100
0000
0001
0000
0100
0000
,
0010
0000
0100
0000
0010
0000
0100
0010
0000
0100
0010
0000
0100
0000
0010
0000
,
1000
0000
0100
0000
0001
0000
1001
0000
0000
0000
1000
0001
1000
0000
0000
0000
,
0002
0023
0230
2300
,
3010
0000
0000
1000
0000
0000
0001
0000
0000
0100
0000
0000
0020
0000
0000
0000
,
0130
0000
0000
0001
0000
0000
0010
0000
0000
0001
1000
0000
0010
0100
0010
0100
,
0010
0000
0000
1000
0000
0000
0100
0000
0000
0001
0010
0000
0100
0000
1000
0000
,
1010
0000
0000
0000
0100
0001
0100
0001
0100
0000
0010
0000
1000
0000
0100
0000
,
0010
0000
0000
0100
0000
0000
1000
0000
0000
0001
0000
0000
0200
0000
0000
0000
,
0310
0000
0000
1000
0000
0000
0001
0000
0000
1000
0010
0000
0100
0001
0100
0001
,
0100
0000
0000
0010
0000
0000
1000
0000
0000
0100
0010
0000
0001
0000
1000
0000
,
0011
0000
0000
0000
0100
0001
0100
0001
0100
0000
0010
0000
1000
0000
0000
0000
,
1100
1100
0000
0001
0101
0101
0000
0000
,
0010
0000
1000
0000
0100
0000
0010
0000
0001
0000
1000
0001
0000
0000
0000
0000
,
0022
0000
0000
0000
0030
0000
0000
0000
1003
0010
1000
0010
0000
1000
0001
0000
,
0100
0010
1000
0001
0100
0110
0110
0000
,
1001
0000
0000
1000
0001
0000
0010
0000
0000
0001
0100
0000
0010
0000
1000
0000
,
0110
0000
0000
0100
1000
0000
0001
0000
0000
0010
0001
0000
0100
0000
0010
0000
,
1001
0000
0000
0010
0001
0000
1000
0000
0000
0100
0010
0000
0001
0000
0100
0000
,
0110
0000
0000
0010
1000
0000
0001
0000
0000
0000
0100
0010
0100
0000
0000
0000
,
0001
0000
1000
0010
0000
1000
0010
0000
0100
0000
0001
0000
0200
0000
0000
0000
,
0301
0000
0010
0000
0001
0000
0100
0000
0010
0000
1000
0100
0000
0000
0000
0000
,
2020
0000
0000
0000
0030
0000
0000
0000
3001
1000
0001
1000
0000
0100
0010
0000
,
0001
0000
0100
0000
0010
0000
1000
0000
0100
0000
1000
0001
0000
0000
0000
0000
,
2200
0300
0001
3001
,
1000
0000
0100
0000
0010
0000
0001
0100
0000
0001
0100
0000
0010
0000
1000
0000
,
2200
0300
0001
3001
,
1000
0000
0000
0010
0000
0000
0100
0000
0001
0000
0000
0010
0000
0000
0100
0000
,
2000
0000
0000
3001
0000
0000
0020
0000
0000
0130
0000
0000
1000
0001
1000
0000
,
0010
0001
0010
0100
0010
0001
0010
1000
,
0200
0000
0000
0310
0000
0000
0002
0000
0000
0103
0000
0000
0010
1000
0010
0000
,
0100
1000
0100
0001
0100
1000
0100
0010
,
0100
0001
0010
0100
1100
1100
1100
0000
,
1001
0000
0000
0000
1001
0000
0000
0001
0100
0000
0101
0000
0101
0000
0000
0000
,
0010
0000
1000
0000
0010
0000
1000
0010
0000
1000
0010
0000
1000
0000
0010
0000
,
0100
0000
0001
0000
0100
0000
0001
0100
0000
0001
0100
0000
0001
0000
0100
0000
,
0010
0000
0100
0000
0010
0000
0100
0010
0000
0100
0010
0000
0100
0000
0010
0000
,
1000
0100
0001
1001
0000
0010
2020
0000
,
0000
0000
0000
0000
,
0000
0000
0000
0000
,
0000
0000
0000
0000
,
3030
0000
0000
0000
;
