#TITLE:Iterator;
#ARTIST:yanagi;
#BANNER:Iterator-bn.png;
#BACKGROUND:Iterator-bg.png;
#JACKET:Iterator-jacket.png;
#MUSIC:Iterator.ogg;
#SAMPLESTART:0;
#SAMPLELENGTH:20;
#DISPLAYBPM:130;
#BPMS:0=130;
#BGCHANGES:;

//---------------dance-single - ----------------
#NOTES:
     dance-single:
     :
     Beginner:
     2:
     :
0000
0000
0000
0000
,
0000
0000
0000
0000
,
0000
0000
0000
0000
,
0000
0000
0000
0000
,
0010
0000
1000
0000
,
0100
0000
0010
0000
,
0001
0000
1000
0000
,
0001
0000
0100
0000
,
0010
0000
1000
1000
,
0000
0001
0001
0000
,
1000
0000
0010
0010
,
0000
0100
0100
0000
,
0010
0000
1000
1000
,
0000
0100
0100
0000
,
1000
0000
0001
0001
,
0000
0010
0010
0000
,
0001
0000
0001
0000
,
1000
0000
1000
0000
,
0001
0000
1000
0000
,
0010
0000
0100
0000
,
0010
0000
0010
0000
,
0100
0000
0100
0000
,
0001
0000
1000
0000
,
0100
0000
0010
0000
,
0100
0000
0000
0000
,
1000
0000
0001
0000
,
0100
0000
0000
0000
,
0010
0000
1000
0000
,
0010
0000
0010
0000
,
0100
0000
0100
0000
,
0001
0000
0001
0000
,
1000
0000
1000
0000
,
0001
0000
0100
0000
,
0010
0000
1000
0000
,
0100
0000
0010
0000
,
0100
0000
0000
0000
,
1000
0000
1000
0000
,
0001
0000
0001
0000
,
0010
0000
0001
0000
,
0100
0000
0100
0000
,
0010
0000
1000
0000
,
0010
0000
1000
0000
,
0010
0000
0100
0000
,
0001
0000
0000
1000
,
1000
0000
0010
0000
,
0001
0000
0010
0000
,
0001
0000
0100
0000
,
1000
0000
0100
0000
,
0010
0000
0010
0000
,
0100
0000
0100
0000
,
1000
0000
0001
0000
,
1000
0000
0001
0000
,
0100
0000
0000
0000
;

//---------------dance-single - ----------------
#NOTES:
     dance-single:
     :
     Easy:
     7:
     :
0000
0000
0000
0000
,
0000
0000
0000
0000
,
0000
0000
0000
0000
,
0000
0000
0000
0000
,
0010
1000
0100
0001
,
0010
0100
0010
0001
,
0100
1000
0010
0100
,
0110
1001
0010
0100
,
0110
0001
0100
1000
,
0010
1000
0100
0001
,
0010
0001
0010
1000
,
0100
0010
0001
0100
,
1001
0001
0010
1000
,
0100
1000
0010
0001
,
1000
0001
1000
0100
,
0010
0010
0010
0010
,
0002
0103
2000
3010
,
2000
3001
0200
0300
,
0010
0100
0001
1000
,
0200
0300
0020
0030
,
0002
0003
2000
3000
,
0020
0030
0100
0001
,
2000
3000
0002
0003
,
0010
0010
0010
0010
,
1001
0010
0000
0010
,
0000
1000
0000
0001
,
0200
0010
0010
0010
,
1000
0001
1000
0301
,
0110
0001
0010
0100
,
1000
0010
1000
0100
,
0000
0001
0000
0001
,
0000
1000
0000
1000
,
0110
0001
0100
1000
,
0010
0100
0010
1000
,
0001
0010
0001
0010
,
0110
0000
0000
0000
,
1001
0010
1000
0100
,
0000
0010
0001
1000
,
0000
0100
1000
0001
,
0000
1000
0010
0001
,
1001
0010
0100
0010
,
1001
0001
0100
1000
,
0110
0001
0110
1000
,
1001
0000
0010
0100
,
0001
1000
0100
1000
,
0010
1000
0100
0010
,
0001
0100
1000
0010
,
1000
0001
0100
0010
,
0100
0010
1000
0100
,
1000
0010
0001
0100
,
0001
0010
0001
0100
,
0010
1000
0001
0100
,
2002
0003
0020
0030
,
0002
0003
0200
0300
,
0002
0003
0200
0300
,
0020
3030
1000
0110
;

//---------------dance-single - ----------------
#NOTES:
     dance-single:
     :
     Medium:
     10:
     :
0000
0000
0000
0000
,
0000
0000
0000
0000
,
0000
0000
0000
0000
,
0000
0000
0000
0000
,
0010
0000
0000
0001
0000
0000
1000
0000
0000
0001
0000
0000
0100
0000
0000
0000
0000
0010
0000
0000
0000
1000
0000
0000
,
0100
1000
0001
1000
0010
0001
0010
0100
,
0010
0000
0000
1000
0000
0000
0100
0000
0000
1000
0000
0000
0001
0000
0000
0000
0000
0100
0000
0000
0000
0010
0000
0000
,
0110
0000
1001
0000
1000
0100
0001
0000
,
0010
0000
0001
0100
0010
1000
0010
1000
,
0000
0000
0100
0010
0100
0010
0001
1000
,
0100
0000
1000
0010
1000
0001
0010
0001
,
0000
0000
0100
0010
1000
0100
0010
0001
,
1001
0000
0010
1000
0100
0010
0001
1000
,
0000
0000
0010
1000
0001
1000
0001
0100
,
0110
0000
0010
0100
0010
1000
0001
0100
,
0010
0000
1000
0000
0000
0000
0010
0000
1000
0000
0000
0000
0010
0000
0000
0010
0000
0000
0010
0000
0000
0010
0000
0000
,
0200
0000
0000
0000
0000
0000
0300
0000
0000
0001
0000
1000
0002
0000
0000
0000
0000
0000
0003
0000
0000
1000
0000
0010
,
2000
0000
0000
0000
0000
0000
3000
0000
0000
0100
0000
0010
0200
0000
0000
0000
0000
0000
0300
0000
0000
0000
0000
0000
,
1100
0101
1010
0011
,
2000
0000
0000
0000
0000
0000
3000
0000
0000
0001
0000
0010
0002
0000
0000
0000
0000
0000
0003
0000
0000
0100
0000
0000
,
0020
0000
0000
0000
0000
0000
0030
0000
0000
1000
0000
0001
2000
0000
0000
0000
0000
0000
3000
0000
0000
0100
0000
1000
,
0200
0000
0000
0000
0000
0000
0300
0000
0000
0010
0000
0001
0020
0000
0000
0000
0000
0230
0000
0000
0000
1300
0000
0001
,
2000
0000
0000
0000
0000
0000
3000
0000
0000
0001
0000
0100
0002
0000
0000
0000
0000
0000
0003
0000
0000
0100
0000
0010
,
0100
0000
0000
0000
0000
0001
1000
0000
0000
0000
0000
0001
1000
0000
0000
1000
0000
0000
1000
0000
0000
0000
0000
0000
,
1010
0000
1000
0000
0100
0010
0001
1000
,
0001
0000
0101
0000
0010
1000
0200
0000
,
1000
0010
1000
0310
,
1000
0001
0100
0000
0001
1000
0100
0000
,
1100
0000
0010
0000
0100
0010
1000
0001
,
0010
0000
0011
0000
1000
0100
0001
0000
,
0020
0032
2003
3200
,
1300
0010
0100
0000
0001
0010
0100
0000
,
1000
0000
0000
0010
0000
0000
1000
0000
0000
0001
0000
0000
0010
0000
0000
0000
0000
0001
0000
0000
0000
0100
0000
0000
,
0000
0010
1000
0100
1000
0001
0100
0000
,
0010
1000
0100
0000
1100
0000
1010
0000
,
2002
0000
0000
0003
,
3001
0000
0000
0010
0000
0000
0100
0000
0000
1000
0000
0000
0010
0000
0000
0000
0000
0100
0000
0000
0000
0001
0000
0000
,
0000
0100
0001
0010
1000
0010
0001
0100
,
0000
0000
0000
0001
0000
0000
1000
0000
0000
0010
0000
0000
1000
0000
0000
0000
0000
0100
0000
0000
0000
0010
0000
0000
,
0000
0001
0101
0000
0010
1000
0001
1000
,
0100
0000
0000
0010
0000
0000
0100
0000
0000
1000
0000
0000
0001
0000
0000
0000
0000
0010
0000
0000
0000
0001
0000
0000
,
0100
0010
0100
0001
1000
0010
1000
0001
,
0100
0000
0000
0010
0000
0000
1000
0000
0000
0001
0000
0000
1000
0000
0000
0000
0100
0000
0000
0000
0000
0010
0000
0000
,
0022
0000
0030
0000
1003
0100
1000
0000
,
0110
0000
0000
0001
0000
0000
0100
0000
0000
0001
0000
0000
1000
0000
0000
0000
0010
0000
0000
0000
0000
0100
0000
0000
,
0010
1000
0100
0010
0001
0100
0001
1000
,
0001
0000
0000
0010
0000
0000
0100
0000
0000
0010
0000
0000
0001
0000
0000
0000
0000
1000
0000
0000
0000
0100
0000
0000
,
1100
0000
0101
0000
1000
0100
0001
0010
,
0100
0000
0000
1000
0000
0000
0010
0000
0000
1000
0000
0000
0100
0000
0000
0000
0000
0010
0000
0000
0000
0001
0000
0000
,
1000
0010
1000
0100
0001
0100
0010
0001
,
1000
0000
0000
0001
0000
0000
1000
0000
0000
0010
0000
0000
0100
0000
0000
0000
0000
0001
0000
0000
0000
0010
0000
0000
,
0011
0000
1010
0000
0001
0010
1000
0000
,
2002
0003
0010
0010
,
0001
0001
0010
0010
,
0001
0100
0001
0100
,
0010
0000
0000
0000
3010
0000
0000
0000
1000
0000
0000
0001
0000
0000
0110
0000
;

//---------------dance-single - ----------------
#NOTES:
     dance-single:
     :
     Hard:
     14:
     :
0000
0000
0000
0000
,
0000
0000
0000
0000
,
0000
0000
0000
0000
,
0000
0000
0000
0000
,
0110
0000
0000
0001
0000
0000
0100
0000
0000
0010
0000
0000
1000
0000
0000
0100
0000
0010
0000
0000
0010
0001
0000
0000
,
0100
0000
0000
0010
0000
0000
1000
0000
0000
0001
0000
0000
0010
0000
0001
1000
0000
0000
0100
0000
1000
0001
0000
0000
,
0100
0000
0000
0010
0000
0000
1000
0000
0000
0100
0000
0000
0010
0000
0000
0001
0000
1000
0000
0000
0001
1000
0000
0000
,
0010
0000
1000
0000
0000
0101
0000
0000
0000
0001
0000
0010
0100
0000
0000
1000
0000
0001
0100
0000
0000
0000
0000
0000
,
0110
0000
0000
0000
0000
0010
1000
0000
0000
0100
0000
0000
1000
0000
0000
0001
0000
0100
0001
0000
0000
0010
0000
0000
,
0100
0000
0000
0000
0000
0000
1000
0000
0010
0000
0000
0010
1000
0000
0001
0100
0000
0000
0001
0000
0000
1000
0000
0000
,
1001
0000
0000
0000
0000
0001
0010
0000
0000
0001
0000
0000
1000
0000
0000
0100
0000
0010
0100
0000
0000
1000
0000
0000
,
0001
0000
0000
0100
0000
0000
0010
0000
0000
1000
0000
0001
1000
0000
0010
0000
0000
0100
0001
0000
0000
1000
0000
0000
,
1001
0000
0000
0000
0000
0001
0100
0000
0000
0010
0000
0000
1000
0000
0000
0100
0000
1000
0001
0000
0000
0010
0000
0000
,
0001
0000
0000
0000
0000
0000
0100
0000
0010
0100
0000
0000
0001
0000
1000
0000
0000
1000
0001
0000
0000
0010
0000
0000
,
0011
0000
0000
0000
0000
0100
1000
0000
0000
0010
0000
0100
0002
0000
0000
0000
0000
2003
0000
0000
0000
3001
0000
0000
,
0010
0000
0000
0100
0000
0000
1000
0000
0010
0100
0000
0000
0001
0000
1000
0000
0000
0001
1000
0000
0001
0100
0000
0000
,
0010
0000
0000
1000
0000
0000
0100
0000
0000
1000
0000
0001
0010
0000
0000
0100
0000
0000
1000
0000
0000
0001
0000
0100
,
0010
0000
0000
1000
0000
0000
0001
0000
0000
1000
0000
0100
0010
0000
0000
0001
0000
0100
0000
0000
0001
1000
0000
0000
,
0020
1000
2030
0001
3002
0100
0203
0010
,
0310
0000
0000
1000
0000
0100
1000
0000
0000
0001
0000
0100
0001
0000
0000
0010
0000
0001
0000
0000
1000
0100
0000
0000
,
1000
0000
0000
0001
0000
0000
0010
0000
0000
0001
0000
0100
0010
0000
0000
1000
0000
0000
0100
0000
0000
1000
0000
0001
,
0100
0000
0000
0010
0000
0000
1000
0000
0000
0001
0000
1000
0001
0000
0000
0010
0000
0100
0000
0000
0100
1000
0000
0000
,
0002
0000
0000
0100
0000
0000
0103
0000
0000
0010
0000
1000
0200
0000
0000
0010
0000
0000
0310
0000
0000
0001
0000
1000
,
0001
0000
0000
0000
0000
0100
0010
0000
0100
0001
0000
1000
0001
0000
0000
1000
0000
0000
0010
0000
0000
1000
0000
0000
,
0100
0000
1000
0000
0010
0000
1000
0000
0100
0000
0010
0001
0000
0000
0001
0000
,
0000
0000
0100
0000
0001
0000
0010
0000
0001
0000
1000
0100
1000
0000
0000
0000
,
1020
0001
1000
0031
,
0010
1000
0010
0100
0001
0010
0100
1000
,
0001
0000
0100
0000
0010
0000
1000
0001
1000
0000
0010
0100
0000
0000
0001
0000
,
0010
0000
0001
0000
1000
0000
0010
0000
0100
0000
0001
1000
0001
0000
0100
0000
,
0201
0010
1000
0310
,
0100
0001
0010
0001
1000
0010
1000
0100
,
1001
0010
1000
0100
0010
0001
1000
0001
,
0100
0000
0010
0000
1000
0000
0001
0000
0010
0000
0001
0100
0001
0000
1000
0100
,
1000
0010
1000
0001
1000
0010
1000
0001
,
1100
0001
0100
0001
0100
0001
0100
0001
,
0010
0000
0000
0100
0000
0000
1000
0000
0000
0010
0000
0000
1000
0000
0000
0001
0000
0100
0000
0000
0100
0001
0000
0000
,
0000
0000
0000
0010
0000
0000
0001
0000
0000
1000
0000
0010
1000
0000
0000
0001
0000
0000
0100
0000
0010
0100
0000
0000
,
0000
0000
0000
0001
0000
0000
1000
0000
0000
0100
0000
1000
0010
0000
0000
0100
0000
0001
0000
0000
0010
0001
0000
0000
,
1000
0000
0000
0001
0000
0000
0010
0000
0000
0001
0000
0000
0100
0000
0000
0010
0000
1000
0010
0000
0000
0100
0000
0001
,
0100
0000
0000
0010
0000
0000
1000
0000
0000
0010
0000
0000
1000
0000
0001
0100
0000
0001
0000
0000
0100
0010
0000
0000
,
1000
0000
0000
0100
0000
0000
0010
0000
0000
0001
0000
0000
0100
0000
0001
1000
0000
0000
0010
0000
1000
0001
0000
0000
,
0110
0000
0000
0001
0000
0000
0100
0000
0000
1000
0000
0000
0110
0000
0000
0010
0000
1000
0000
0000
0010
0100
0000
0000
,
0001
0000
0000
0010
0000
0000
0001
0000
0000
1000
0000
0000
0100
0000
0000
1000
0000
0100
0010
0000
0000
0000
0000
0000
,
0110
0000
0000
0001
0000
0000
0010
0000
0000
0100
0000
0000
0010
0000
0000
0001
0000
1000
0000
0000
1000
0100
0000
0000
,
1000
0000
0000
0010
0000
0000
0100
0000
0000
0010
0000
0000
1000
0000
0001
1000
0000
0000
0001
0000
0100
0001
0000
0000
,
0010
0000
0000
0001
0000
0000
1000
0000
0000
0001
0000
0000
0100
0000
0000
0010
0000
1000
0000
0000
0001
0100
0000
0000
,
0001
0000
1000
0000
0000
0001
1000
0000
0000
0010
0000
1000
0100
0000
0000
0100
0000
0000
0100
0000
0010
0001
0000
0000
,
1001
0000
0000
0010
0000
0000
1000
0000
0000
0001
0000
0000
0010
0000
0000
0001
0000
0100
0000
0000
0100
1000
0000
0000
,
0010
0000
0000
1000
0000
0000
0001
0000
0000
1000
0000
0000
0010
0000
1000
0100
0000
0000
0010
0000
0001
0100
0000
0000
,
0010
0000
0000
1000
0000
0000
0001
0000
0000
0010
0000
0001
1000
0000
0000
0100
0000
1000
0000
0000
0001
0100
0000
0000
,
0010
0000
1000
0000
0000
1000
0001
0000
0000
0100
0000
0010
1000
0000
0000
0100
0000
0010
0001
0000
0000
0000
0000
0000
,
0202
0000
0000
0000
0003
0000
0010
0000
0310
0000
0000
1000
0000
0000
0100
0000
,
1000
0000
0000
0001
0000
0000
0100
0000
0010
0000
0000
1000
0000
0000
0001
0000
,
0010
0000
0000
0001
0000
0000
0100
0000
0001
0000
0000
1000
0000
0000
0001
0000
,
0010
0000
0000
0100
0000
0000
0010
0000
0011
0000
0000
1010
0000
0000
1100
0000
;

//---------------dance-single - ----------------
#NOTES:
     dance-single:
     :
     Challenge:
     17:
     :
0000
0000
0000
0000
,
0000
0000
0000
0000
,
0000
0000
0000
0000
,
0000
0000
0000
0000
,
0110
0000
0000
1000
0000
0100
1000
0000
0000
0001
0000
0100
0001
0000
0000
0010
0000
0001
0000
0000
1000
0010
0000
0000
,
0100
0000
0000
0001
0000
1000
0001
0000
0000
1000
0000
0001
1000
0100
1000
0100
0000
0000
0010
0001
0010
0001
0000
0000
,
0100
0000
0000
0001
0000
0010
0001
0000
0000
1000
0000
0010
1000
0000
0000
0100
0000
1000
0000
0000
0001
0100
0000
0000
,
0010
0000
1000
0000
0000
0101
0000
0000
0000
0001
0100
0001
0100
0000
0000
0010
1000
0010
1000
0000
0000
0001
0000
0100
,
0001
0000
0000
0010
0000
0100
1000
0000
0010
1000
0000
0001
1000
0000
0100
0010
0000
0000
0001
0000
0100
0010
0000
0000
,
1000
0000
0000
0100
0000
1000
0010
0000
0100
0000
0000
0001
0010
0000
0001
1000
0000
0001
0100
0000
0000
0010
0000
0000
,
1000
0000
0000
0000
0000
1000
0100
0000
0010
0100
0000
0010
0001
0000
0100
0001
0000
1000
0001
0000
0000
0010
0000
0000
,
0001
0000
0000
0100
0000
0010
1000
0000
0001
1000
0000
0100
0010
0000
0001
1000
0000
0001
0000
0000
0100
0010
0000
0000
,
1010
0000
0000
0000
0000
0001
1000
0000
0010
1000
0000
0001
0000
0000
0100
0010
0000
0100
0001
0000
0000
1000
0000
0000
,
0010
0000
0000
1000
0000
0100
0010
0000
0001
0010
0000
0001
0100
0000
0010
1000
0000
0001
1000
0000
0100
0010
0000
0001
,
0100
0000
0000
0000
0000
0100
0010
0000
1000
0001
0000
1000
0001
0000
0010
0001
0000
0100
0000
0000
0010
1000
0000
0000
,
0001
0000
1000
0001
0000
0100
0001
0000
1000
0010
0000
0100
0010
0000
1000
0001
0000
0010
0100
0000
0010
0100
0000
1000
,
0001
0000
0000
0100
0000
0010
0100
0000
0000
0001
0000
1000
0100
0000
0000
1000
0000
0001
1000
0000
0000
0010
0000
0100
,
0001
0000
0000
1000
0000
0100
1000
0000
0000
0010
0000
0001
0010
0000
0000
0100
0000
1000
0100
0000
1000
0001
0000
0000
,
0010
0000
0000
0001
0000
0100
0001
0000
0000
1000
0000
0010
1000
0000
0000
0100
0000
1000
0100
0000
0000
0010
0000
0001
,
0010
0000
0000
0001
0000
0100
0001
0000
1000
0100
0000
0010
0001
0000
0000
0100
0000
0010
1000
0000
0100
1000
0000
0001
,
0010
0000
0000
0100
0000
0010
0001
0000
0000
1000
0000
0001
1000
0000
0000
0010
0000
1000
0100
0000
0000
0010
0000
0001
,
0010
0000
0000
0001
0000
1000
0100
0000
0000
1000
0000
0010
1000
0000
0000
0100
0000
0010
0001
0000
0000
1000
0000
0001
,
0100
0000
0000
0010
0000
1000
0010
0000
0000
1000
0001
1000
0001
0000
0000
0010
0000
0001
0100
0000
0000
0100
0000
0010
,
1000
0000
0100
1000
0000
0100
0010
0000
0001
0010
0000
0001
0100
0000
0000
0110
0000
0000
1001
0000
0000
0010
0000
1000
,
0001
0000
0010
0001
1000
0000
0100
1000
0001
0000
0100
0010
0000
0010
1000
0000
,
0100
0000
0000
0000
0000
0000
1000
0000
0000
0000
0001
0000
1000
0000
0000
0000
0000
0000
0010
0000
0000
0000
0100
0000
0001
0000
0000
0000
0000
0000
1000
0000
0010
0000
1000
0000
0010
0000
0000
0000
0000
0000
0100
0000
0000
0001
0000
0000
,
0010
1000
0010
0100
0010
1000
0010
0001
,
0010
0000
1000
0000
0010
0000
0001
0000
0100
0000
0010
1000
0001
1000
0100
0010
,
0001
0000
0000
0100
0000
0000
0010
0000
0000
1000
0001
1000
0001
0000
0000
0100
0000
0010
1000
0000
0000
0001
0000
1000
,
0100
0000
0000
0000
0000
0000
0010
0000
0000
0001
0000
0000
0100
0000
0000
0000
0000
0000
0010
0000
1000
0000
0010
0000
1000
0000
0000
0000
0000
0000
0001
0000
0000
0100
0000
0000
0010
0000
0000
1000
0000
0000
0001
0000
0000
1000
0000
0000
,
0100
0001
0100
0010
0100
1000
0100
0001
,
0100
0000
0010
0000
0100
0000
0001
0000
0100
0000
1000
0010
1000
0001
0010
0001
,
0100
0000
0000
0010
0000
1000
0001
0000
0000
0010
0000
0001
1000
0000
0100
1000
0000
0001
0100
0000
0010
1000
0000
0000
,
0100
0000
0000
0000
0000
0000
0010
0000
0000
0000
0001
0000
0100
0000
0000
0000
0000
0000
0001
0000
0000
0000
1000
0000
0100
0000
0000
0000
0000
0000
1000
0000
0010
0000
0100
0000
0001
0000
0000
1000
0000
0000
0001
0000
0000
1000
0000
0000
,
0010
0000
0100
0000
0001
0000
0100
0000
0010
0000
1000
0001
1000
0000
0100
0000
,
1100
0000
0001
0000
0100
0000
0001
0000
0100
0000
0010
1000
0010
1000
0100
0010
,
0001
0000
0000
0100
0000
0100
0010
0000
0000
1000
0000
0010
1000
0000
0001
1000
0000
0100
0010
0000
0001
0100
0000
0000
,
0001
0000
0000
0010
0000
0010
0100
0000
0100
1000
0000
0010
1000
0001
0100
0010
0000
0000
1000
0100
0010
0001
0000
0000
,
0100
0000
0000
0001
0000
0001
1000
0000
1000
0010
0000
0010
1000
0000
0100
0010
0000
0001
0100
0000
0010
0100
0000
0000
,
0001
0000
0000
0000
0000
0000
1000
0000
0000
0000
0100
0000
1000
0000
0000
0000
0000
0000
0010
0000
0000
0000
0100
0000
0001
0000
0000
0000
0000
0000
1000
0000
0001
0000
0010
0000
0100
0000
0000
1000
0000
0000
0001
0000
0000
0100
0000
0000
,
0010
0000
0000
1000
0000
0100
1000
0000
0000
0100
0000
0010
0001
0000
1000
0001
0000
0010
0001
0000
0100
0010
0000
0000
,
1001
0000
0000
0010
0000
1000
0100
0000
0000
0010
0000
0001
1000
0000
0001
0100
0000
0000
0001
0010
0100
1000
0000
0000
,
1010
0000
0000
0001
0000
0001
0010
0000
0000
0100
0000
0010
0100
0000
1000
0001
0000
1000
0000
0000
0010
0100
0000
0001
,
0010
0000
0000
0001
0000
1000
0000
0000
1000
0100
0000
1000
0100
0000
0000
0010
0001
0010
0001
0000
0000
0100
0000
0000
,
0110
0000
0000
1000
0000
0001
0010
0000
0000
0100
0000
0010
0001
0000
0000
1000
0000
0010
0000
0000
0100
0001
0000
0000
,
0011
0000
0000
0010
0000
0001
0100
0000
0000
0010
0000
1000
0100
0010
0100
1000
0000
0000
0001
1000
0001
1000
0000
0001
,
0100
0000
0000
0010
0000
0010
1000
0000
0000
0001
0000
1000
0001
0000
0100
0010
0000
0100
0000
0000
0001
1000
0000
1000
,
0001
0000
0100
0010
0000
1000
0001
0000
0000
0010
0001
0010
0100
0000
0000
1000
0000
0010
1000
0001
0100
0010
0000
0000
,
0110
0000
0000
1000
0000
0100
0010
0000
0000
0001
0000
0100
0001
0000
0010
0001
0000
1000
0100
0000
1000
0010
0000
0000
,
0100
0000
0000
0001
0000
0010
0001
0000
0100
0010
0000
1000
0001
1000
0010
0100
0000
0000
0010
1000
0001
0100
0000
0010
,
1000
0000
0000
0100
0000
0100
1000
0000
0000
0001
0000
0010
0001
0000
0100
0010
0000
0100
0001
0000
1000
0001
0000
0010
,
0100
0000
1000
0010
0000
1000
0001
0000
0010
0001
0100
0010
1000
0000
0000
1000
0100
0010
0001
0000
0000
0100
0000
0020
,
2000
0000
0000
0000
0030
0000
3020
0000
0230
0000
0000
0302
0000
0000
2003
0000
,
3002
0000
0000
0023
0000
0000
0230
0000
2300
0000
0000
3002
0000
0000
0203
0000
,
0302
0000
0000
2003
0000
0000
3020
0000
2030
0000
0000
3200
0000
0000
0320
0000
,
0032
0000
0000
2003
0000
0000
3001
0000
0011
0000
0000
0110
0000
0000
1100
0000
;
