#TITLE:It's Still Rock and Roll to Me;
#ARTIST:Billy Joel;
#BANNER:It's Still Rock and Roll to Me.png;
#BACKGROUND:It's Still Rock and Roll to Me-bg.png;
#JACKET:It's Still Rock and Roll to Me-jacket.png;
#MUSIC:It's Still Rock and Roll to Me.ogg;
#SAMPLESTART:7;
#SAMPLELENGTH:20;
#DISPLAYBPM:115:180;
#BPMS:0=137,24=138,32=140,48=142,52=138,56=138.25,60=137,64=139,68=138,72=141,80=143,84=146,88=140,100=136,104=141,105=144,120=142,124=141,132=139.8,140=140,144=142.3,148=145,152=147,156=144.444,158=142.222,160=138,170=139.75,172=140.63,174=142.5,184=144,187=142.3,196=142,204=140,216=143.333,222=141.25,224=145.3,227.83333=150,229=135,230=145,231=146,231.66667=165,232=148.9,233=137,233.5=128,234=144.5,234.83333=124,235=137.65,236=151,237=180,237.25=115,238=142.37,240=145,244=143.4,250=141.987,256=144,262=134,264=138,266=147,270=145.667,272=140,280=145;
#STOPS:116.08334=0.034;
#BGCHANGES:;

//---------------dance-single - ----------------
#NOTES:
     dance-single:
     :
     Beginner:
     3:
     :
0000
0000
0000
0000
,
0000
0000
0000
0000
,
0000
0000
0000
0000
,
0000
0000
0000
0000
,
0000
0000
0010
0000
,
1000
0000
0100
0000
,
1000
0000
0001
0000
,
0100
0000
0000
0000
,
0000
0000
0001
0000
,
0010
0000
0001
0000
,
0100
0000
0010
0000
,
1000
0000
0000
0000
,
1001
0000
0000
0000
,
0110
0000
0000
0000
,
1001
0000
0000
0000
,
0110
0000
0000
0000
,
1000
0000
0001
0000
,
0100
0000
0010
0000
,
1000
1000
1000
0000
,
0002
0000
0003
0000
,
0020
0000
0000
0030
,
0000
0001
0000
0001
,
0000
1000
0000
1000
,
0000
0010
0000
0010
,
0000
0100
0000
0100
,
0000
0001
0000
0010
,
0000
0001
0000
1000
,
0000
0100
0000
1000
,
0000
0000
0010
0010
,
0010
0000
0100
0000
,
0001
0001
0001
0000
,
1000
0000
0010
0000
,
0100
0100
0100
0000
,
0001
0000
0001
0000
,
1000
0000
1000
0000
,
0010
0010
0010
0000
,
2000
0000
3000
0000
,
0200
0000
0000
0300
,
0000
1000
1000
0000
,
0010
0000
0100
0000
,
0001
0000
0010
0000
,
0001
0000
0000
0100
,
0100
0000
0110
0000
,
0010
0000
0110
0000
,
1000
0000
0001
0000
,
1001
0000
0000
0000
,
0001
0001
0001
0000
,
0200
0000
0300
0000
,
0020
0000
0000
0030
,
0000
1000
0000
1000
,
0000
0100
0000
0100
,
0000
0010
0000
0010
,
0000
0001
0000
0001
,
0000
0100
0000
0010
,
0000
0100
0000
0010
,
0000
1000
0000
0001
,
0000
0000
0010
0010
,
0010
0000
0001
0000
,
0100
0100
0100
0000
,
0001
0000
1000
0000
,
0010
0010
0010
0000
,
1000
0000
0100
0000
,
0010
0000
0001
0001
,
0001
0000
0100
0000
,
0110
0000
0000
0000
,
1001
0000
1001
0000
,
0110
0000
1001
0000
,
0110
0000
0000
0000
,
0000
0000
1001
0000
,
0000
0000
0000
0000
,
0000
0000
0000
0000
,
0000
0000
0000
0000
,
0010
0000
0000
0000
;

//---------------dance-single - ----------------
#NOTES:
     dance-single:
     :
     Easy:
     7:
     :
0000
0000
0000
0000
,
0000
0000
0000
0000
,
0000
0000
0000
0000
,
0000
0000
0000
0000
,
0000
0010
1000
0100
,
1000
1000
0001
0001
,
0010
0001
0100
1000
,
0010
0000
0000
0000
,
0000
1000
0100
1000
,
0001
0001
1000
1000
,
0010
1000
0100
0001
,
0010
0000
0000
0000
,
0101
1000
0100
1000
,
1100
0001
0001
0000
,
1010
0001
0010
0001
,
0011
1000
1000
0000
,
0010
0010
0100
0100
,
0001
0001
1000
1000
,
0110
1000
1001
0010
,
0200
0000
0000
0300
,
0001
1000
0001
1000
,
0010
1000
0100
1000
,
0001
0001
0100
0010
,
1000
0100
1000
0001
,
0010
0011
0000
1100
,
0000
0001
1000
0010
,
1000
1000
0001
1000
,
0100
0010
0001
0100
,
0010
0000
1010
0101
,
1001
0010
1000
0100
,
1000
0001
0001
0000
,
0110
0001
0100
1000
,
0010
1000
0001
0000
,
1100
1100
0101
0101
,
1000
0001
1001
1001
,
0010
1000
0100
0001
,
0020
0000
0000
0030
,
0001
1000
0001
1000
,
0010
1000
0100
1000
,
0001
0010
0001
0100
,
1000
0010
0001
0100
,
1000
0100
0010
0001
,
0101
1000
1100
0001
,
0011
1000
1010
0001
,
0100
0010
1000
0001
,
1001
0010
0001
0100
,
1000
0010
1000
0100
,
0110
0001
0010
0100
,
1000
1000
1000
1000
,
1000
0010
1000
0100
,
0010
0010
0010
0001
,
0100
0001
0010
0100
,
1000
1100
0000
0101
,
0000
0010
0010
0001
,
1001
0110
1001
0110
,
1000
0010
0001
0100
,
0001
0000
0011
1100
,
1010
0001
1000
0100
,
0110
0110
0110
0000
,
0011
0001
0100
1000
,
1001
1001
1001
0010
,
0101
0101
1100
1100
,
0001
1000
1001
1001
,
0010
1000
0100
0001
,
0010
0010
0010
0010
,
0011
0000
1100
0000
,
0101
0000
1010
0000
,
0110
0001
1000
0001
,
0100
0000
2002
0000
,
0000
0000
0000
0000
,
0000
0000
0000
0000
,
0003
3002
0000
0000
,
0023
0000
0000
0030
;

//---------------dance-single - ----------------
#NOTES:
     dance-single:
     :
     Medium:
     9:
     :
0000
0000
0000
0000
,
0000
0000
0000
0000
,
0000
0000
0000
0000
,
0000
0000
0000
0000
,
0000
0000
0000
0010
0000
0010
1000
0000
0000
0100
0000
0100
,
0010
0000
0000
0001
0000
0000
1000
0000
0000
0010
0000
1000
,
0100
0000
0000
1000
0000
0001
1000
0000
0000
0010
0000
0100
,
0000
0000
0000
0000
,
0000
0000
0000
0001
0000
0001
0010
0000
0000
0100
0000
0100
,
1000
0000
0000
0010
0000
0000
0100
0000
0000
0001
0000
1000
,
0001
0000
0000
0010
0000
0100
1000
0000
0000
0010
0000
0100
,
0000
0000
0000
0000
,
0101
0000
0000
0000
0000
1000
0100
0000
0000
0000
0000
0000
,
1100
0000
0000
0000
0000
0001
0100
0000
0000
0000
0000
0000
,
0011
0000
0000
0000
0000
1000
0010
0000
0000
0000
0000
0000
,
1010
0000
0000
0000
0000
0001
0010
0000
0000
0000
0000
0000
,
0001
0101
1000
1100
,
0010
0000
0000
0110
0000
0000
1001
0000
0001
1000
0000
0000
,
0010
0000
0000
1000
0000
0100
1000
0000
0000
0001
0000
0100
,
0010
0010
0010
0010
,
1010
0101
0011
1100
,
1001
0000
0000
0010
0000
0010
1000
0000
0000
0001
0000
0001
,
0100
0000
0000
0110
0000
0000
0010
0000
1000
0001
0000
0000
,
0010
0000
0000
0001
0000
0100
0001
0000
0000
1000
0000
0100
,
1000
1010
0000
0101
,
0000
0000
0000
1100
0000
1000
0100
0000
0000
0010
0000
0001
,
0100
0000
0000
1001
0000
0000
0110
0000
0001
1000
0000
0000
,
0100
0000
0000
0100
0000
0010
0001
0000
0000
1000
0000
0001
,
0100
0101
1100
0101
,
1001
0000
0000
0010
0000
1000
0001
0000
0000
0010
0000
0100
,
1000
0000
0000
1010
0000
0000
1000
0000
0001
0000
0000
0100
,
0010
0000
0000
0110
0000
0000
1001
0000
0000
1000
0000
0100
,
1000
0000
0000
0001
0000
0100
0001
0000
1000
0000
0000
0000
,
0010
0101
0010
1100
,
0001
0000
1000
0100
0000
0000
0011
0000
0000
1100
0000
0000
,
0001
0000
0000
1000
0000
0010
1000
0000
0000
0100
0000
0010
,
0001
0001
0001
0001
,
0011
1100
0101
1010
,
0001
0000
0010
0000
0000
0100
0000
0000
1000
0000
0000
0010
,
0000
0000
1000
0000
0000
0100
0000
0000
0010
0000
0000
0001
,
0000
0000
0100
0000
0000
0001
0000
0000
1000
0000
0000
0010
,
0000
0000
1000
0000
0000
0100
0000
0000
0010
0000
0000
0001
,
0000
0000
0100
0000
0000
0010
0000
0000
1000
0000
0000
0001
,
0000
0000
0010
0000
0000
0001
0000
0000
0100
0000
0000
1000
,
0010
0000
0100
0001
0000
0000
1000
0000
0000
0001
0000
0010
,
0100
0000
0100
0010
0000
0000
0001
0000
0001
1000
0000
0000
,
0010
0000
0010
1000
0000
0000
0100
0000
0010
0001
0000
0000
,
1000
0000
0001
0100
0000
0000
0001
0000
0000
1000
0000
0000
,
0001
0010
0100
1000
0001
0010
0100
1000
,
0010
0000
0000
1000
0000
0100
1000
0000
0000
0001
0000
0100
,
0001
0000
0000
0010
0000
0000
0001
0000
1000
0100
0000
0000
,
0110
0000
0000
0010
0000
0001
1000
0000
0000
0010
0000
1000
,
0001
0011
0000
1100
,
0000
0000
0001
1000
0000
1000
0010
0000
0000
0100
0000
0100
,
0010
0000
0000
1001
0000
0000
0110
0000
0001
1000
0000
0001
,
0100
0000
0000
0010
0000
0010
1000
0000
0000
0100
0000
1000
,
0001
1000
0101
1010
,
0101
0000
0000
0010
0000
1000
0100
0000
0000
1000
0000
0001
,
0100
0000
0000
0100
0000
0000
0001
0000
1000
0000
0000
0001
,
0100
0000
0000
1010
0000
0000
0011
0000
0000
0100
0000
0001
,
1000
0000
0000
1000
0000
0100
1000
0000
0000
0001
0000
0100
,
0001
0101
1000
1100
,
1010
0000
0000
0101
0000
0000
1001
0000
0001
1000
0000
1000
,
0100
0000
0000
1000
0000
0001
1000
0000
0000
0010
0000
0100
,
0001
0011
0110
1100
,
1001
0000
1010
0000
,
0101
0000
1100
0000
,
0011
0000
0000
1000
0000
0000
0001
0000
0000
1000
0000
0100
,
0000
0000
1001
0000
1001
0000
2002
0000
0000
0000
0000
0000
,
0000
0000
0000
0000
,
0000
0000
0000
0000
,
0003
0002
0000
3000
,
0023
0000
0000
0030
;

//---------------dance-single - ----------------
#NOTES:
     dance-single:
     :
     Hard:
     13:
     :
0000
0000
0000
0000
,
0000
0000
0000
0000
,
0000
0000
0000
0000
,
0000
0000
0000
0000
,
0010
0010
0010
0010
,
0001
0001
0001
0001
,
0100
0100
0100
0100
,
1000
1000
1000
1000
,
0001
0001
0001
0001
,
0100
0100
0100
0100
,
0010
0010
0010
0010
,
1000
1000
1000
1000
,
1001
0000
0000
0010
0000
0100
0001
0000
0000
1000
0000
0000
,
0110
0000
0000
0010
0000
1000
0001
0000
0000
0100
0000
0000
,
0101
0000
0000
0001
0000
1000
0010
0000
0000
0100
0000
0000
,
1100
0000
0000
1000
0000
0010
0100
0000
0000
0001
0000
0000
,
0001
0000
0001
0100
0000
0100
1000
0000
1000
0100
0000
0100
,
0001
0000
0000
1100
0000
0000
0001
0000
0100
0010
0000
1000
,
0002
0000
0000
1003
0000
0100
2000
0000
0000
3010
0000
0100
,
0002
2003
3002
2003
,
3001
0010
0100
1000
0010
0100
0001
0010
0100
1000
0010
0100
,
0001
0000
0000
0101
0000
0100
0010
0000
0010
1000
0000
1000
,
0001
0000
0000
0110
0000
0000
0010
0000
1000
0100
0000
1000
,
0001
0000
0000
0011
0000
0010
0100
0000
0000
1100
0000
1000
,
0001
0000
0000
0101
0000
1000
0100
0000
0000
1100
0000
0000
,
0010
0000
0000
0110
0000
0100
0001
0000
0001
1000
0000
1000
,
0010
0000
0000
0101
0000
0000
0001
0000
1000
0100
0000
1000
,
0010
0000
0010
0100
0000
0100
0001
0000
0001
1000
0000
1000
,
0010
0000
0000
0010
0000
0000
0001
0100
0001
1000
0100
1000
,
0010
0000
0000
1000
0000
1000
0100
0000
0100
0010
0000
0010
,
0001
0000
0000
0011
0000
0001
0100
0000
0010
0000
0000
1000
,
0100
0000
0000
1100
0000
0000
0101
0000
0000
1000
0000
0001
,
0100
0000
0000
0001
0000
1000
0100
0000
1000
0001
0000
0000
,
0011
0011
1010
1010
,
0010
0000
0010
1000
0000
1000
0001
0000
0001
0100
0000
0100
,
0002
0000
0000
1003
0000
0100
2000
0000
0000
3001
0000
0100
,
0001
0000
1000
0001
0000
1000
0001
0000
1000
0001
0000
1000
,
0010
1000
0100
0010
0001
0100
0010
1000
0100
0010
0001
0100
,
0010
0000
1000
0001
0000
0010
0100
0000
0010
0001
0000
0100
,
0001
0000
1000
0010
0000
1000
0001
0000
0010
0100
0000
1000
,
0010
0000
1000
0100
0000
1000
0001
0000
0010
0001
0000
0100
,
0010
0000
2000
0000
0000
3002
0000
0000
1003
0100
0000
0010
,
0002
0000
0000
1003
0000
0010
2000
0000
0000
3100
0000
0010
,
0002
0000
0000
0103
0000
0010
0200
0000
0000
0301
0000
0010
,
0100
0000
1000
0010
0000
1000
0001
0000
0010
0100
0000
1000
,
0010
0000
0100
0002
0000
0000
1003
0000
0001
0100
0000
0020
,
0100
0000
0000
1030
0000
0001
0010
0000
0001
0100
0000
0010
,
1000
0000
0001
0100
0000
0000
0110
0000
0000
1001
0000
0000
,
1000
0100
1000
0100
1000
0100
1000
0100
1000
0100
1000
0100
1000
0100
1000
0100
,
1000
0000
0000
1100
0000
0100
0010
0000
0100
1000
0000
0001
,
0100
0000
0000
0110
0000
0000
1010
0000
0010
1000
0000
0001
,
0200
0000
0000
0301
0000
0001
2000
0000
0000
3010
0000
0010
,
0100
0000
0000
0101
0000
0001
1000
0000
0010
1000
0000
0100
,
0010
0000
0010
0001
0000
0001
1000
0000
1000
0100
0000
0100
,
1000
0000
0000
1001
0000
0001
0010
0000
0001
0100
0000
0010
,
2000
0000
0000
3010
0000
0010
0200
0000
0000
0301
0000
0001
,
0010
0000
0000
0010
0000
0000
1000
0100
1000
0001
0100
0001
,
1000
0000
0010
0100
0000
0010
1000
0000
0100
0010
0000
0001
,
0100
0000
0000
0110
0000
0010
1000
0000
0001
0000
0000
0100
,
0010
0000
0000
1010
0000
0000
0101
0000
0001
0010
0000
0100
,
1000
0000
0000
1000
0000
0010
0100
0000
0010
0100
0000
0001
,
1000
1100
0001
0101
,
1001
0000
0000
0110
0000
0000
1000
0000
0100
0010
0000
0001
,
0200
0000
0000
0310
0000
1000
0002
0000
0000
0013
0000
0100
,
1000
0100
0010
0001
0010
0100
1000
0100
0010
0001
0010
0100
,
2000
3010
0002
0013
,
0200
0301
0020
1030
,
2010
0000
0000
0001
0000
0000
0100
0000
0000
0010
0000
3010
,
0000
0000
1001
0000
1001
0000
2002
0000
0000
0000
0000
0000
,
0000
0000
0000
0000
,
0000
0000
0000
0003
,
0000
0200
3000
0000
,
0310
0000
0000
0000
;

//---------------dance-single - ----------------
#NOTES:
     dance-single:
     :
     Challenge:
     15:
     :
0000
0000
0000
0000
,
0000
0000
0000
0000
,
0000
0000
0000
0000
,
0000
0000
0000
0000
,
0010
0000
0000
0011
0000
0001
1000
0000
1000
0010
0000
0010
,
0200
0000
0000
0301
0000
0000
0101
0000
0001
1000
0000
0100
,
2000
0000
0000
3010
0000
0010
0200
0000
0000
0301
0000
0001
,
1000
0000
0001
1000
0000
0001
1000
0000
0001
1000
0000
0001
,
0100
0000
0000
0110
0000
0010
1000
0000
1000
0001
0000
0001
,
0020
0000
0000
0130
0000
0000
1100
0000
1000
0001
0000
1000
,
0020
0000
0000
0130
0000
0010
2000
0000
0000
3001
0000
0100
,
0001
0000
1000
0001
0000
1000
0001
0000
1000
0001
0000
1000
,
1010
0000
0000
0101
0000
0001
0100
0000
0100
0010
0000
0010
,
0110
0000
0000
1001
0000
1000
0100
0000
0100
0010
0000
0010
,
0011
0000
0001
1000
0000
1000
0010
0000
0010
1000
0000
0100
,
1100
0000
1000
0001
0000
0001
0010
0000
0010
0100
0000
0000
,
1000
0000
0001
0010
0000
0100
1000
0000
0010
1000
0000
0001
,
0011
0000
0000
1100
0000
0000
0101
0000
1000
0010
0000
0100
,
0120
0000
0000
1030
0000
0001
0200
0000
0000
0310
0000
1000
,
0001
0010
0001
1000
0010
1000
0001
0100
0001
1000
0100
1000
,
0001
0010
1000
0001
0100
1000
0001
0010
1000
0001
0100
1000
,
0010
0000
0000
1001
0000
0100
0001
0000
0010
0100
0000
1000
,
0020
0000
0000
0130
0000
0000
0101
0000
0010
1000
0000
0001
,
0020
0000
0000
0130
0000
1000
0010
0000
0100
0010
0000
1000
,
0100
0000
0000
1100
0000
0001
0100
0000
0000
0011
0000
1000
,
0001
0000
0000
1010
0000
0001
1000
0000
0100
1000
0000
0010
,
1010
0000
0000
1010
0000
0000
1010
0000
0001
0100
0000
0010
,
1000
0000
0001
1000
0000
0010
0100
0000
0001
1000
0000
0100
,
1000
0010
0100
0001
0010
0100
1000
0010
0100
0001
0010
0100
,
1100
0000
0000
0011
0000
1000
0001
0000
0010
0100
0000
1000
,
1001
0000
0000
1001
0000
0010
1000
0000
0100
0010
0000
0001
,
0101
0000
0000
0101
0000
0000
1100
0000
0000
0001
0000
0010
,
0110
0000
0000
0110
0000
0001
0100
0000
0010
1000
0000
0000
,
1100
0101
0011
1010
,
0010
0000
1000
0010
0000
0100
0001
0000
0010
0001
0000
1000
,
1200
0000
0000
1300
0000
0010
0200
0000
0000
0301
0000
1000
,
0001
0010
0001
1000
0010
1000
0001
0100
0001
1000
0100
1000
,
0001
0010
1000
0001
0100
1000
0001
0010
1000
0001
0100
1000
,
0010
0000
1000
0100
0000
1000
0001
0000
0010
0001
0000
0100
,
0010
0000
1000
0010
0000
0100
0001
0000
0010
1000
0000
0001
,
0100
0000
0001
0010
0000
1000
0100
0000
1000
0001
0000
0010
,
1000
0000
0100
0010
0000
0001
0100
0000
0001
0010
0000
0100
,
1100
0000
1000
0010
0000
0100
0101
0000
0010
1000
0000
0100
,
0011
0000
0001
0100
0000
0010
1001
0000
1000
0100
0000
0010
,
0001
0000
0100
0010
0000
1000
0100
0000
0010
0001
0000
1000
,
0010
0000
1000
0001
0000
1000
0010
0000
0001
0100
0000
0010
,
1000
0000
0001
0010
0000
0100
1000
0000
0010
1000
0000
0001
,
0010
0100
0010
0001
0100
0010
1000
0001
1000
0100
0010
0001
,
1000
0100
1000
0100
0010
0001
0010
0001
0100
0010
0100
0010
1000
0001
1000
0001
,
0010
0000
0000
0110
0000
0100
1000
0000
0001
1000
0000
0010
,
0200
0000
0000
0301
0000
0000
0101
0000
1000
0010
0000
0100
,
0002
0000
0000
0013
0000
0100
1000
0000
0010
1000
0000
0001
,
0100
0000
0000
0011
0000
1000
0100
0000
0000
1010
0000
0001
,
0100
0000
0010
1010
0000
1000
1010
0000
0001
0100
0000
0010
,
0110
0000
0000
1001
0000
0001
1000
0000
0010
1000
0000
0001
,
0020
0000
0000
0130
0000
1000
0002
0000
0000
0103
0000
0010
,
1000
0001
0010
0100
0010
0100
0001
0010
1000
0001
1000
0100
,
1100
0000
0001
0001
0000
1000
1000
0000
0010
1000
0000
0100
,
0110
0000
0000
0011
0000
1000
0101
0000
0100
0010
0000
1000
,
1100
0000
0000
0110
0000
0000
0011
0000
0100
0010
0000
1000
,
0101
0000
0000
1010
0000
0001
1001
0000
0100
0010
0000
1000
,
1100
1100
0011
0011
,
1010
0000
0000
0101
0000
0000
1001
0000
0100
0010
0000
1000
,
0012
0000
0000
0103
0000
0010
2000
0000
0000
3001
0000
1000
,
0010
1000
0001
1000
0100
0001
0100
0010
1000
0001
0100
0010
,
0110
0000
0010
0001
0000
0100
0101
0000
0001
1000
0000
0100
,
1100
0000
0000
0001
0000
0000
1010
0000
0010
1000
0000
0001
,
0011
0000
0000
0100
0000
0010
2000
0000
0000
3001
0000
0100
,
0000
0000
1001
0000
0110
0000
2002
0000
0000
0000
0000
0000
,
0000
0000
0000
0000
,
0000
0000
0000
0000
,
0003
0200
0000
3000
,
0310
0000
0000
0000
;
