#TITLE:Into the world;
#ARTIST:QUADRA;
#BANNER:Into the world.png;
#BACKGROUND:Into the world-bg.png;
#JACKET:Into the world-jacket.png;
#MUSIC:Into the world.ogg;
#SAMPLESTART:47.611;
#SAMPLELENGTH:20;
#DISPLAYBPM:126;
#BPMS:0=126.021;
#BGCHANGES:;

//---------------dance-single - ----------------
#NOTES:
     dance-single:
     :
     Beginner:
     2:
     :
0000
0000
0000
0000
,
0000
0000
0000
0000
,
0000
0000
0000
0000
,
0000
0000
0000
0000
,
0000
0000
0000
0000
,
0000
1000
0000
0000
,
0000
0001
0000
0000
,
0000
0100
0000
0000
,
0000
0010
0000
0110
,
0000
0010
0000
0000
,
0000
1000
0000
0000
,
0000
0001
0000
0000
,
0000
0100
0000
0110
,
0000
0100
0000
0000
,
0000
0010
0000
0000
,
0000
1000
0000
0000
,
0000
0001
0000
1001
,
0000
0001
0000
0000
,
0000
0010
0000
0000
,
0000
0100
0000
0000
,
0000
1000
0000
0000
,
0020
0000
0000
0000
,
0030
0000
1000
0000
,
0200
0000
0300
0000
,
0020
0000
0030
0000
,
0002
0000
0000
0000
,
0003
0000
1000
0000
,
0020
0000
0030
0000
,
0200
0000
0300
0000
,
0002
0003
0000
1000
,
1000
0000
0000
0010
,
0010
0000
0000
0100
,
0100
0000
0000
0010
,
0010
0000
0000
1000
,
1000
0000
0000
0001
,
0001
0000
1000
0000
,
0110
0000
0100
0100
,
0200
0000
0000
0000
,
0000
0300
0000
0000
;

//---------------dance-single - ----------------
#NOTES:
     dance-single:
     :
     Easy:
     7:
     :
0000
0000
0000
0000
,
0000
0000
0000
0000
,
0000
0000
0000
0000
,
0000
0000
0000
0000
,
0000
0000
0000
0000
,
1000
0001
1000
0001
,
0100
1000
0010
0100
,
0001
0100
0100
0010
,
0100
0010
1000
0100
,
1001
0001
1000
0100
,
0001
1000
0001
0100
,
0100
0010
0100
1000
,
0100
1000
0001
0100
,
1001
0000
0100
0100
,
1000
0000
0001
0001
,
0100
0000
0010
1000
,
0100
0000
0010
0100
,
1001
0000
1000
0001
,
0100
0000
0001
1000
,
0100
0000
0100
0010
,
0100
0000
0001
0010
,
1001
0000
1000
0010
,
0100
0000
1000
0010
,
1001
0000
1000
0000
,
1000
0001
1000
0001
1000
0001
1000
0001
,
0100
1000
0010
0100
,
1000
0100
0001
1000
,
0100
0010
0001
1000
,
0100
0001
0010
0100
,
1001
0010
0010
1000
,
0110
1000
0001
0100
,
1001
0100
0100
1001
,
1001
0010
0010
0110
,
0110
0001
0001
0100
,
1001
0010
0100
1001
,
1001
0000
0110
0000
,
1001
0000
0100
0100
,
1001
0000
0000
0000
;

//---------------dance-single - ----------------
#NOTES:
     dance-single:
     :
     Medium:
     8:
     :
0000
0000
0000
0000
,
0000
0000
0000
0000
,
0000
0000
0000
0000
,
0000
0000
0000
0000
,
0000
0000
0000
0000
,
1001
0001
1000
0001
,
1000
0001
1000
0001
,
1000
0010
0100
0010
,
0100
0010
0100
0110
,
1001
0001
1000
0001
,
1000
0001
1000
0001
,
0100
0010
0100
0010
,
0100
1000
0001
0110
,
1001
0000
0000
0000
0000
0000
0000
1000
,
1000
0000
0000
0000
0000
0000
0000
0001
,
0001
0000
0000
0000
0000
0000
0000
0010
,
0010
0000
0000
0110
,
1001
0000
0001
0000
1000
0000
0001
1000
,
0100
0000
1000
0000
0001
0000
1000
0001
,
0100
0000
0010
0000
0100
0000
0010
1000
,
0100
0001
0001
0110
,
1001
0000
0001
0000
1000
0000
0010
0001
,
0100
0001
1000
0110
,
1001
0001
1000
1001
,
1000
0001
1000
0001
1000
0001
0010
0001
,
1001
0000
0010
0000
0100
0000
0100
0001
,
1000
0000
0001
0000
1000
0000
1000
0001
,
0100
0010
0010
1001
,
0110
0001
0001
0110
,
1001
0010
0010
1001
,
0110
1000
1000
0110
,
1001
0100
0100
1001
,
1001
0010
0010
0110
,
0110
0001
0001
0110
,
1001
0001
0001
1010
,
1100
0000
1010
0000
,
0101
0000
0110
0110
,
1001
0000
0000
0000
;

//---------------dance-single - ----------------
#NOTES:
     dance-single:
     :
     Hard:
     9:
     :
0000
0000
0000
0000
,
0000
0000
0000
0000
,
0000
0000
0000
0000
,
0000
0000
0000
0000
,
0000
0000
0000
0000
,
1001
0000
0000
0000
1000
0001
0100
0010
,
1000
0000
0000
0000
0010
1000
0100
0001
,
0100
0000
0000
0000
0100
0001
0010
1000
,
0100
0000
0000
0000
0100
0001
0110
0000
,
1001
0000
0000
0000
1000
0100
0010
1000
,
0001
0000
0000
0000
1000
0100
0001
0100
,
0010
0000
0000
0000
0100
0010
0100
0100
,
0001
0000
0000
0000
1000
0100
0110
0000
,
1001
0000
0000
0000
0100
1000
0010
1000
,
0001
0000
0000
0000
0010
0100
0010
0100
,
0001
0000
0000
0000
0100
0010
0100
0010
,
1000
0000
0000
0000
1000
0001
0110
0000
,
1001
0000
0000
0000
1000
0001
0001
1000
,
0100
0000
0000
0000
0001
1000
1000
0001
,
0100
0000
0000
0000
0100
0001
0010
1000
,
0100
0000
0000
0000
0001
0010
0110
0000
,
1001
0000
0000
0000
1000
0100
0010
0001
,
0100
0000
0000
0000
1000
0100
0110
0000
,
1001
0001
1000
1001
,
1000
1000
1000
1000
0001
0001
0001
0001
,
0110
0000
0010
0001
0100
0000
0100
0000
,
1000
0000
0001
0100
1000
0000
1000
0000
,
0100
0000
0010
0100
0010
0000
0011
0000
,
1100
0000
0001
1000
0001
0000
1010
0000
,
0101
0000
0010
1000
0010
0000
0011
0000
,
1100
0000
1000
0001
1000
0000
1010
0000
,
0101
0000
0100
0001
0100
0000
0011
0000
,
1100
0000
0010
1000
0010
0000
0110
0000
,
0110
0000
0001
1000
0001
0000
0110
0000
,
1001
0000
0001
0100
0001
0000
1010
0000
,
1100
0001
1010
1000
,
0101
1000
0011
1100
,
1001
0000
0000
0000
;

//---------------dance-single - ----------------
#NOTES:
     dance-single:
     :
     Challenge:
     12:
     :
0000
0000
0000
0000
,
0000
0000
0000
0000
,
0000
0000
0000
0000
,
0000
0000
0000
0000
,
0000
0000
0000
0000
,
1000
0000
0000
1010
0000
0000
1010
0000
0001
0000
0000
0100
0010
0000
1000
0000
,
0001
0000
0000
0011
0000
0000
0011
0000
0100
0000
0000
0010
1000
0000
0001
0000
,
0100
0000
0000
0110
0000
0000
0110
0000
0001
0000
0000
0010
0001
0000
1000
0000
,
0100
0000
0000
1100
0000
0000
1100
0000
0010
0000
0000
0001
1000
0000
0100
0010
,
0100
0000
0000
1100
0000
0000
0101
0000
1000
0000
0000
0010
0100
0000
0001
1000
,
0001
0000
0000
0011
0000
0000
1010
0000
0100
0000
0000
0010
0001
0000
1000
0010
,
1000
0000
0000
1100
0000
0000
1001
0000
0010
0000
0000
0100
0001
0000
1000
0001
,
1000
0000
0000
1010
0000
0000
0110
0000
0001
0000
0000
0010
0001
0000
1000
0100
,
1000
0000
0000
0110
0000
0000
0011
0000
0100
0001
0000
0100
0001
0000
0010
0000
,
0100
0000
0000
1001
0000
0000
0110
0000
1000
0000
0001
0010
0001
0000
0100
0000
,
0010
0000
0000
0101
0000
0000
0011
0000
1000
0000
0100
0010
0100
0000
1000
0000
,
0001
0000
0000
1010
0000
0000
1100
0000
0100
0010
0000
0100
0010
0000
0001
1000
,
0001
0000
0000
0101
0000
0000
1100
0000
1000
0010
0000
1000
0010
0000
0100
0001
,
0100
0000
0000
0110
0000
0000
1010
0000
1000
0000
0001
0010
0001
0000
1000
0000
,
0100
0000
0000
0011
0000
0000
1100
0000
0010
1000
0010
1000
0010
0000
0100
0000
,
0001
0000
0000
0011
0000
0000
0011
0000
1000
0001
1000
0001
1000
0000
0100
0000
,
0020
0000
0000
0001
0000
0000
1000
0000
1030
0000
0000
0010
0100
0000
1000
0000
,
0001
0000
0000
0100
0000
0000
0020
0000
1000
0000
0000
1030
0001
0000
0100
0000
,
0002
0000
0000
0010
0000
0000
1000
0000
1003
0000
0000
0010
0100
0000
0001
0000
,
2000
0000
0000
0000
0000
0000
0000
0000
0000
0010
0000
0000
0000
0000
0000
0000
0000
0000
3010
0000
0000
0000
0000
0000
1000
0000
0000
0000
0001
0000
0000
0000
1000
0000
0000
0000
0001
0000
0000
0000
1000
0000
0000
0000
0001
0000
0000
0000
,
0200
0000
0000
0001
0000
0000
0010
0000
0010
0000
0000
0000
0301
1000
0001
0000
,
0010
0000
0000
0001
0000
0000
2000
0000
0000
0010
0000
0000
3100
1000
0000
0001
,
0200
0000
0000
0010
0000
0000
1000
0000
1300
0000
0100
0001
0100
0000
0010
0000
,
2000
0000
0000
0001
0000
0000
3001
0000
0010
0001
0010
0001
0010
0000
0100
0000
,
0020
0000
0000
0001
0000
0000
1000
0000
1030
0000
0000
0010
0001
0000
0100
0000
,
0010
0000
0000
1000
0000
0000
0002
0000
0100
0000
0000
1003
0010
0000
1000
0001
,
2000
0000
0000
0100
0000
0000
0100
0000
3100
0000
0000
0010
0001
0010
0001
0000
,
0200
0000
0000
0010
0000
0000
0310
0000
1000
0000
0001
0000
1000
0100
1000
0100
,
1000
0000
0000
1010
0000
0000
0101
0000
0001
0000
0100
0000
0010
1000
0000
1000
,
0001
0000
0000
0011
0000
0000
1100
0000
1000
0000
0001
0000
0100
0010
0100
0010
,
0100
0000
0000
1001
0000
0000
0110
0000
0001
0000
0000
0010
0100
0010
0100
0000
,
1000
0000
0000
1100
0000
0000
1001
0000
0010
0000
0000
0000
0001
1000
0001
2000
,
0002
0000
0000
0000
,
0000
3003
0000
0000
;

//---------------dance-double - ----------------
#NOTES:
     dance-double:
     :
     Easy:
     7:
     :
00000000
00000000
00000000
00000000
,
00000000
00000000
00000000
00000000
,
00000000
00000000
00000000
00000000
,
00000000
00000000
00000000
00000000
,
00000000
00000000
00000000
00000000
,
10010000
00010000
10000000
01000000
,
00100000
00010000
00000010
00000100
,
00000001
00000100
00001000
00000001
,
00000100
00000010
00001000
00100000
,
01100000
00010000
10000000
01000000
,
00100000
00010000
00001000
00000100
,
00000001
00000100
00001000
00000010
,
00001000
00100000
10000000
00010000
,
01100000
00000000
00000000
00000000
00000000
00000000
00000000
00010000
,
00001000
00000000
00000000
00000000
00000000
00000000
00000000
00000100
,
00000001
00000000
00000000
00000000
00000000
00000000
00000000
01000000
,
10000000
00000000
00000000
00011000
,
00011000
00000000
00000100
00000000
00000010
00000000
00000001
00000100
,
00000010
00000000
00001000
00000000
00010000
00000000
01000000
00100000
,
10000000
00000000
01000000
00000000
00010000
00000000
00001000
00000001
,
00000100
00001000
00010000
00011000
,
10010000
00000000
01000000
00000000
00100000
00000000
00010000
00001000
,
00000100
00000010
00000001
00000110
,
00011000
00010000
00100000
01100000
,
10000000
00010000
01000000
00001000
00010000
00000100
00001000
00000001
,
00000101
00000000
00000010
00000000
00001000
00000000
00010000
01000000
,
00010000
00000000
10000000
00000000
01000000
00000000
00010000
00001000
,
00010000
00000100
00000010
00001001
,
00011000
00100000
10000000
00011000
,
00000110
00000001
00000100
00011000
,
01100000
10000000
01000000
00011000
,
00000110
00000001
00000100
00011000
,
00011000
00100000
01000000
01100000
,
01100000
00010000
00001000
00000110
,
00001001
00001000
00010000
10010000
,
01010000
00000000
00001010
00000000
,
00000101
00000000
00011000
00011000
,
01100000
00000000
00000000
00000000
;

//---------------dance-double - ----------------
#NOTES:
     dance-double:
     :
     Medium:
     9:
     :
00000000
00000000
00000000
00000000
,
00000000
00000000
00000000
00000000
,
00000000
00000000
00000000
00000000
,
00000000
00000000
00000000
00000000
,
00000000
00000000
00000000
00000000
,
00011000
00000000
00000000
00000000
00010000
00100000
10000000
00100000
,
00010000
00000000
00000000
00000000
00001000
00010000
00000100
00000001
,
00000100
00000000
00000000
00000000
00001000
00000100
00010000
00001000
,
00100000
00000000
00000000
00000000
00010000
10000000
01100000
00000000
,
00011000
00000000
00000000
00000000
00000010
00000001
00000100
00001000
,
00010000
00000000
00000000
00000000
00010000
00100000
10000000
01000000
,
00010000
00000000
00000000
00000000
00001000
00000010
00000001
00000100
,
00001000
00000000
00000000
00000000
00100000
10000000
10010000
00000000
,
00011000
00000000
00000000
00000000
00000010
00001000
00000001
00000100
,
00001000
00000000
00000000
00000000
00010000
00100000
01000000
10000000
,
00010000
00000000
00000000
00000000
00010000
00000010
00000001
00001000
,
00000100
00000000
00000000
00000000
00001000
00010000
00011000
00000000
,
01100000
00000000
00000000
00000000
00100000
00010000
00001000
00010000
,
00000100
00000000
00000000
00000000
00000100
00010000
00001000
00010000
,
01000000
00000000
00000000
00000000
00010000
00001000
00000010
00000001
,
00000100
00000000
00000000
00000000
00010000
00001000
00011000
00000000
,
10010000
00000000
00000000
00000000
00100000
00010000
00001000
00000010
,
00000100
00000000
00000000
00000000
00001000
00000100
00000110
00000000
,
00011000
00010000
10000000
01100000
,
10000000
01000000
10000000
00010000
00100000
00001000
00010000
00000100
,
00000011
00000000
00000010
00001000
00000001
00000000
00001000
00000000
,
00010000
00000000
10000000
00010000
01000000
00000000
00010000
00000000
,
00001000
00000000
00000100
00001000
00000010
00000000
00001010
00000000
,
00011000
00000000
00100000
01000000
10000000
00000000
00011000
00000000
,
00000101
00000000
00000010
00001000
00000100
00000000
00011000
00000000
,
11000000
00000000
10000000
00010000
01000000
00000000
00011000
00000000
,
00000011
00000000
00000001
00000100
00000010
00000000
00011000
00000000
,
01010000
00000000
00100000
10000000
01000000
00000000
00110000
00000000
,
11000000
00000000
00010000
01000000
00001000
00000000
00011000
00000000
,
00001100
00000000
00000001
00000100
00000001
00000000
00001100
00000000
,
00011000
00100000
11000000
00010000
,
00011000
00000010
00000011
00001100
,
00011000
00000000
00000000
00000000
;

//---------------dance-double - ----------------
#NOTES:
     dance-double:
     :
     Hard:
     10:
     :
00000000
00000000
00000000
00000000
,
00000000
00000000
00000000
00000000
,
00000000
00000000
00000000
00000000
,
00000000
00000000
00000000
00000000
,
00000000
00000000
00000000
00000000
,
00100000
00000000
00000000
10000000
00000000
00000000
10000000
00000000
00000000
00000000
00000000
01000000
00100000
00000000
00001000
00000000
,
00001000
00000000
00000000
00010000
00000000
00000000
00010000
00000000
00000000
00000000
00000000
00000010
00000100
00000000
00000001
00000000
,
00000001
00000000
00000000
00001000
00000000
00000000
00001000
00000000
00000000
00000000
00000000
00000100
00000010
00000000
00000100
00000000
,
00000100
00000000
00000000
00010000
00000000
00000000
00010000
00000000
00000000
00000000
00000000
00001000
00100000
00000000
01000000
00000000
,
01000000
00000000
00000000
10000000
00000000
00000000
10000000
00000000
00010000
00000000
00000000
01000000
00100000
00000000
10000000
00000000
,
10000000
00000000
00000000
01000000
00000000
00000000
01000000
00000000
00100000
00000000
00000000
00001000
00010000
00000000
00000100
00000000
,
00000100
00000000
00000000
00000010
00000000
00000000
00000010
00000000
00000001
00000000
00000000
00001000
00000010
00000000
00000100
00000000
,
00000100
00000000
00000000
00000001
00000000
00000000
00000001
00000000
00001000
00000000
00000000
00000010
00010000
00000000
00000100
00000000
,
00000100
00000000
00000000
00001000
00000000
00000000
00010000
00000000
01000000
00000000
00000000
10000000
00100000
00000000
01000000
00000000
,
00010000
00000000
00000000
00100000
00000000
00000000
01000000
00000000
10000000
00000000
00000000
00100000
10000000
00000000
00010000
00000000
,
01000000
00000000
00000000
00001000
00000000
00000000
00000010
00000000
00000001
00000000
00000000
00001000
00000010
00000000
00000100
00000000
,
00000001
00000000
00000000
00000010
00000000
00000000
00000100
00000000
00001000
00000000
00000000
00000010
00010000
00000000
00001000
00000000
,
00100000
00000000
00000000
00010000
00000000
00000000
01000000
00000000
00001000
00000000
00000000
00010000
00001000
00000000
01000000
00000000
,
01000000
00000000
00000000
00100000
00000000
00000000
10000000
00000000
00010000
00000000
00000000
00100000
00010000
00000000
00000100
00000000
,
00000100
00000000
00000000
00000010
00000000
00000000
00001000
00000000
00000001
00000000
00000000
00000010
00000001
00000000
00001000
00000000
,
00001000
00000000
00000000
00000010
00000000
00000000
00010000
00000000
00000100
00000000
00000000
00000010
00000001
00000000
00001000
00000000
,
00000020
00000000
00000000
00000100
00000000
00000000
00000100
00000000
00000000
00000000
00000000
00000000
00000000
00000000
00001000
00000000
,
00001030
00000000
00000000
00000100
00000000
00000000
00020000
00000000
00000000
00000000
00000000
00000000
00031000
00000000
00000000
00000000
,
00011000
00000000
00000000
00100000
00000000
00000000
01000000
00000000
01100000
00000000
00000000
10000000
00000000
00000000
00010000
00000000
,
01010000
00000000
00000000
11000000
00000000
00000000
01010000
00000000
10000000
00000000
00100000
00000000
01000000
00000000
00010000
00000000
,
00000010
00000000
00000000
00000001
00001000
00000000
00000010
00000000
00000100
00000000
00000000
00000000
00000110
00000000
00000000
00000000
,
00001001
00000000
00000000
00000001
00000010
00000000
00000100
00000000
00001000
00000000
00000000
00000000
00001100
00000000
00000000
00000000
,
00101000
00000000
00000000
00001000
01000000
00000000
00100000
00000000
10000000
00000000
00000000
00000000
11000000
00000000
00000000
00000000
,
00110000
00000000
00000000
01000000
00010000
00000000
10000000
00000000
01000000
00000000
00000000
00000000
10100000
00000000
00000000
00000000
,
20000000
00000000
00000000
00010000
00000000
00000000
01000000
00000000
31000000
00000000
00000000
00100000
00010000
00000000
00001000
00000000
,
00000200
00000000
00000000
00000001
00000000
00000000
00000010
00000000
00000310
00000000
00000000
00001000
00000001
00000000
00000010
00000000
,
00000002
00000000
00000000
00000010
00000000
00000000
00001000
00000000
00001003
00000000
00000000
00000100
00010000
00000000
00000010
00000000
,
00002000
00000000
00000000
00100000
00000000
00000000
00000100
00000000
00003100
00000000
00010000
00000000
01000000
00000000
10000000
00000000
,
00100000
00000000
00000000
01000000
00010000
00000000
00100000
00000000
01000000
00000000
00000000
10000000
00010000
00000000
00100000
00000000
,
00001000
00000000
00000000
00010000
00000010
00000000
00000100
00000000
00000001
00000000
00000000
00001000
00000100
00000000
00000010
00000000
,
00000001
00000000
00000000
00000100
00000010
00000000
00001000
00000000
00000100
00000000
00000000
00000010
00000100
00000000
00001000
00000000
,
01000000
00000000
00000000
00100000
01000000
00000000
10000000
00000000
00010000
00000000
01000000
00000000
00100000
00000000
10000000
00020000
,
20000000
00000000
00000000
00000000
,
00000000
30030000
00000000
00000000
;

//---------------dance-double - ----------------
#NOTES:
     dance-double:
     :
     Challenge:
     12:
     :
00000000
00000000
00000000
00000000
,
00000000
00000000
00000000
00000000
,
00000000
00000000
00000000
00000000
,
00000000
00000000
00000000
00000000
,
00000000
00000000
00000000
00000000
,
00000010
00000000
00000000
00000110
00000000
00000000
00000110
00000000
00000001
00000000
00000000
00001000
00000010
00000000
00000100
00000000
,
00000001
00000000
00000000
00000011
00000000
00000000
00000011
00000000
00000100
00000000
00000000
00010000
00001000
00000000
01000000
00000000
,
00100000
00000000
00000000
10100000
00000000
00000000
10100000
00000000
01000000
00000000
00000000
00010000
10000000
00000000
01000000
00000000
,
00100000
00000000
00000000
00101000
00000000
00000000
00101000
00000000
01000000
00000000
00000000
00010000
10000000
00000000
01000000
00100000
,
01000000
00000000
00000000
11000000
00000000
00000000
11000000
00000000
00100000
00000000
00000000
00001000
00010000
00000000
00000010
00000100
,
00000010
00000000
00000000
00010010
00000000
00000000
00010010
00000000
00000100
00000000
00000000
00000010
00000001
00000000
00001000
00000100
,
00001000
00000000
00000000
00001001
00000000
00000000
00001001
00000000
00000010
00000000
00000000
00000100
00000001
00000000
00001000
00000100
,
00001000
00000000
00000000
00001010
00000000
00000000
00001010
00000000
00010000
00000000
00000000
00001000
00100000
00000000
00010000
01000000
,
00010000
00000000
00000000
00110000
00000000
00000000
11000000
00000000
00100000
01000000
00000000
00100000
01000000
00000000
00010000
00000000
,
10000000
00000000
00000000
10100000
00000000
00000000
01010000
00000000
00100000
00000000
00010000
10000000
00010000
00000000
01000000
00000000
,
01000000
00000000
00000000
01001000
00000000
00000000
00011000
00000000
00010000
00000000
00000100
00000010
00000100
00000000
00001000
00000000
,
00000001
00000000
00000000
00000101
00000000
00000000
00001010
00000000
00000100
00000000
00001000
00000100
00001000
00000000
00000001
00000000
,
00000001
00000000
00000000
00001010
00000000
00000000
00010100
00000000
00010000
00001000
00010000
00001000
00010000
00000000
01000000
00000000
,
10000000
00000000
00000000
00101000
00000000
00000000
01100000
00000000
00010000
01000000
00010000
01000000
00010000
00000000
00100000
00000000
,
00100000
00000000
00000000
10010000
00000000
00000000
11000000
00000000
00100000
00001000
00000000
00001000
00010000
00000000
00000010
00000000
,
00000100
00000000
00000000
00000110
00000000
00000000
00001001
00000000
00000010
00000001
00000000
00000001
00000100
00000000
00000010
00001000
,
00000020
00000000
00000000
00000001
00000000
00000000
00000100
00000000
00000130
00000000
00000000
00000010
00001000
00000000
00010000
00000000
,
02000000
00000000
00000000
00100000
00000000
00000000
10000000
00000000
13000000
00000000
00000000
00100000
01000000
00000000
00010000
00000000
,
00200000
00000000
00000000
00010000
00000000
00000000
10000000
00000000
10300000
00000000
00000000
00100000
00001000
00000000
00010000
00000000
,
00000100
00000000
00000000
00000000
00000000
00000000
00000000
00000000
00000000
00000110
00000000
00000000
00000000
00000000
00000000
00000000
00000000
00000000
00000110
00000000
00000000
00000000
00000000
00000000
00000001
00000000
00000000
00000000
00001000
00000000
00000000
00000000
00000001
00000000
00000000
00000000
00001000
00000000
00000000
00000000
00000001
00000000
00000000
00000000
00001000
00000000
00000000
00000000
,
00000100
00000000
00000000
00000010
00001000
00000000
00010000
00000000
00100000
00000000
10000000
01000000
10000000
00000000
00010000
00000000
,
00010000
00000000
00000000
10000000
01000000
00000000
00100000
00000000
00010000
00000000
01000000
00001000
01000000
00000000
00100000
00000000
,
00100000
00000000
00000000
10000000
01000000
00000000
00100000
00000000
00001000
00000000
00010000
00000010
00010000
00000000
00000100
00000000
,
00000100
00000000
00000000
00000010
00000001
00000000
00000100
00000000
00000010
00001000
00000010
00001000
00000010
00000000
00010000
00000000
,
00000100
00000000
00000010
00000001
00000000
00000010
00000001
00000000
00001001
00000000
00000000
00000010
00001000
00000000
00010000
00000000
,
01000000
00000000
00100000
00010000
00000000
00100000
00010000
00000000
01010000
00000000
00000000
10000000
00010000
00000000
01000000
00000000
,
00100000
00000000
10000000
01000000
00000000
10000000
01000000
00000000
01100000
00000000
00000000
00001000
00010000
00000000
01000000
00000000
,
00100000
00000000
00001000
00010000
00000000
00001000
00010000
00000000
00000010
00000000
00000100
00000001
00000100
00000001
00000100
00000000
,
00000010
00000000
00000000
00001010
00000000
00000000
00010100
00000000
00001000
00000000
01000000
00010000
01000000
00010000
01000000
00000000
,
00100000
00000000
00000000
01100000
00000000
00000000
01010000
00000000
10000000
01000000
10000000
01000000
10000000
00000000
00010000
00000000
,
00100000
00000000
00000000
00110000
00000000
00000000
10010000
00000000
01000000
10000000
00000000
10000000
00100000
00000000
01000000
00000000
,
01100000
00000000
00000000
01000000
00001000
00000000
00010000
00000000
00000100
00000010
00000000
00000010
00000001
00000000
00001000
00000001
,
00002000
00000000
00000000
00000000
,
00000000
00003000
00000000
00000000
;
