#TITLE:Into The Madness;
#ARTIST:Yuta Imai;
#BANNER:Into The Madness-bn.png;
#BACKGROUND:Into The Madness-bg.png;
#JACKET:Into The Madness-jacket.png;
#MUSIC:Into The Madness.ogg;
#OFFSET:0.333;
#SAMPLESTART:87.925;
#SAMPLELENGTH:20;
#DISPLAYBPM:155;
#BPMS:0=155;
#BGCHANGES:;

//---------------dance-single - ----------------
#NOTES:
     dance-single:
     :
     Beginner:
     5:
     :
0000
0000
0000
0000
,
0000
0000
0000
0000
,
0000
0000
0000
0000
,
0000
0000
0000
0000
,
0000
0000
0000
0000
,
0001
0000
1000
0000
,
0001
0000
1000
0000
,
0100
0000
0010
0000
,
0001
0001
0001
0000
,
1001
0000
0000
1000
,
1000
1000
1000
1000
,
0000
0000
0000
0010
,
0010
0010
0010
0010
,
0010
0000
1000
0000
,
0001
0000
1000
0000
,
0020
0000
0030
0000
,
0100
0100
0100
0000
,
0110
0000
0001
0000
,
1000
0000
0100
0000
,
1000
0000
0010
0000
,
0100
0100
0100
0000
,
1001
0000
0100
0000
,
1001
0000
0010
0000
,
0110
0000
0110
0000
,
0001
0001
0001
0000
,
1000
0000
0001
0000
,
1000
1000
1000
0000
,
0010
0000
0100
0000
,
0010
0010
0010
0000
,
1001
0000
0110
0000
,
0001
0001
0001
0001
,
0001
0000
0100
0000
,
1000
1000
1000
0000
,
1001
0000
0000
0000
,
0000
0000
0000
0000
,
0000
0000
0000
0000
,
0000
0000
0110
0000
,
0010
0000
1000
0000
,
0001
0000
0100
0000
,
0010
0000
1000
0000
,
0001
0000
0100
0000
,
1001
0000
0000
0000
,
1000
0000
1000
0000
,
0001
0000
0001
0000
,
1000
0000
0100
0000
,
1001
0000
0000
0000
,
0110
0000
0000
0000
,
0110
0000
1001
0000
,
0110
0000
0001
0000
,
0001
0000
1000
0000
,
0010
0000
1000
0000
,
0100
0000
0010
0000
,
0001
0000
0100
0000
,
0110
0000
0010
0000
,
1001
0000
1000
0000
,
0010
0010
0010
0010
,
0010
0000
0000
0100
,
0100
0000
0001
0000
,
1000
0000
0100
0000
,
1000
0000
0001
0000
,
0100
0100
0100
0000
,
1001
0000
0110
0000
,
0001
0001
0001
0000
,
1000
0000
0100
0000
,
1000
1000
1000
0000
,
1001
0000
0000
0000
,
0020
0000
0030
0000
,
0100
0100
0100
0100
,
0100
0100
0100
0000
,
0001
0001
0001
0001
,
0001
0001
0001
0000
,
1000
0000
0010
0000
,
0100
0000
0000
0000
,
0110
0000
0000
0000
;

//---------------dance-single - ----------------
#NOTES:
     dance-single:
     :
     Easy:
     9:
     :
0000
0000
0000
0000
,
0000
0000
0000
0000
,
0000
0000
0000
0000
,
0000
0000
0000
0000
,
0000
0000
0000
0000
,
0001
0100
0010
1000
,
0100
0010
0001
1000
,
0020
0000
0200
0030
,
0301
0000
1000
0001
0000
1000
0001
0000
0000
0110
0000
0000
,
1001
0000
0000
1000
0000
0000
0010
0000
0000
0100
0001
0100
,
0001
0001
1000
0100
,
0010
0000
0000
0001
0000
0000
1000
0000
0000
0010
0100
0010
,
0100
0100
0001
1000
,
1200
1300
0201
0301
,
0012
0000
0000
0013
0000
0000
2010
0000
0000
3010
0000
1000
,
0001
1000
0100
0010
,
0001
0000
1000
0001
0000
1000
0001
0000
0000
0110
0000
0000
,
1001
0010
1000
0100
,
1000
0001
0010
0010
,
0011
0001
0100
0100
,
0010
1000
0001
1000
,
1100
0010
0100
0001
,
0101
0010
1000
0100
,
1001
0010
1001
0100
,
0001
0000
1000
0001
0000
1000
0001
0000
0000
0110
0000
0000
,
0002
0013
0200
1300
,
0010
0000
0010
0100
0000
0100
0010
0000
0010
0200
0000
0000
,
0301
0010
0001
1000
,
0100
0000
1000
0100
0000
1000
0200
0000
0000
0300
0000
0000
,
1001
0001
1000
0100
,
1000
0000
1000
0001
0000
0001
1000
0000
1000
0002
0000
0000
,
0023
0031
0100
1000
,
0001
0000
1000
0001
0000
1000
0002
0000
0000
0003
0000
0000
,
1010
0000
0000
0000
,
0000
0000
0000
0000
,
0000
0000
0000
0000
,
0000
0000
0000
0000
0000
0000
1000
0001
1000
0002
0000
0000
,
0023
0031
0002
0103
,
0200
1300
2000
3010
,
0020
0031
0200
1300
,
0010
0100
0020
0030
,
1001
0001
0001
0001
,
0001
0000
0000
0001
0000
0000
0001
0000
0000
0001
0000
1000
,
0100
0100
0100
0100
,
0100
0000
0000
0100
0000
1000
0010
0000
1000
0010
0000
1000
,
0001
0101
1000
1100
,
0010
0000
0000
1010
0000
0000
0100
0000
0000
0101
0000
0001
,
2000
0000
0000
3000
0000
0001
2000
0000
0000
3000
0000
0001
,
2000
3000
0110
1001
,
0110
0010
0001
0100
,
0010
1000
0100
1000
,
0001
0010
1000
0100
,
0010
0000
0000
0100
0000
0000
1000
0000
0000
0010
0000
0100
,
0002
0013
0020
0130
,
0200
1300
2000
3001
,
1010
0101
1010
0101
,
0011
0000
0001
1000
0000
0001
1000
0000
0001
2000
0000
0000
,
3010
0100
0001
0010
,
0100
0000
0000
1000
0000
0000
0001
0000
0000
1000
0010
1000
,
0010
0100
0010
1000
,
0100
0000
0000
1000
0000
1000
0001
0000
0000
0010
0000
0001
,
0100
0010
1000
0100
,
1000
0001
0010
0010
,
0001
0100
0010
1000
,
0001
0000
0100
0001
0000
0100
0001
0000
0100
0001
0000
0000
,
1010
0000
0000
0000
,
0002
0000
1000
0103
,
1000
0010
0100
0001
,
0010
0000
0000
0010
0000
0001
1000
0000
0000
1100
0000
0000
,
0010
0100
0010
0100
0000
0000
1001
0000
0000
0001
1000
0001
,
1000
0000
0000
0100
0000
0100
0010
0000
0000
0001
0000
0001
,
0100
0000
0010
1000
0000
0010
1000
0000
0001
0010
0000
0000
,
0011
0001
1000
0001
,
0101
0000
0000
0000
;

//---------------dance-single - ----------------
#NOTES:
     dance-single:
     :
     Medium:
     12:
     :
0000
0000
0000
0000
,
0000
0000
0000
0000
,
0000
0000
0000
0000
,
0000
0000
0000
0000
,
0000
0000
0000
0000
,
0001
0000
0000
0100
0000
0100
0010
0000
0000
1000
0000
1000
,
0100
0000
0000
1000
0000
1000
0001
0000
0000
0100
0000
0100
,
0020
0000
0200
0030
,
0301
0000
1000
0001
0000
1000
0001
0000
0100
0010
0000
0000
,
1010
0000
0000
0001
0000
0000
1000
0000
0000
0010
1000
0010
,
2000
0000
0000
3001
0000
0000
0011
0000
0000
1100
0000
1000
,
0001
0000
0000
0010
0000
0000
0001
0000
0000
0100
0010
0100
,
0020
0000
0000
1030
0000
0000
0101
0000
0000
0001
0010
0001
,
0020
0000
0000
0031
0000
0000
2000
0000
0000
3001
0100
0001
,
0200
0000
0000
0310
0000
0000
1000
0100
1000
0100
0000
1000
,
0001
0000
0100
0010
0000
0100
0010
0000
0100
0010
0000
0100
,
0001
0000
1000
0001
0000
1000
0001
0000
0100
0010
0000
0000
,
0110
0000
0000
1000
0000
1000
0001
0100
0001
0100
0000
0000
,
0010
0000
0010
1000
0000
1000
0100
0010
0100
0010
0000
0000
,
1001
0000
0001
0100
0000
0100
0010
1000
0010
1000
0000
0100
,
1000
0000
1000
0001
0000
0001
0100
0000
0100
0010
0000
0010
,
2000
0000
0000
3100
0000
0100
0010
0001
0010
0001
0000
0000
,
0002
0000
0000
1003
0000
0010
1000
0100
1000
0100
0000
1000
,
0001
0000
0010
0001
0000
1000
0010
0000
1000
0100
0000
1000
,
0001
1000
0001
1000
0001
1000
0100
0000
1000
0020
0000
0000
,
0130
0001
0100
0001
0000
0000
1000
0100
1000
0100
0000
0000
,
0001
0000
0001
1000
0000
1000
0001
0000
1000
0002
0000
0000
,
0103
0000
0001
0010
0000
0010
0001
1000
0001
1000
0000
0010
,
0100
0000
0001
1000
0000
0001
2000
0000
0000
3010
0000
0000
,
1000
0100
1000
0100
0000
0000
0010
0001
0010
0001
0000
0000
,
0100
0000
0100
0010
0000
0010
0100
0000
0100
0020
0000
0000
,
1030
0000
0100
1000
0000
0001
0100
0010
0100
0010
0000
0000
,
1000
0001
1000
0001
1000
0001
0200
0000
0000
0300
0000
0000
,
1010
0000
0000
0000
,
0000
0000
0000
0000
,
0000
0000
0000
0000
,
0000
0000
0000
0000
0000
0000
1000
0001
1000
0002
0000
0000
,
0013
0000
0010
0000
0010
0000
0001
0000
0001
0000
0001
0000
,
1000
0000
1000
0000
1000
0000
0100
0000
0100
0000
0100
0000
,
1000
0000
0010
0000
1000
0000
0001
0000
0010
0000
0001
0000
,
0100
0000
0100
0000
0100
0000
0200
0000
0000
0300
0000
0000
,
1001
0000
0001
1000
0000
0000
1000
0000
0000
1000
0000
0000
,
0010
1000
0010
1000
0000
0000
0010
1000
0010
1000
0000
1000
,
0100
0100
0100
0100
,
0100
0000
0000
0100
0000
1000
0001
0000
1000
0001
0000
0000
,
0020
0001
1000
0031
,
0201
0000
0000
1000
0000
0000
0001
0000
0000
0310
0000
0100
,
0010
1000
0010
1000
0000
0000
0001
0010
0001
0010
0000
0000
,
2200
0300
0001
3001
,
1001
0000
0001
1000
0000
1000
0010
0000
1000
0010
0000
0100
,
0001
0000
0010
0001
0000
1000
0001
0000
0001
1000
0000
1000
,
0100
0000
0000
1000
0000
0010
1000
0000
0010
1000
0000
0001
,
1000
0000
0010
0100
0000
0001
1000
0000
0010
0100
0000
0001
,
0010
0000
0000
0001
0100
0010
1000
0000
0000
0110
0000
0000
,
1010
0000
0000
1000
0100
0010
0001
0000
0000
0011
0000
0000
,
1000
0000
1000
0001
0000
0001
0100
0000
0100
0010
0000
0010
,
1000
0000
0100
1000
0000
0100
1000
0000
0100
2000
0000
0000
,
3010
0000
0000
0010
1000
0001
1000
0000
0000
0001
0100
0010
,
0100
0000
0000
0001
0000
1000
0100
0000
0000
0010
0100
0010
,
0100
1100
0110
0011
,
1001
0000
0000
0110
0000
0001
1000
0000
0000
0110
0000
0010
,
0100
0000
0000
0001
0000
0010
0001
0000
1000
0001
0000
0010
,
0100
1100
1010
0101
,
0012
0000
0000
1003
0000
0010
0200
0000
0000
0301
0000
1000
,
0100
0000
0100
0010
0000
0010
0001
1000
0001
0100
0000
0000
,
0110
0000
0000
0000
,
2020
0000
0000
3000
0000
0000
1030
0001
1000
0001
1000
0001
,
0010
0000
0000
0001
1000
0001
0100
0000
0000
0010
1000
0010
,
0100
0000
0000
0001
0000
1000
0002
0000
0000
0013
0000
0000
,
0001
0100
0010
1000
0000
0000
0100
0000
0000
1000
0010
0100
,
0001
0000
0000
0010
0000
0010
0001
0000
0001
1000
0001
0100
,
0010
0000
1000
0100
1000
0100
1000
0000
0001
0100
0000
0000
,
1001
0000
0001
1000
0000
1000
0001
0000
0001
0100
0000
0000
,
0101
0000
0000
0000
;

//---------------dance-single - ----------------
#NOTES:
     dance-single:
     :
     Hard:
     16:
     :
0000
0000
0000
0000
,
0000
0000
0000
0000
,
0000
0000
0000
0000
,
0000
0000
0000
0000
,
0000
0000
0000
0000
,
0001
0000
0001
1000
0100
1000
0010
0100
0010
0100
0001
1000
,
0002
0000
0000
0013
0100
1000
0020
0000
0000
1030
0001
1000
,
0200
0000
0020
0300
,
0031
0000
1000
0001
0000
1000
0001
0100
0010
1000
0000
0000
,
0010
0000
0010
1000
0000
1000
0100
0000
0100
1000
0010
0100
,
0001
0000
0001
0010
0000
0010
0100
0000
0100
1000
0000
1000
,
0010
0000
0010
1000
0000
1000
0001
0000
0001
0010
0001
1000
,
0010
0000
0010
1000
0100
1000
0001
0010
0100
1000
0001
1000
,
0001
0000
0100
0010
1000
0010
0100
0000
0010
1000
0001
1000
,
0100
0000
0100
1000
0000
1000
0001
0000
0001
0100
0010
1000
,
0100
1000
0001
0100
0001
1000
0100
1000
0001
0100
0001
1000
,
0010
0000
0100
0010
0000
0100
0010
1000
0001
0100
0000
0000
,
0001
0010
0001
0010
0100
1000
0010
0100
0010
0200
0000
0000
,
0310
0000
0010
1000
0100
1000
0100
0010
0001
1000
0100
1000
,
0100
0000
1000
0001
0010
0001
0100
0010
1000
0001
0000
0001
,
1000
0100
1000
0001
0100
0001
1000
0010
1000
0001
0010
0001
,
0200
0000
0000
0301
0010
0100
1000
0010
1000
0001
0000
0000
,
0021
0000
0000
0130
1000
0001
0010
0001
1000
0100
0000
0100
,
1000
0010
1000
0001
0010
0001
1000
0100
1000
0001
0100
0001
,
1000
0100
0010
0001
0010
0100
1000
0001
1000
0002
0000
0000
,
0013
0001
0100
0020
0000
0000
1030
0001
1000
0100
0010
0001
,
0100
0000
0010
1000
0000
0010
1000
0000
0010
1000
0001
0010
,
0100
0000
0100
1000
0010
0100
0010
1000
0001
0010
0000
0010
,
0001
0000
1000
0001
0000
1000
0002
0000
0000
0013
0000
0000
,
0001
0100
0010
1000
0000
0100
1000
0010
1000
0100
0010
0001
,
0100
0000
0010
1000
0000
0010
1000
0000
0010
1000
0000
1000
,
0001
0010
0001
0010
0100
0010
0100
1000
0100
1000
0001
1000
,
0001
0010
0100
1000
0100
0010
0002
0000
0000
0103
0000
0000
,
1010
0000
0000
0000
,
0000
0000
0000
0000
,
0000
0000
0000
0000
,
0000
0000
0000
0000
0000
0000
1000
0001
1000
0002
0000
0000
,
0013
0000
0001
0000
0100
0000
0010
0000
1000
0000
0100
0000
,
1000
0000
0010
0000
0100
0000
0001
0000
0010
0000
0100
0000
,
1000
0000
0001
0000
1000
0000
0010
0000
1000
0000
0100
0000
,
0010
0000
0010
0000
0010
0000
0020
0000
0000
0030
0000
0000
,
1001
0000
0001
1000
0000
1000
0001
0100
0001
1000
0010
0100
,
0001
0010
0100
1000
0000
0010
1000
0100
0010
0001
0000
0100
,
0001
0000
0000
0010
0001
1000
0001
0000
0000
0100
0010
1000
,
0100
0000
0100
1000
0010
0100
0001
0010
0001
1000
0001
0100
,
0020
1000
0001
1030
,
0201
0000
0000
0001
0000
0000
0310
1000
0010
1000
0010
1000
,
0100
1000
0001
0100
0000
0100
0001
0010
0100
1000
0010
1000
,
0002
0003
1100
0101
,
1001
0000
0010
1000
0001
0010
0001
0100
0010
1000
0100
1000
,
0001
0010
0001
1000
0000
1000
0001
0010
0001
1000
0000
1000
,
0100
0000
0100
1000
0010
0100
0001
0010
0001
0010
0001
1000
,
0010
0100
0001
1000
0000
1000
0010
1000
0001
0100
0000
0010
,
1000
0100
1000
0010
0000
0100
0001
0010
0100
1000
0000
0001
,
0010
0100
0010
0100
0000
1000
0010
0100
0001
0010
0000
0001
,
1000
0100
0010
0001
0010
0100
1000
0100
0010
0001
0010
0100
,
1000
0000
0010
1000
0001
0100
0001
0010
0100
1000
0000
0000
,
0010
1000
0001
1000
0010
0100
0001
0000
0010
0001
1000
0100
,
1000
0010
0100
0001
0010
0100
1000
0000
0000
0010
0100
0010
,
0100
0000
0100
0001
0010
0001
1000
0000
0100
1000
0010
0100
,
0001
0010
0100
0010
0001
1000
0010
0000
0000
0110
0000
0001
,
1000
0100
0010
0001
0000
0100
0010
0100
0001
1000
0100
0010
,
0001
1000
0001
0100
0010
0100
0001
1000
0001
0100
0010
0100
,
0001
0000
0010
0001
1000
0010
0100
0000
0000
0010
1000
0100
,
0010
0000
0010
0001
0000
1000
0001
0100
0010
1000
0000
0000
,
1010
0000
0000
0000
,
0022
0000
0000
0030
0000
0000
1003
0001
0100
0001
1000
0100
,
0010
0000
0000
0010
0001
1000
0010
0000
0000
1000
0100
1000
,
0001
0010
0000
0001
0000
1000
0010
0100
0010
1000
0001
0100
,
0010
1000
0001
0100
0000
0000
1001
0000
0000
1000
0010
0100
,
0001
0000
0000
1100
0000
0100
1000
0000
0010
1000
0001
1000
,
0100
0000
1000
0010
0100
0001
0010
0000
0001
1000
0000
0000
,
1010
0000
0000
0001
0010
0100
1000
0010
0100
0001
0000
0000
,
0101
0000
0000
0000
;
