#TITLE:Insaner (L.E.D.'s Punishment Mix);
#ARTIST:Jondi & Spesh;
#BANNER:Insaner (L.E.D.'s Punishment Mix)-bn.png;
#BACKGROUND:Insaner (L.E.D.'s Punishment Mix)-bg.png;
#JACKET:Insaner (L.E.D.'s Punishment Mix)-jacket.png;
#MUSIC:Insaner (L.E.D.'s Punishment Mix).ogg;
#SAMPLESTART:55.749;
#SAMPLELENGTH:20;
#DISPLAYBPM:77:350;
#BPMS:0=155.001,144=164.384,148=165.043,212=77.253,216=82.192,220=349.939,316=177.165;
#BGCHANGES:;

//---------------dance-single - ----------------
#NOTES:
     dance-single:
     :
     Beginner:
     5:
     :
0000
0000
0000
0000
,
0000
0000
0000
0000
,
0000
0000
0000
0000
,
0000
0000
0000
0000
,
0000
0000
0000
0000
,
1001
0000
0000
0000
,
0001
0000
0000
0000
,
1001
0000
0000
0000
,
1000
0000
0000
0000
,
1001
0000
0000
0000
,
0001
0000
0000
0000
,
1001
0000
0001
0000
,
1000
0000
1000
1000
,
1000
0000
0000
0000
,
0000
0000
0000
0000
,
0010
0000
0000
0000
,
0100
0000
0000
0000
,
1000
1000
1000
0000
,
0001
0001
0001
0000
,
1000
1000
1000
0000
,
1001
0000
0000
0000
,
1000
1000
1000
1000
,
1000
0000
0000
0000
,
0001
0001
0001
0001
,
0001
0000
0000
0000
,
0010
0010
0010
0010
,
0010
0000
0000
0000
,
0100
0100
0100
0100
,
0100
0000
0000
0000
,
1000
0000
0001
0000
,
1001
0000
0000
0000
,
1000
0000
1000
0000
,
0001
0001
0001
0001
,
0001
0000
0000
0000
,
0100
0000
0000
0000
,
0010
0000
0010
0000
,
2000
0000
0000
3000
,
1000
0000
1000
0000
,
1000
0000
1000
0000
,
0001
0000
0001
0000
,
0001
0000
0001
0000
,
1001
0000
1001
0000
,
1001
0000
1001
0000
,
0001
0000
1000
0000
,
0002
0000
0000
0003
,
0001
0000
0010
0000
,
0110
0000
0100
0000
,
0110
0000
0010
0000
,
0110
0000
0100
0000
,
1000
0000
1000
0000
,
0001
0000
0001
0000
,
1000
0000
1000
0000
,
0001
0001
0001
0001
,
0001
0001
1000
1000
,
0010
0020
0000
0030
,
0100
0000
0100
0000
,
0100
0000
0000
0000
,
1000
0000
1000
0000
,
1000
0000
0000
0000
,
0001
0000
0001
0000
,
0001
0000
0000
0000
,
1000
0000
1000
0000
,
1000
0000
0000
0000
,
0010
0000
0010
0000
,
0010
0000
0000
0000
,
0100
0000
0100
0000
,
0100
0000
0000
0000
,
0001
0000
0001
0000
,
0001
0000
0000
0000
,
1000
0000
1000
0000
,
1000
0000
0000
0000
,
0100
0000
0100
0000
,
0100
0000
0000
0000
,
0010
0000
0010
0000
,
0010
0000
0000
0000
,
0001
0000
0001
0000
,
0001
0000
0000
0000
,
1000
0000
1000
0000
,
1000
0000
1000
0000
,
1000
0000
0000
0000
;

//---------------dance-single - ----------------
#NOTES:
     dance-single:
     :
     Easy:
     7:
     :
0000
0000
0000
0000
,
0000
0000
0000
0000
,
0000
0000
0000
0000
,
0000
0000
0000
0000
,
0000
0000
0000
0000
,
0010
1000
0100
1000
,
0001
0000
0110
0000
,
0010
0001
0100
0001
,
1000
0000
0110
0000
,
0010
1000
0010
0100
,
0001
0000
1001
0000
,
0010
0001
0100
1000
,
0110
0000
1001
0000
,
0210
0000
0000
0000
,
0000
0000
0300
0000
,
1002
0000
0000
0003
,
2000
0000
0000
3000
,
0001
1000
0100
1000
,
0001
0001
0010
0001
,
1000
1000
0100
0010
,
0002
0000
0000
0003
,
0100
0001
0100
1000
,
0100
0001
0100
1000
,
0010
0001
0010
1000
,
0010
0001
0010
1000
,
0001
0010
0001
0100
,
0001
0010
0001
0100
,
1000
0010
1000
0100
,
1000
0010
1000
0100
,
1001
0000
0010
1000
,
1001
0000
0100
0001
,
1001
0000
0110
0000
,
0100
0010
0001
1000
,
1001
0000
0001
0000
,
0011
0000
1000
0000
,
1100
0000
0001
0000
,
0101
0000
0000
0000
,
0010
1000
0010
1010
,
1000
0100
1000
1100
,
0100
0010
0100
0110
,
0010
0001
0010
0011
,
0001
0100
0001
0101
,
0101
0000
1100
1000
,
1100
0000
0011
0000
,
2002
0000
0000
3003
,
0010
0001
0010
0011
,
0001
0100
0001
0101
,
0100
0010
0100
0110
,
0010
1000
0010
1010
,
1000
0001
1000
1001
,
0001
0100
0010
0110
,
0100
0010
0100
0010
,
0001
1000
0001
1000
,
2000
3010
0002
0103
,
2000
3010
0002
0003
,
0010
0000
0010
0000
,
0001
0010
0001
0000
,
1000
0000
1000
0000
,
0010
1000
0010
0000
,
1000
0000
1000
0000
,
0100
1000
0100
0000
,
0010
0000
0010
0000
,
0001
0010
0001
0000
,
0100
0000
0100
0000
,
0001
0100
0001
0000
,
1000
0000
1000
0000
,
0100
1000
0100
0000
,
0010
0000
0010
0000
,
0100
0010
0100
0000
,
1000
0000
1000
0000
,
0001
1000
0001
0000
,
0100
0000
0010
0000
,
0100
0000
0010
0000
,
1000
0000
0001
0000
,
1000
0000
0001
0000
,
0010
0000
0001
0000
,
0010
0000
0001
0000
,
1000
0000
0010
0000
,
1000
0000
0010
0000
,
1001
0000
0000
0000
;

//---------------dance-single - ----------------
#NOTES:
     dance-single:
     :
     Medium:
     10:
     :
0000
0000
0000
0000
,
0000
0000
0000
0000
,
0000
0000
0000
0000
,
0000
0000
0000
0000
,
0000
0000
0000
0000
,
0001
1000
0010
1000
0000
0100
0000
1000
,
0000
0001
0000
0011
0000
0011
0000
0010
,
0000
0100
0000
1000
0000
0010
0000
1000
,
0000
0001
0000
1010
0000
1010
0000
0010
,
1000
0001
0100
0001
0000
0010
0000
0001
,
0000
1000
0000
1100
0000
1100
0000
0100
,
0000
0010
0000
0001
0000
0010
0000
0001
,
0000
1000
0000
0101
0000
0101
0000
0001
,
1000
0100
0010
0000
0010
0100
0000
0100
,
1000
0000
1000
0010
0000
0010
0100
0000
,
0001
0010
0100
0000
0100
0010
0000
0010
,
0001
0000
0001
0100
0000
0100
0010
0000
,
1000
0001
0100
0000
0010
1000
0100
0000
,
1000
0001
1000
0001
1000
0010
0100
0000
,
0001
1000
0010
0000
0100
0001
0010
0000
,
0002
2003
3002
0013
,
0001
0100
0010
1000
0001
0100
0010
0000
,
1010
1100
1010
1001
,
1000
0100
0010
0001
1000
0100
0010
0000
,
0011
0101
0011
1001
,
1000
0010
0100
0010
0000
1000
0000
0010
,
0000
1000
0000
0110
0000
0110
0000
1000
,
0001
0010
0100
0010
0000
0001
0000
0010
,
0000
0001
0000
0110
0000
0110
0000
0010
,
0200
0000
1300
0000
0010
0010
0010
0000
,
0100
0001
0010
0001
0100
0001
1000
0000
,
0001
0100
1000
0000
0100
0001
0100
0000
,
0001
1000
0010
0100
0010
1000
0001
0010
,
0200
0000
1000
0010
,
0001
0001
0010
1300
,
2002
0000
0000
0000
,
0000
0000
0000
0000
0000
3003
0000
0000
,
1000
0001
0000
1000
0000
0010
1000
0000
,
0100
0010
0000
0002
0000
0000
0103
0000
,
0010
0100
0110
0110
,
0010
1000
0100
0010
0001
0010
0001
0000
,
0010
0001
0000
0010
0000
0001
1000
0000
,
0010
0100
0000
0002
0000
0000
1003
0000
,
0001
0010
0100
0010
0001
0100
0010
0000
,
2000
3200
0320
0031
,
0011
1001
1100
1010
,
1000
0010
0100
0000
1000
0001
0100
0000
,
1010
1001
0101
0011
,
0001
0100
1000
0100
0010
1000
0001
0000
,
1000
0100
0000
1000
0000
0000
0010
0000
,
0100
0001
0000
1000
0001
1000
0001
0000
,
1001
0110
1001
0110
,
0010
1000
0100
0010
0001
0100
0010
0000
,
1000
0000
0001
0000
0100
0100
0001
0000
,
0010
0001
0010
0100
1000
0000
0000
0000
,
1000
0001
1000
0000
,
0010
0000
0100
0000
,
0001
0010
0100
0000
,
1000
0010
0100
0000
,
0001
1000
0001
0010
,
0001
0100
0010
1000
,
0000
0010
0000
0100
,
0000
0001
0000
1000
,
0100
1000
0010
0100
,
0000
0010
0000
0100
,
0000
0001
0000
0101
,
0000
0101
0000
0100
,
0010
1000
0100
0010
,
0000
0001
0000
1000
,
0000
0010
0000
0100
,
0000
0001
1000
0000
,
1010
0000
0101
0000
,
1000
0000
0001
0000
,
1100
0000
0011
0000
,
0100
0000
0010
0000
,
0110
0000
0011
0000
,
1001
0000
1010
0000
,
1000
0100
0010
0100
,
1000
0001
0010
0100
,
2000
0000
0000
0000
,
0000
0000
0000
0000
,
3000
0000
0000
0000
;

//---------------dance-single - ----------------
#NOTES:
     dance-single:
     :
     Hard:
     15:
     :
0000
0000
0000
0000
,
0000
0000
0000
0000
,
0000
0000
0000
0000
,
0000
0000
0000
0000
,
0220
0000
0000
0000
0000
0300
0130
0010
,
1001
0100
1000
0100
1000
0010
0100
0001
,
0100
0001
1000
0100
1000
0100
0010
0001
,
1000
0010
1000
0000
0001
0100
0010
0000
0100
0001
0100
0000
0010
1000
0100
0000
,
1000
0100
1000
0000
0001
1000
0100
0000
0010
0100
0010
0000
0100
0010
0001
0000
,
0100
0001
0100
0001
0010
0001
1000
0100
,
1000
0100
1000
0010
0100
0010
0100
0010
,
0100
0001
0100
0000
0010
0100
0001
0000
0010
0001
0010
0000
0100
0010
0001
0000
,
0010
0001
1000
0000
0010
1000
0010
0000
0100
0010
1000
0001
0100
0010
1000
0100
,
0020
0001
0001
0032
1000
1000
2003
0010
,
3010
0200
0001
0301
0020
1000
0130
0011
,
1001
2100
0100
3200
0010
0010
0320
0001
,
0031
0200
0010
0310
0020
0001
0100
1030
,
0001
0100
0001
0100
0001
0000
1000
0010
0000
0100
0001
0000
1000
0000
0001
0000
,
1000
0100
1000
0100
1000
0000
0001
0010
0000
0100
1000
0000
0001
0000
1000
0000
,
0001
0000
0010
0100
1000
0000
0001
0000
1000
0000
0010
0100
0001
0000
1000
0000
,
0010
1000
0001
0010
0100
0000
0010
0000
0001
1000
0010
0100
0001
0000
0010
0000
,
1001
0100
1000
0010
1000
0100
1000
0001
,
0100
0000
0010
0000
0001
0000
0100
0000
0001
0000
0010
0000
0001
0100
0000
0001
,
0010
0100
1000
0010
0100
0001
0010
1000
,
0100
0010
0000
0010
0100
0000
1000
0000
0001
0100
0000
0100
0001
0000
1000
0000
,
0100
1000
0010
1000
0100
1000
0010
0100
,
0010
0000
0001
0000
0100
0000
0010
0000
1000
0000
0100
0000
0010
0001
0000
1000
,
0010
0100
0001
0010
0100
1000
0001
0010
,
1000
0100
0000
0100
1000
0000
0001
0000
0100
0010
0000
0010
0100
0000
0001
0000
,
1001
0010
0100
1000
0001
1000
0100
0010
,
1001
0010
0100
0001
1000
0001
0100
0010
,
0101
0000
1000
0010
1000
0000
0001
0000
1100
0000
0001
0010
0001
0000
1000
0000
,
0110
0000
1000
0001
1000
0000
0010
0000
0100
0001
0010
0100
1000
0001
0100
0010
,
2000
0000
0200
3000
2000
0300
0020
3000
,
0002
0030
0200
0003
0002
0300
0020
0003
,
2030
0000
0200
3000
0002
0300
0020
0003
0002
0030
0200
0003
2000
0300
3001
0000
,
2002
0000
0000
0000
0000
3003
0011
1100
,
1001
0010
0100
0001
0010
0001
0100
1000
,
0010
0000
1000
0000
0001
0000
0010
0000
0100
0000
1000
0001
1000
0000
0001
0000
,
1000
0100
0010
0001
0100
0010
1000
0001
,
0100
1000
0000
0001
0100
0000
0010
0000
1000
0000
0001
0000
0100
0001
0100
0001
,
0010
0100
1000
0001
0010
0100
0001
0100
,
1000
0000
0010
0000
0100
0000
0001
0000
1000
0000
0001
0100
0001
0000
1000
0000
,
0100
0010
0001
1000
0010
0001
0100
1000
,
2002
0000
0000
0000
0000
0000
0000
3003
1100
0000
0011
0000
0101
0000
1010
0000
,
1000
0000
0001
0000
0100
0001
0100
0010
1000
0000
0100
0000
0010
0000
0100
0000
,
1000
0010
0100
0010
0001
0100
1000
0001
,
0100
0000
0001
0000
0010
0001
0010
0100
1000
0000
0001
0000
1000
0000
0001
0000
,
0100
0010
0100
0001
1000
0100
0010
0001
,
1000
0000
0001
0000
0100
0010
1000
0001
1000
0000
0001
0000
0100
0000
1000
0000
,
0001
0010
0001
1000
0100
1000
0001
0100
,
0010
0000
1000
0000
0001
1000
0001
0010
0100
0000
1000
0000
0001
0000
0100
0000
,
1010
1001
1100
1010
1001
0101
0011
0001
,
1000
0000
1000
0000
1001
0000
0001
0000
0001
0010
0100
0010
1000
0010
0001
0000
,
1000
0000
0000
0000
0000
0000
0000
0000
0001
0000
0000
0000
0000
0000
0000
0000
1001
0000
0000
0000
0000
0000
0000
0000
1000
0000
0000
0000
0000
0000
0000
0000
0001
0000
0000
0000
0000
0000
1000
0000
0000
0000
0000
0000
0000
0001
0000
0000
0000
0000
1000
0000
0000
0000
0001
0000
0000
1000
0000
0000
0001
0000
1000
0000
,
0001
1000
0001
0000
1000
0000
0001
0000
,
0100
0001
0010
0011
,
1000
0100
1000
0000
0001
0000
1000
0000
,
0100
1000
0010
1010
,
0001
0100
0001
0000
1000
0000
1001
0000
,
1000
0100
1000
0000
0001
0000
1001
0000
,
0010
0100
0001
0000
1000
0000
0100
0010
,
0000
0000
0011
0000
0100
1000
0100
1000
,
0001
1000
0001
1010
,
0001
1000
0001
1100
,
0001
0000
1000
0000
0001
0000
0010
0100
,
0000
1000
0100
0000
1000
0000
0010
1000
,
0010
0000
0100
0000
0001
0000
0010
0001
,
0010
0100
1000
0001
,
0001
1000
1000
1001
,
0100
0010
0100
0010
0100
0010
0100
0010
,
0100
0001
0010
0100
,
1000
0001
0010
0100
,
1001
0100
0010
1000
,
0001
0000
0100
0000
0010
0000
1000
0001
,
1001
0000
0100
0000
0010
0000
1000
0001
,
1001
0000
0010
0000
0100
0000
1000
0001
,
1001
0010
1001
0100
,
1000
0001
0100
0001
0010
0100
1000
0001
,
2002
0000
0000
0000
,
0000
0000
0000
0000
,
0000
0000
0000
0000
0000
0000
0000
3003
;

//---------------dance-single - ----------------
#NOTES:
     dance-single:
     :
     Challenge:
     18:
     :
0000
0000
0000
0000
,
0000
0000
0000
0000
,
0000
0000
0000
0000
,
0000
0000
0000
0000
,
0010
0000
0000
0010
0000
0000
1000
0000
0000
0001
0000
0000
1000
0100
0000
0000
,
0010
0000
0001
0100
0001
0000
1000
0010
0000
0000
0100
0001
0000
0000
0010
0001
,
0000
0000
0010
0100
0000
0000
1000
0010
0000
0000
1000
0001
0000
0000
1000
0100
,
0000
0000
1000
0010
1000
0000
0010
0100
0000
0000
0001
0010
0000
0000
0001
1000
,
0000
0000
0001
0010
0000
0000
0001
0100
0000
0000
1000
0100
0000
0000
1000
0010
,
1000
0000
0001
0010
0001
0000
1000
0100
0000
0000
0100
0010
0000
0000
0010
0001
,
0000
0000
1000
0010
1000
0000
0100
0010
0000
0000
0001
1000
0001
0000
0100
0010
,
0100
0000
0001
0010
0001
0000
1000
0100
1000
0000
0001
0100
0001
0000
1000
0010
,
1000
0100
1000
0100
0010
0001
0010
0001
0100
0001
0100
0001
1000
0010
1000
0010
,
0100
0001
0001
0001
1000
1000
0010
0100
,
0100
0100
0001
0001
0010
0010
1000
1100
,
0101
0000
1100
0000
0101
0000
0010
0000
0100
0000
0100
0000
0001
0000
1000
0001
,
1000
0010
0100
0010
1000
0000
0001
0100
0010
0100
0001
0000
0110
0000
0000
0000
,
1001
0000
0010
1000
0001
0000
1000
0100
0010
0000
0001
0100
0001
0000
0010
0100
,
1000
0010
1000
0010
0100
0000
0001
1000
0001
0000
0010
0001
0010
0000
0100
0000
,
1000
0000
0010
1000
0001
0000
0010
0001
1000
0000
0100
1000
0001
0000
0100
0001
,
1000
0000
0000
0001
0000
0000
1000
0000
0000
0001
0000
0000
0100
0000
0000
0000
0000
0000
0100
0000
0000
0000
0000
0000
0001
0000
1000
0000
0001
0000
1000
0000
0001
0000
1000
0000
0100
0000
0000
0000
0000
0000
0100
0000
0000
0000
0000
0000
,
0110
0000
0001
0010
0100
0000
1000
0010
0100
0000
0001
0010
0001
0000
1000
0000
,
1000
0000
1000
0100
0010
0000
0001
1000
0001
0000
0010
0001
0100
0000
0010
0000
,
1000
0000
0001
0010
0100
0000
1000
0010
1000
0000
0100
0010
0001
0000
0100
0000
,
0100
0000
0100
0001
0010
0000
0001
1000
0010
0000
1000
0100
0010
0001
0010
0100
,
1000
0000
0010
0100
0010
1000
0001
0000
0010
0000
0001
1000
0001
0000
0100
0000
,
0010
0000
1000
0100
1000
0000
0001
0000
0010
0000
0001
0100
0001
0000
1000
0100
,
0010
0000
0001
1000
0001
0000
0100
0000
0010
0000
1000
0100
1000
0000
0010
0000
,
0100
0001
0010
0001
0100
0001
0010
0000
0100
1000
0010
1000
0100
1000
0010
1000
,
0001
0000
0100
1000
0100
0000
1000
0001
0010
0000
0001
0010
1000
0000
0010
0100
,
1000
0000
0100
0010
0100
0000
0001
1000
0010
0000
1000
0100
0001
0000
0010
0001
,
0100
0000
0001
1000
0001
0000
0010
0100
1000
0000
0100
0010
1000
0000
0010
0001
,
0100
0001
1000
0010
0100
1000
0100
0010
0001
0010
0001
1000
0010
1000
0001
0100
,
0010
0000
0000
0010
1000
0000
0000
1000
0100
0000
0000
0100
0001
0000
0000
0001
,
0010
0000
0000
0010
1000
0000
0000
1000
0100
0000
0000
0100
0001
0000
0000
0001
,
0010
0000
0000
0010
1000
0000
0000
1000
0100
0000
0000
0100
0001
0000
0000
0001
,
2000
0000
0000
3020
0230
0302
0203
0320
,
0130
0000
0001
0000
0010
0001
1000
0000
0100
0000
1000
0010
1000
0000
0001
0000
,
0010
0000
0001
0100
0001
0000
1000
0010
1000
0000
0010
0100
0001
0000
1000
0000
,
0100
0000
0010
0000
0001
0000
0100
0010
1000
0000
0100
0010
0001
0000
1000
0001
,
1000
0000
0100
0000
0011
0000
0000
0000
0001
0010
0001
0100
0010
1000
0100
1000
,
0001
0000
0010
0100
1000
0000
0001
1000
0010
0000
1000
0100
1000
0000
0001
0010
,
0100
0000
1000
0001
0010
0000
0100
0000
1000
0010
0100
0010
1000
0001
1000
0000
,
0010
0000
1000
0100
0001
0000
0010
0000
0001
0100
0001
0000
1000
0100
1000
0000
,
0002
0023
2030
3200
0302
0023
2030
3200
,
0301
0000
0100
0010
0100
0001
1000
0000
0100
0010
0001
0000
1000
0001
0100
0000
,
0010
0000
1000
0100
1000
0000
0001
0000
0010
0001
1000
0100
1000
0001
0100
0010
,
1000
0000
0100
0010
0001
0000
0010
0001
1000
0000
0010
1000
0100
0000
1000
0001
,
0100
0000
0010
0000
0110
0000
0001
0000
0010
0100
1000
0000
0110
0000
0001
0000
,
1000
0001
1000
0010
0100
0000
0010
1000
0001
0000
0010
0001
0100
0000
0001
0010
,
0100
0000
1000
0100
0001
0000
1000
0010
1000
0001
0100
1000
0010
0100
0010
0001
,
1000
0100
0001
0100
1000
0000
0010
0000
0100
1000
0100
0010
0100
0001
0100
0000
,
0001
0010
1000
0010
0001
0000
0100
0000
0010
0001
1000
0100
0010
1000
0001
0100
,
0010
0100
0001
1000
1010
1000
0100
0010
0001
0010
0100
1000
0101
0010
0100
0001
,
1000
0100
1000
0000
0001
0000
0010
0000
0110
0000
0010
0000
0011
0000
0000
0000
1100
0000
0000
0000
0101
0000
0000
0000
1100
0000
0000
0000
0101
0000
0000
0000
,
1000
0010
0100
0001
0010
0100
1000
0001
,
0010
0001
1000
0100
0010
0001
0100
1000
,
0100
1000
0010
0100
1000
0001
0010
0001
,
0010
0100
0001
0010
1000
0001
1000
0100
,
1000
0010
0100
0001
0010
0100
1000
0001
,
1000
0100
0010
0001
0100
0010
0001
1000
,
0010
1000
0001
1000
0100
0010
0100
0001
,
1000
0010
0100
0001
0010
0001
0100
1000
,
0100
0010
0001
1000
0010
1000
0100
0001
,
0010
0001
0100
0010
1000
0100
0001
1000
,
0010
1000
0100
1000
0001
0010
0100
0001
,
1000
0100
0010
0001
0010
0001
0100
1000
,
0010
1000
0001
0100
0010
0100
1000
0001
,
0100
0010
0100
1000
0001
1000
0010
0001
,
1000
0010
1000
0001
0100
0010
0100
0001
,
0100
0010
0001
1000
0100
1000
0010
0001
,
0100
1000
0100
1000
0010
0001
0010
0001
,
0010
1000
0001
0010
1000
0100
0001
0100
,
0010
0100
0001
0100
0010
1000
0001
1000
,
0010
1000
0100
1000
0001
0100
0010
0001
,
0010
0001
0100
1000
0100
1000
0010
0001
,
0100
0010
1000
0010
1000
0001
0100
0001
,
0100
0010
0100
1000
0001
1000
0010
0001
,
1000
0010
0001
0100
0010
0001
1000
0200
,
0010
0010
0010
0010
,
0010
0020
0000
0000
,
0000
0000
0000
0000
,
0000
0000
0000
0000
,
0330
0000
0000
0000
;

//---------------dance-double - ----------------
#NOTES:
     dance-double:
     :
     Easy:
     7:
     :
00000000
00000000
00000000
00000000
,
00000000
00000000
00000000
00000000
,
00000000
00000000
00000000
00000000
,
00000000
00000000
00000000
00000000
,
00000000
00000000
00000000
00000000
,
00100000
10000000
00010000
01000000
,
00001000
00000000
00011000
00000000
,
00000010
00001000
00000001
00000100
,
00000001
00000000
00000101
00000000
,
00000100
00001000
00010000
01000000
,
10000000
00000000
10010000
00000000
,
00100000
00010000
10000000
01000000
,
01100000
00000000
00011000
00000000
,
00000210
00000000
00000000
00000000
,
00000000
00000000
00000300
00000000
,
00001002
00000000
00000000
00000003
,
00002000
00000000
00000000
00003000
,
00000001
00000100
00001000
00010000
,
00001000
00001000
00100000
00010000
,
10000000
10000000
01000000
00010000
,
00002000
00000000
00000000
00003000
,
00010000
00000010
00010000
00001000
,
00000100
00000001
00000010
00000001
,
00001000
00000100
00010000
00001000
,
00100000
00010000
01000000
00100000
,
10000000
01000000
00010000
00001000
,
00010000
00100000
00010000
00001000
,
00000100
00000001
00001000
00000001
,
00000010
00000001
00000100
00001000
,
00011000
00000000
00100000
10000000
,
10100000
00000000
01000000
00010000
,
00011000
00000000
00001010
00000000
,
00001000
00000100
00000010
00000001
,
00000011
00000000
00000100
00000000
,
00001100
00000000
00010000
00000000
,
01010000
00000000
10000000
00000000
,
10100000
00000000
00000000
00000000
,
00100000
10000000
00100000
10100000
,
10000000
01000000
10000000
11000000
,
01000000
00010000
01000000
01010000
,
00001000
00010000
00001000
00011000
,
00010000
00000010
00010000
00001010
,
00001010
00000000
00000101
00000001
,
00000101
00000000
00001100
00000000
,
00022000
00000000
00000000
00033000
,
00001000
00010000
00001000
00011000
,
00010000
01000000
00010000
01010000
,
01000000
10000000
01000000
11000000
,
10000000
00100000
10000000
10100000
,
01000000
00100000
01000000
01100000
,
01000000
00010000
01000000
01010000
,
00010000
10000000
01000000
00010000
,
00001000
00000100
00000001
00001000
,
00000002
00000013
00002000
00003100
,
00000020
00001030
00000200
00000300
,
00000001
00000000
00000100
00000000
,
00000001
00000000
00000100
00000000
,
00001000
00000000
00010000
00000000
,
00001000
00000000
00010000
00000000
,
01000000
00000000
00010000
00000000
,
01000000
00000000
00010000
00000000
,
01000000
00000000
10000000
00000000
,
01000000
00000000
10000000
00000000
,
00010000
00000000
01000000
00000000
,
00100000
00000000
10000000
00000000
,
01000000
00000000
00010000
00000000
,
00001000
00000000
00010000
00000000
,
00000010
00000000
00001000
00000000
,
00000001
00000000
00000100
00000000
,
00001000
00000000
00010000
00000000
,
00001000
00000000
00100000
00000000
,
00010000
00000000
01000000
00000000
,
00100000
00000000
10000000
00000000
,
01000000
00000000
00010000
00000000
,
01000000
00000000
00100000
00000000
,
00001000
00000000
00010000
00000000
,
00000100
00000000
00000010
00000000
,
00001100
00000000
00001100
00000000
,
00000101
00000000
00000101
00000000
,
00002002
00000000
00000000
00000000
,
00000000
00000000
00000000
00003003
;

//---------------dance-double - ----------------
#NOTES:
     dance-double:
     :
     Medium:
     10:
     :
00000000
00000000
00000000
00000000
,
00000000
00000000
00000000
00000000
,
00000000
00000000
00000000
00000000
,
00000000
00000000
00000000
00000000
,
00000000
00000000
00000000
00000000
,
00000010
00000100
00001000
00000010
00000000
00000100
00000000
00010000
,
00000000
01000000
00000000
01010000
00000000
01010000
00000000
00010000
,
00000000
10000000
00000000
00010000
00000000
01000000
00000000
00010000
,
00000000
00100000
00000000
00110000
00000000
00110000
00000000
00010000
,
00100000
01000000
10000000
00100000
00000000
01000000
00000000
00001000
,
00000000
00010000
00000000
00011000
00000000
00011000
00000000
00001000
,
00000000
00000100
00000000
00000010
00000000
00001000
00000000
00000001
,
00000000
00000010
00000000
00000011
00000000
00000011
00000000
00000001
,
00000100
00000010
00001000
00000000
00001000
00000100
00000000
00000100
,
00010000
00000000
00010000
00001000
00000000
00001000
00100000
00000000
,
01000000
10000000
00100000
00000000
00100000
10000000
00000000
10000000
,
01000000
00000000
01000000
00100000
00000000
00100000
00001000
00000000
,
00010000
00001000
00000100
00000000
00001000
00010000
01000000
00000000
,
00010000
00001000
00010000
00001000
00010000
00000100
00000010
00000000
,
00000001
00001000
00000010
00000000
00001000
00000001
00000010
00000000
,
00000002
00002003
00003200
00010300
,
00001000
01000000
00100000
01000000
00010000
00100000
01000000
00000000
,
01100000
00011000
00110000
11000000
,
10000000
01000000
00100000
00010000
00001000
00000100
00000010
00000000
,
00000110
00011000
00001010
00000101
,
00000001
00001000
00000010
00000100
00000000
00000001
00000000
00001000
,
00000000
00000010
00000000
00001010
00000000
00001010
00000000
00001000
,
00010000
01000000
10000000
01000000
00000000
00100000
00000000
10000000
,
00000000
01000000
00000000
11000000
00000000
11000000
00000000
10000000
,
02000000
00000000
03100000
00000000
00001000
00010000
00001000
00000000
,
00000100
00000001
00000010
00000001
00000100
00000010
00001000
00000000
,
00000100
00001000
00000010
00000000
00000100
00000001
00000100
00000000
,
00000001
00000100
00001000
00010000
00100000
10000000
01000000
00100000
,
00020000
00000000
00100000
01000000
,
10000000
10000000
01000000
00130000
,
00022000
00000000
00000000
00000000
,
00000000
00000000
00000000
00000000
00000000
00033000
00000000
00000000
,
00000100
00001000
00000000
00000001
00000000
00000100
00000010
00000000
,
00000001
00000010
00000000
00000200
00000000
00000000
00001300
00000000
,
01000000
00010000
01010000
01010000
,
10000000
00010000
00100000
01000000
10000000
01000000
10000000
00000000
,
01000000
00100000
00000000
00010000
00000000
01000000
00001000
00000000
,
00010000
00001000
00000000
00020000
00000000
00000000
00030100
00000000
,
00001000
00000100
00000010
00000100
00001000
00000001
00000100
00000000
,
00000020
00000230
00000302
00000013
,
00001010
00001001
00001100
00001010
,
00000010
00010000
00001000
00000000
00010000
00001000
01000000
00000000
,
00110000
10010000
01010000
00110000
,
01000000
00100000
10000000
01000000
00100000
00010000
01000000
00000000
,
00010000
01000000
00000000
00100000
00000000
00000000
10000000
00000000
,
00010000
00100000
00000000
00001000
00010000
00001000
00010000
00000000
,
00011000
00001100
00001001
00000011
,
00000001
00000100
00000010
00000001
00000010
00001000
00000100
00000000
,
00001100
00000000
00110000
00000000
00001000
00001000
00100000
00000000
,
00010000
01000000
10000000
01000000
00010000
00000000
00000000
00000000
,
00100000
00010000
00100000
00000000
,
01000000
00000000
10000000
00000000
,
00010000
00100000
00001000
00000000
,
00010000
00000010
00001000
00000000
,
00000010
00001000
00000100
00000010
,
00001000
00000010
00000001
00000100
,
00000000
00000001
00000000
00000100
,
00000000
00010000
00000000
01000000
,
00010000
00100000
01000000
10000000
,
00000000
00010000
00000000
10000000
,
00000000
00100000
00000000
10100000
,
00000000
10100000
00000000
10000000
,
00010000
00100000
00001000
00010000
,
00000000
00000100
00000000
00001000
,
00000000
00000010
00000000
00000100
,
00000000
00000001
00001000
00000000
,
00000011
00000000
00001100
00000000
,
00010000
00000000
00001000
00000000
,
01010000
00000000
10100000
00000000
,
10000000
00000000
00010000
00000000
,
10010000
00000000
10100000
00000000
,
10010000
00000000
00110000
00000000
,
00001000
00010000
00000100
00001000
,
00000010
00000100
00000001
00000010
,
00000200
00000000
00000000
00000000
,
00000000
00000000
00000000
00000000
,
00000300
00000000
00000000
00000000
;

//---------------dance-double - ----------------
#NOTES:
     dance-double:
     :
     Hard:
     15:
     :
00000000
00000000
00000000
00000000
,
00000000
00000000
00000000
00000000
,
00000000
00000000
00000000
00000000
,
00000000
00000000
00000000
00000000
,
00002000
00000000
00000000
00000000
00000000
00000000
00000001
00000001
,
00003001
00000010
00000001
00000100
00001000
00010000
01000000
10000000
,
00100000
00100000
00010000
00010000
00001000
00001000
00000010
00000010
,
00000001
00000100
00001000
00010000
01000000
00010000
00001000
00011000
,
00000000
00000100
00000000
00011000
00000000
01000000
00000000
01100000
,
10000000
00100000
10000000
01000000
00010000
00001000
00000100
00000001
,
00000010
00000010
00001000
00001000
00010000
00010000
00100000
00100000
,
10000000
01000000
00010000
00001000
00000100
00001000
00010000
00011000
,
00000000
00000000
01000000
00000000
00000000
00000000
00011000
00000000
00000000
00000000
00000100
00000000
00001000
00000001
00001000
00000001
,
00001000
00000001
00001000
00000100
00010000
00001000
00100000
00010000
,
10000000
00010000
01000000
10010000
00000000
01000000
10000000
01010000
,
00110000
00101000
00001000
00010000
00000100
00001000
00000010
00000100
,
00001000
00000100
00000001
00000110
00000000
00000100
00010000
00001000
,
01000000
00010000
01000000
00000000
00100000
00000000
10000000
00000000
00010000
01000000
00010000
00000000
00100000
00000000
00001000
00000000
,
00001000
00010000
00010000
00000100
00000100
00001000
00001000
00010100
,
00000100
00001000
00000100
00000000
00000010
00000000
00000001
00000000
00001000
00000100
00001000
00000000
00000010
00000000
00000100
00000000
,
00000010
00000100
00000010
00000100
00000010
00000000
00000010
00000000
00001000
00000100
00001000
00000100
00010000
00000000
00000000
00000000
,
00001000
01000000
00010000
00100000
00001000
01000000
00010000
00100000
,
00001000
00010000
00000100
00001000
00000001
00000001
00001000
00001100
,
00010000
00000010
00001000
00000100
00010000
00000010
00001000
00000100
,
00010000
00001000
01000000
00010000
10000000
10000000
00010000
01010000
,
10000000
00100000
01000000
00010000
10000000
00010000
10000000
01000000
,
00010000
00000100
00001000
00000010
00000001
00000010
00001000
00001000
,
00000001
00000100
00000010
00001000
00000001
00001000
00000001
00000100
,
00001000
00000000
01000000
00000000
00010000
00000000
00100000
00000000
01000000
00000000
01000000
10000000
00010000
00000000
01000000
00010000
,
10000000
00000000
00100000
00000000
01010000
00000000
00000000
00000000
00010000
00000000
00001000
00010000
00000100
00000000
00010000
00000000
,
00000010
00000000
00001000
00000000
00000101
00000000
00000000
00000000
00000100
00000000
00000100
00000001
00001000
00000000
00000100
00000000
,
00010000
00000000
00010000
00000000
01001000
00000000
00010000
00000000
00010000
00000000
00001000
01000000
00010000
00000000
01000000
00000000
,
00100000
00000000
10000000
01000000
00100000
00000000
00100000
01000000
00100000
00000000
00100000
00000000
00001000
00010000
00001000
00010000
,
00001000
00000000
00000000
00000000
00010100
00000000
00000000
00001000
,
00000001
00001000
00000100
00010000
00001000
00000000
00010000
00000000
,
01000000
10000000
01000000
00010000
00001000
00000100
00000001
00000100
,
00010000
00000000
01100000
00000000
10000000
00010000
10000000
10010000
,
11000000
00000000
01000000
00000000
10000000
00000000
01000000
00000000
00010000
00000000
00001000
00010000
00000100
00000000
00001000
00000000
,
00000001
00000000
00000010
00000000
00001000
00000000
00010000
00000000
00100000
00000000
10000000
00100000
10000000
00000000
01000000
00000000
,
00100000
00000000
00100000
00000000
00001000
00000000
00010000
00000000
00000010
00000000
00000010
00001000
00000001
00000000
00000100
00000000
,
00000001
00000000
00000010
00000000
00000100
00000000
00010000
00000000
00000100
00001000
00000010
00001000
00000010
00000000
00000000
00000000
,
00000100
00000000
00000001
00000000
00000010
00000000
00001000
00000000
00010000
00001000
00010000
00000000
00100000
00000000
00010000
00000000
,
00001000
00000000
00000010
00000000
00001000
00000000
00010000
00000000
00001000
00010000
00001000
00000000
00000100
00000000
00000001
00000000
,
00001000
00000000
00000100
00000000
00010000
00000000
00010000
00000000
00010000
00001000
00010000
00000000
01000000
00000000
01000000
00000000
,
00200000
01000000
01000000
01000000
01000000
01000000
01000000
01300000
,
11000000
00000000
10000000
00000000
00010000
00000000
00000000
00000000
01001000
00000000
00010000
00001000
00010000
00000000
00000000
00000000
,
00010100
00000000
00001000
00000000
00000010
00000000
00000100
00000000
00000001
00001000
00000001
00000100
00000001
00000000
00000000
00000000
,
00001100
00000000
00001000
00000000
00000100
00000000
00000000
00000000
00010100
00000000
00001000
00010000
00001000
00000000
00000000
00000000
,
01001000
00000000
00010000
00000000
00100000
00000000
01000000
00000000
10000000
00010000
10000000
01000000
10000000
00000000
00000000
00000000
,
00100000
01000000
00010000
00000000
01000000
00000000
00000000
00000000
00100000
01000000
10000000
00000000
01000000
00000000
00000000
00000000
,
01000000
00000000
00010000
00000000
00100000
00000000
00001000
00000000
00010000
00001000
00010000
00000100
00010000
00000000
00000000
00000000
,
00000100
00001000
00000100
00000000
00000100
00000000
00000010
00000000
00000100
00001000
00000100
00000000
00000100
00000000
00000010
00000000
,
00000010
00000001
00001000
00000000
00000001
00001000
00000100
00000000
00001000
00000100
00010000
00000100
00010000
00001000
00010000
00001000
,
00010000
00000000
00000000
00000000
01000000
00000000
10000000
01000000
00010000
00001000
00000100
00000000
00000001
00000000
00000000
00000000
,
00000001
00000000
00000000
00000000
00000100
00000000
00001000
00010000
00100000
00000000
10000000
00000000
00010000
00000000
00100000
00000000
,
00011000
00001000
00010000
00000010
,
00001000
00000001
00000100
00000001
,
00000010
00000001
00000100
00000001
00001000
00000000
00000001
00001000
,
00000100
00000100
00001001
00000000
,
00000001
00001000
00000100
00010000
,
00001000
00100000
00010000
01000000
,
00100000
10000000
00010000
01000000
00010000
00000000
10000000
00100000
,
01000000
01000000
10010000
00000000
,
01000000
00010000
01000000
00000000
00100000
00000000
10000000
00000000
,
00010000
00100000
00010000
00000000
01000000
00000000
00001000
00000000
,
00010000
00001000
00010000
00000000
00000100
00000000
00001000
00000000
,
00000010
00000100
00000010
00000000
00001000
00000000
00000001
00000000
,
00000100
00000001
00000100
00000000
00000100
00000001
00001000
00000000
,
00000100
00001000
00000100
00000000
00000100
00010000
00001000
00000000
,
00010000
00000000
01000000
00000000
10000000
00000000
01000000
00100000
,
00010000
00100000
01000000
00000000
10000000
00000000
00000000
00000000
,
10000000
01000000
00000000
01000000
00010000
00000000
00010000
00000000
,
00001000
00000100
00000000
00000100
00000001
00000000
00000001
00000000
,
00000010
00001000
00000000
00001000
00010000
00000000
00010000
00000000
,
00100000
10000000
00000000
10000000
01000000
00000000
01000000
00000000
,
00010000
00001000
00010000
00000000
00010000
00000100
00001000
00000000
,
00001000
00000010
00001000
00000000
00001000
00000001
00000100
00000000
,
00000100
00000010
00000100
00000000
00000100
00000010
00001000
00000000
,
00000010
00001000
00000100
00001000
00000100
00010000
00001000
00010000
,
01000000
01000000
01000000
01000000
,
01000000
10010000
00000000
00000000
;
