#TITLE:Independent Women;
#SUBTITLE:(Part I);
#ARTIST:Destiny's Child;
#TITLETRANSLIT:;
#SUBTITLETRANSLIT:;
#ARTISTTRANSLIT:;
#GENRE:;
#CREDIT:;
#BANNER:Independent Women (Part I)-bn.png;
#BACKGROUND:Independent Women (Part I)-bg.png;
#LYRICSPATH:;
#CDTITLE:;
#MUSIC:Independent Women (Part I).ogg;
#OFFSET:0.000000;
#SAMPLESTART:56.327000;
#SAMPLELENGTH:20.000000;
#SELECTABLE:YES;
#DISPLAYBPM:98.000000;
#BPMS:0.000000=98.000000
;
#STOPS:
;
#BGCHANGES:;
#KEYSOUNDS:;
#ATTACKS:;

//---------------dance-single - ----------------
#NOTES:
     dance-single:
     :
     Hard:
     12:
     0.535629,0.559911,0.683225,0.599905,0.529083,450.000000,368.000000,82.000000,72.000000,0.000000,0.000000,0.535629,0.559911,0.683225,0.599905,0.529083,450.000000,368.000000,82.000000,72.000000,0.000000,0.000000:
0000
0000
0000
0000
,
0000
0000
0000
0000
,
1100
0000
1000
0001
1000
0100
0000
0100
0000
0000
0000
0000
1001
0000
0000
0000
,
0101
0000
0001
1000
0001
0010
0000
0010
0000
0000
0000
0000
1001
0000
0000
0000
,
1010
0000
0010
0100
0001
0000
0020
0000
0230
0000
2300
0000
3002
0000
0103
0010
,
0100
0000
0001
1000
0001
0010
0000
0010
0000
0000
1100
0000
1100
0000
1100
0000
,
0011
0000
1000
0100
1000
0001
0000
0001
0000
0000
0000
0000
0100
0010
0000
0000
,
1000
0010
1000
0010
0100
0001
1000
0000
1010
0000
0000
0000
0001
1000
0001
0000
,
0010
0100
0010
0100
1000
0001
0100
0000
0101
0000
0000
0000
1000
0010
0100
0001
,
0010
0100
0010
0100
0010
0001
1000
0000
1100
0000
0000
0000
0001
0100
0020
0000
,
1030
0001
1000
0001
0020
0000
0230
0000
2300
0000
0000
0000
3001
1000
0000
0000
,
0010
0100
0001
0100
0010
1000
0001
0000
0101
0000
0000
0000
0100
0010
1000
0000
,
0100
1000
0010
1000
0001
0000
0001
0000
0110
0000
0000
0000
1000
0010
1000
0000
,
0100
0010
0100
0010
0001
0100
0010
0000
1010
0000
0000
0000
1000
0001
1000
0001
,
0010
0001
0010
0100
1000
0000
1000
0000
1001
0000
0000
0000
1000
0100
0010
0001
,
0100
0000
0000
1010
0000
1010
0000
1010
0000
0000
0002
0000
0023
0000
0230
0000
,
1300
0000
0000
0101
0000
0101
0000
0101
0000
0000
0020
0000
2030
0000
3002
0000
,
0103
0000
0000
0011
0000
0011
0000
0011
0000
0000
2000
0000
3200
0000
0320
0000
,
0031
1000
0000
1100
0000
1100
0000
1100
0000
1000
0020
0000
0230
0000
0302
0000
,
0013
0000
0000
1001
0000
1001
0000
1001
0000
0000
2000
0000
3002
0000
0203
0000
,
0310
0000
0000
0101
0000
0101
0000
0101
0000
0000
0200
0000
0302
0000
2003
0000
,
3100
0000
0000
0011
0000
0011
0000
0011
0000
0000
2000
0000
3002
0000
0023
0000
,
0031
0000
0100
0010
0000
1000
0000
0010
1000
0000
0100
0010
0000
0001
0000
1000
,
0001
0000
0010
0100
0000
2100
0000
3001
1000
0000
0010
0100
0000
0001
0000
0000
,
1100
0101
1010
0011
1001
0120
2030
3002
,
0013
0000
0001
0100
0000
0100
0000
0010
1000
0000
0001
1000
0000
0100
0000
0000
,
1100
0101
1010
0011
1001
0120
2030
3002
,
0013
0000
0100
1000
0000
0001
0000
1000
0100
0000
0010
0001
0000
0001
0000
0000
,
0011
1100
0101
1010
0110
2001
3200
0320
,
0031
0000
1000
0100
0000
0100
0000
0010
0100
0000
1000
0001
0000
1000
0000
0000
,
1100
0101
1010
0011
1001
0120
2030
3200
,
0310
0001
1000
0001
0010
0001
1000
0001
0100
0000
0110
0000
1001
0000
0000
0000
,
0010
1000
0010
0100
0001
0000
1000
0001
0100
0000
0101
0000
1010
0000
0000
0000
,
1000
0100
0010
0001
1000
0010
0100
0001
0100
0000
0110
0000
1001
0000
0000
0000
,
0010
0001
0010
0100
1000
0000
0001
1000
0100
0000
1100
0000
0101
0000
0000
0000
,
0011
0000
0010
0100
1000
0001
0000
0001
0000
0000
0100
0000
1010
0000
0000
0000
,
1100
0000
1000
0001
0010
0100
0000
0000
1001
0000
1001
0000
0110
0000
0000
0000
,
2000
0000
0020
3000
0200
0030
0002
0300
,
0020
0000
0000
0003
2000
0030
0020
3000
,
0200
0030
2000
0300
0002
3000
0200
0003
,
2000
0000
0000
0300
0200
3000
0002
0300
,
2000
0003
0002
3000
0020
0003
0200
0030
,
2000
0000
0000
0300
0002
3000
0200
0003
,
0020
0300
1030
0001
2000
0000
0200
0000
3000
0001
0000
1000
0000
0000
0000
0000
,
0310
0000
0001
1000
0002
0000
0000
0000
0000
0100
0000
0103
0020
0000
0000
0000
,
1030
0000
0001
0010
0000
0100
0000
1000
0010
0000
0100
0001
0000
1000
0000
0000
,
1100
0101
1010
0011
1001
0120
2030
3002
,
0203
0000
0000
0000
,
0300
0000
0000
0000
;

//---------------dance-single - ----------------
#NOTES:
     dance-single:
     :
     Medium:
     10:
     0.378511,0.407904,0.449929,0.366609,0.258292,318.000000,264.000000,54.000000,44.000000,0.000000,0.000000,0.378511,0.407904,0.449929,0.366609,0.258292,318.000000,264.000000,54.000000,44.000000,0.000000,0.000000:
0000
0000
0000
0000
,
0000
0000
0000
0000
,
1100
0000
0000
0000
0000
0001
0000
0001
0000
0000
0000
0000
1001
0000
0000
0000
,
0101
0000
0000
0000
0000
1000
0000
1000
0000
0000
0000
0000
1001
0000
0000
0000
,
1010
0000
0000
0000
0000
0100
0000
0100
0000
0000
0000
0000
1001
0000
0000
0000
,
0011
0000
0000
0000
0000
0010
0000
0010
0000
0000
1000
0000
0001
0000
1000
0000
,
1001
0000
0000
0000
0000
0010
0000
0100
0000
0000
0000
0000
0001
1000
0000
0000
,
0001
0010
0001
0100
0110
0000
0010
1000
,
0100
1000
0001
0100
0110
0000
0010
1000
,
0001
1000
0100
0010
0011
0000
0100
0001
,
1000
0000
0001
0000
0010
0000
0100
0000
1100
0000
0000
0000
1000
0001
0000
0000
,
0100
0010
1000
0010
1001
0000
0100
0001
,
0010
0001
0100
0010
1010
0000
1000
0100
,
1000
0100
0010
0100
1100
0000
0001
0010
,
0100
0000
0010
0000
0100
0000
1000
0000
1001
0000
0000
0000
0001
1000
0001
1000
,
0002
0000
0000
0100
0000
0100
0000
0103
0000
0000
0010
0000
1000
0000
0001
0000
,
2000
0000
0000
0100
0000
0100
0000
3100
0000
0000
1000
0000
0001
0000
0010
0000
,
0200
0000
0000
1000
0000
1000
0000
1300
0000
0000
0001
0000
0100
0000
0010
0000
,
2000
0000
0000
0001
0000
0001
0000
3001
0000
0000
1000
0000
0100
0000
0010
0000
,
0002
0000
0000
0010
0000
0010
0000
0013
0000
0000
0001
0000
1000
0000
0100
0000
,
2000
0000
0000
0010
0000
0010
0000
3010
0000
0000
0100
0000
0001
0000
1000
0000
,
0020
0000
0000
0100
0000
0100
0000
0130
0000
0000
0010
0000
1000
0000
0001
0000
,
0200
0000
0000
0010
0000
0310
0000
0000
2000
0000
0000
0001
0000
3001
0000
0000
,
0020
0000
0000
1000
0000
1030
0000
0000
0002
0000
0000
0100
0000
0103
0000
0000
,
0011
1100
0101
1010
1001
0110
0000
0000
,
0200
0000
0000
0001
0000
0301
0000
0000
2000
0000
0000
0100
0000
3100
0000
0000
,
1100
0011
0101
1010
0110
1001
0000
0000
,
0020
0000
0000
0130
0000
0001
0000
0000
2000
0000
0000
3100
0000
0010
0000
0000
,
0011
1010
1100
0101
1001
0110
0000
0000
,
0020
0000
0000
0130
0000
0010
0000
0000
2000
0000
0000
3001
0000
0100
0000
0000
,
0101
0011
1010
1100
0110
1001
0000
0000
,
0010
0001
1000
0001
0100
0100
0110
0000
,
1000
0001
0010
0001
0100
0100
0110
0000
,
0001
0010
0001
1000
0100
0100
0110
0000
,
0010
0100
1000
0001
0100
0100
0110
0000
,
2001
0000
0000
0000
0000
0001
0000
3001
0000
0000
0100
0000
0010
0000
0000
0000
,
1000
0010
1000
0001
1001
1001
0110
0000
,
2000
3020
0230
0302
,
0023
0000
2030
3020
,
0032
0203
0320
2030
,
3200
0000
0302
0203
,
2300
3020
0230
0302
,
2003
0000
3200
0320
,
0032
0000
0000
2000
0000
0000
3003
0000
,
0010
0000
1000
0001
1000
0000
0000
0000
0000
0000
0000
0000
0020
0000
0000
0000
,
2030
0000
0000
3100
0000
1000
0000
0000
0002
0000
0000
0103
0000
0001
0000
0000
,
0011
1010
0101
1100
1001
0110
0000
0000
;

//---------------dance-single - ----------------
#NOTES:
     dance-single:
     :
     Easy:
     7:
     0.247580,0.274123,0.216632,0.133312,0.149976,208.000000,182.000000,26.000000,16.000000,0.000000,0.000000,0.247580,0.274123,0.216632,0.133312,0.149976,208.000000,182.000000,26.000000,16.000000,0.000000,0.000000:
0000
0000
0000
0000
,
0000
0000
0000
0000
,
1001
0000
0000
0000
0000
1000
0000
1000
0000
0000
0000
0000
0000
0000
0000
0000
,
1001
0000
0000
0000
0000
0001
0000
0001
0000
0000
0000
0000
0000
0000
0000
0000
,
0110
0000
0000
0000
0000
0100
0000
0100
0000
0000
0000
0000
0000
0000
0000
0000
,
0110
0000
0000
0000
0000
0010
0000
0010
0000
0000
0000
0000
0000
0000
0000
0000
,
1001
0000
0000
0000
0000
1000
0000
0001
0000
0000
0000
0000
0110
0000
0000
0000
,
0001
0010
1000
0100
,
0010
0001
0010
0100
,
1000
0010
1000
0001
,
0100
0010
1000
1001
,
0001
0100
0001
0010
,
1000
0100
0001
0010
,
0001
0100
0010
1000
,
0002
0023
0230
2300
,
3010
0000
0000
1000
0000
0001
0000
1000
0000
0000
0000
0000
0000
0000
0000
0000
,
0100
0000
0000
0010
0000
0001
0000
0010
0000
0000
0000
0000
0000
0000
0000
0000
,
0001
0000
0000
1000
0000
0100
0000
1000
0000
0000
0000
0000
0000
0000
0000
0000
,
0010
0100
0001
0100
0010
0000
0110
0000
,
1000
0000
0000
0010
0000
0100
0000
0010
0000
0000
0000
0000
0000
0000
0000
0000
,
0001
0000
0000
1000
0000
0010
0000
1000
0000
0000
0000
0000
0000
0000
0000
0000
,
0100
0000
0000
1000
0000
0010
0000
1000
0000
0000
0000
0000
0000
0000
0000
0000
,
0001
0101
1000
1100
,
0010
1010
0001
0011
,
1000
0001
0100
0010
1000
0001
0000
0000
,
0010
0011
1000
1100
,
1000
0001
0100
0010
1000
0001
0000
0000
,
0010
1001
0100
0110
,
1000
0001
0100
0010
1000
0001
0000
0000
,
0010
1100
0010
0101
,
1000
0001
0100
0010
1000
0001
0000
0000
,
0010
0000
0001
0000
0100
0100
0100
0000
,
0010
0000
1000
0000
0100
0100
0100
0000
,
0010
0000
0001
0000
0100
0100
0100
0000
,
0010
0000
1000
0000
0100
0100
0100
0000
,
1001
0000
0000
0000
0000
1000
0000
0001
0000
0000
0000
0000
0000
0000
0000
0000
,
0110
0000
0000
0000
0000
0100
0000
0010
0000
0000
0000
0000
0000
0000
0000
0000
,
2000
0000
3002
0000
,
0023
0000
0032
2003
,
3020
0000
0230
0000
,
0302
0000
2003
3200
,
0310
0011
0000
1100
,
0000
0101
0000
1010
,
0000
0000
1000
0001
1000
0000
0000
0000
0000
0010
0000
0010
0000
0000
0000
0000
,
0000
0000
1000
0001
1000
0000
0000
0000
0000
0000
0000
0000
0020
0000
0000
0000
,
1030
0101
0010
1001
,
1000
0001
0100
0010
1000
0002
0000
0000
,
0003
0000
0000
0000
;

//---------------dance-single - ----------------
#NOTES:
     dance-single:
     :
     Beginner:
     3:
     0.135693,0.174347,0.149976,0.016664,0.000000,114.000000,96.000000,18.000000,2.000000,0.000000,0.000000,0.135693,0.174347,0.149976,0.016664,0.000000,114.000000,96.000000,18.000000,2.000000,0.000000,0.000000:
// measure 0
0000
0000
0000
0000
,  // measure 1
0000
0000
0000
0000
,  // measure 2
1001
0000
0010
0000
,  // measure 3
0110
0000
0100
0000
,  // measure 4
1001
0000
0001
0000
,  // measure 5
0110
0000
1000
0000
,  // measure 6
1001
0000
0110
0000
,  // measure 7
0010
0000
0001
0000
,  // measure 8
0100
0000
0010
0000
,  // measure 9
1000
0000
0100
0000
,  // measure 10
1000
0000
0001
0000
,  // measure 11
1000
0000
0100
0000
,  // measure 12
0010
0000
0001
0000
,  // measure 13
0100
0000
0010
0000
,  // measure 14
1000
0000
0001
0000
,  // measure 15
0010
0010
0010
0000
,  // measure 16
0001
0001
0001
0000
,  // measure 17
1000
1000
1000
0000
,  // measure 18
0100
0100
0100
0000
,  // measure 19
1000
1000
1000
0000
,  // measure 20
0010
0010
0010
0000
,  // measure 21
0100
0100
0100
0000
,  // measure 22
0001
0001
0001
0000
,  // measure 23
0110
0000
1001
0000
,  // measure 24
1000
1000
1000
0000
,  // measure 25
0110
0000
1001
0000
,  // measure 26
0001
0001
0001
0000
,  // measure 27
1001
0000
0110
0000
,  // measure 28
0100
0100
0100
0000
,  // measure 29
0110
0000
1001
0000
,  // measure 30
0010
0010
0010
0000
,  // measure 31
1000
0000
0100
0000
,  // measure 32
0001
0000
0100
0000
,  // measure 33
1000
0000
0100
0000
,  // measure 34
0001
0000
0100
0000
,  // measure 35
1001
0000
0010
0000
,  // measure 36
0110
0000
0001
0000
,  // measure 37
1000
0000
0000
0000
,  // measure 38
0001
0000
0000
0000
,  // measure 39
0010
0000
0000
0000
,  // measure 40
0100
0000
0000
0000
,  // measure 41
1000
0000
0000
0000
,  // measure 42
0010
0000
0100
0000
,  // measure 43
0002
0000
0003
0000
,  // measure 44
0200
0000
0300
0000
,  // measure 45
0110
0000
1001
0000
,  // measure 46
0010
0010
0010
0000
;
