#TITLE:In My Eyes;
#ARTIST:riewo;
#BANNER:In My Eyes.png;
#BACKGROUND:In My Eyes-bg.png;
#JACKET:In My Eyes-jacket.png;
#MUSIC:In My Eyes.ogg;
#SAMPLESTART:28.68;
#SAMPLELENGTH:20;
#DISPLAYBPM:142;
#BPMS:0=142.02;
#BGCHANGES:;

//---------------dance-single - ----------------
#NOTES:
     dance-single:
     :
     Beginner:
     3:
     :
0000
0000
0000
0000
,
0000
0000
0000
0000
,
0000
0000
0000
0000
,
0000
0000
0000
0000
,
0000
0000
0000
0000
,
0000
0000
0000
0000
,
0000
0000
0000
0000
,
1000
0000
0000
0000
,
0001
0000
0000
0000
,
0001
0000
0010
0000
,
0001
0000
0100
0000
,
0001
0000
0010
0000
,
1001
0000
0010
0000
,
1001
0000
0000
0000
,
0010
0000
1000
0000
,
0001
0000
0100
0000
,
0010
0000
1000
0000
,
1001
0000
0010
0000
,
0001
0000
1000
0000
,
1001
0000
0100
0000
,
1000
0000
0001
0000
,
0110
0000
1000
0000
,
0100
0000
0001
0000
,
1000
0000
0100
0000
,
0001
0000
0100
0000
,
1000
0000
0010
0000
,
0001
0000
0010
0000
,
0100
0000
0010
0000
,
0100
0000
0010
0000
,
1000
0000
0001
0000
,
1001
0000
0010
0000
,
0001
0000
0100
0000
,
1000
0000
1001
0000
,
0010
0000
0001
0000
,
1000
0000
0100
0000
,
0001
0000
0010
0000
,
0001
0000
0010
0000
,
0010
0000
0001
0000
,
1000
0000
0100
0000
,
0001
0000
0010
0000
,
0001
0000
0001
0000
,
0100
0000
1000
0000
,
1000
0000
0100
0000
,
0001
0000
0010
0000
,
0001
0000
0010
0000
,
0100
0000
0001
0000
,
1000
0000
0100
0000
,
0001
0000
0010
0000
,
0001
0000
0010
0000
,
0001
0000
0000
0000
,
0000
0000
0000
0000
,
0010
0000
0000
0000
,
0000
0000
0000
0000
,
0001
0000
0000
0000
,
0000
0000
0000
0000
,
0100
0000
0000
0000
,
0000
0000
0000
0000
,
0010
0000
0010
0000
,
1000
0000
0010
0000
,
0001
0000
1000
0000
,
0010
0000
0001
0000
,
1000
0000
0100
0000
,
0010
0000
0100
0000
,
0001
0000
1000
0000
,
0001
0000
0110
0000
;

//---------------dance-single - ----------------
#NOTES:
     dance-single:
     :
     Easy:
     6:
     :
0000
0000
0000
0000
,
0000
0000
0000
0000
,
0000
0000
0000
0000
,
0000
0000
0000
0000
,
0000
0000
0000
0000
,
0000
0000
0000
0000
,
0000
0000
0000
0000
,
2000
0000
0000
3000
,
0002
0000
0000
0000
0000
0003
0000
0000
,
0001
1000
0010
0100
,
0002
0003
0200
0300
,
0002
0003
0020
0030
,
1001
0001
0010
0100
,
2002
0000
0003
3000
,
0020
0000
2030
3000
,
0002
0000
0203
0300
,
0020
0000
2030
3000
,
1001
0100
0010
0100
,
0002
0003
2000
3000
,
1001
0010
0100
0010
,
2000
3000
0002
0003
,
0110
0001
1000
0001
,
0200
0300
0002
0003
,
1000
0010
0200
0300
,
0001
1000
0200
0300
,
1000
0100
0020
0030
,
0001
0100
0020
0030
,
0100
0001
0020
0030
,
0100
1000
0020
0030
,
2000
0000
3002
0003
,
1001
0100
0010
0100
,
0001
1000
0200
0300
,
1000
0010
2002
3003
,
0020
0230
0002
0300
,
2000
3000
0200
0003
,
0002
0003
0020
0330
,
0001
0100
0010
1000
,
0020
0230
0002
0300
,
2000
3000
0200
0003
,
0002
0003
0020
0330
,
0001
0100
0001
0010
,
0200
0000
2000
3300
,
1000
0010
0200
0300
,
0002
0000
0020
0033
,
0001
1000
0020
0030
,
0200
0000
0002
0303
,
1000
0010
0200
0300
,
0002
0000
0020
0033
,
0001
1000
0020
0030
,
0002
2000
0000
0000
,
0000
0000
0003
3000
,
0020
0200
0000
0000
,
0000
0000
0030
0300
,
0002
0020
0000
0000
,
0000
0000
0003
0030
,
0200
2000
0000
0000
,
0000
0000
0300
3000
,
0010
1000
0020
0030
,
1000
0100
0020
0030
,
0002
0003
2000
3000
,
0010
0100
0002
0003
,
2000
3000
0200
0300
,
0010
0001
0200
0300
,
0002
0000
2003
3000
,
0001
1000
0220
0000
,
0330
0000
0000
0000
;

//---------------dance-single - ----------------
#NOTES:
     dance-single:
     :
     Medium:
     9:
     :
0000
0000
0000
0000
,
0000
0000
0000
0000
,
0000
0000
0000
0000
,
0000
0000
0000
0000
,
0000
0000
0000
0000
,
0000
0000
0000
0000
,
0000
0000
0000
0000
,
0020
0000
0000
0030
,
0200
0000
0000
0300
,
0001
1100
0010
1100
,
0010
0001
0100
0000
0010
1000
0001
0100
,
0010
0000
0010
0000
1000
0010
0100
0000
,
0001
1000
0100
0000
0010
0001
0100
0001
,
1000
0101
1000
0101
,
0010
1000
0100
0000
0010
0001
1000
0001
,
0100
0000
0100
0000
0010
0100
0001
0000
,
2200
0000
0000
3300
,
0020
0000
0001
0000
,
0001
0000
0001
0030
,
1000
0001
0100
0000
0010
0100
0001
0000
,
1000
0000
0100
0000
0010
0001
1000
0000
,
0220
0000
0000
0330
,
0001
1000
0100
0000
0010
0001
0100
0000
,
0002
0000
0000
0003
,
2000
0000
0000
3000
,
0220
0000
0000
0330
,
0010
1000
0001
0000
0100
0010
0100
0000
,
0001
1000
0100
0000
0010
0001
1000
0000
,
0220
0000
0000
0330
,
2002
0000
0000
3003
,
1000
0001
0100
0000
0010
1000
0001
1000
,
0100
0000
0010
0000
0001
1000
0100
0000
,
0220
0000
0000
0330
,
0001
0000
0000
0000
0001
1000
0000
0000
0000
0000
0001
0000
0101
0000
0000
0000
,
0100
0010
0001
0001
,
0100
0010
1000
0100
,
0001
0101
1000
1100
,
0010
0000
0000
0000
1000
0001
0000
0000
0000
0000
0100
0000
1100
0000
0000
0000
,
0100
0010
1000
1000
,
0100
0010
0001
0100
,
1000
1100
0001
0101
,
0010
0000
0000
0000
0001
1000
0000
0000
0000
0000
0100
0000
0101
0000
0000
0000
,
0100
0010
0001
0001
,
1001
0100
0001
0100
,
1000
0100
0001
0100
,
0000
0000
0000
0000
1000
0001
0000
0000
0000
0000
1000
0000
1100
0000
0000
0000
,
0010
0001
0100
0100
,
0010
1000
0100
0001
,
1000
1100
0001
0101
,
0020
0000
2030
0000
,
3200
0000
0320
0000
,
0032
0000
0000
0003
,
0202
0000
0000
0303
,
1000
0000
1000
0000
0010
0100
0010
0100
,
0001
1000
0100
0010
0001
1000
0010
0100
,
1000
0001
1000
0001
0100
0010
0100
0010
,
1000
0001
0100
0010
0100
0001
1000
0000
,
0001
0000
0001
0000
0010
0100
0010
0100
,
1000
0001
0100
0010
1000
0001
0010
0100
,
0001
1000
0001
1000
0100
0010
0100
0010
,
0001
1000
0100
0010
0100
1000
0001
0000
,
1000
0000
1000
0000
0100
0010
0100
0010
,
0001
1000
0010
0100
0001
1000
0100
0010
,
1000
0001
1000
0001
0010
0100
0010
0100
,
1000
0001
0010
0100
0010
0001
1000
0000
,
0101
0000
0000
0000
;

//---------------dance-single - ----------------
#NOTES:
     dance-single:
     :
     Hard:
     11:
     :
0000
0000
0000
0000
,
0000
0000
0000
0000
,
0000
0000
0000
0000
,
0000
0000
0000
0000
,
0000
0000
0000
0000
,
0000
0000
0000
0000
,
0000
0000
0000
0000
,
0010
0100
0010
0100
0001
1000
0100
0010
,
0001
1000
0001
0100
0010
1000
0110
0000
,
0001
1000
1100
0000
0001
0100
1001
0000
,
0010
1000
0100
0010
0001
1000
0001
0100
,
0010
0000
0101
0000
0010
1000
1100
0000
,
0001
1000
0100
0010
0001
1000
0100
0010
,
1000
0001
0101
0000
0010
1000
1100
0000
,
0010
0100
0001
0000
1000
0100
0010
0001
,
0100
0010
1000
0001
0100
0010
0100
0000
,
2002
0000
0000
3003
,
0020
0100
0000
0100
,
0000
0000
0000
0000
1000
0000
0000
0000
0000
0000
0000
0030
1000
0000
0000
0000
,
0001
1000
0100
0000
0010
0001
0100
0000
,
0010
1000
0001
0000
0100
0010
1000
0000
,
0202
0000
0000
0303
,
0010
1000
0100
0000
0010
0001
0100
0000
,
0002
1000
0000
1003
,
0200
0010
0000
0310
,
2002
0000
0000
3003
,
0010
1000
0001
0000
0100
0010
0100
0000
,
0001
1000
0100
0000
0010
0001
1000
0000
,
0202
0000
0000
0303
,
0220
0000
0000
0330
,
1000
0001
0100
0000
0010
1000
0100
0010
,
0001
0100
0010
0100
0001
1000
0001
0000
,
0220
0000
0000
0330
,
1100
0000
0000
0000
0010
0100
0000
0000
0000
0000
0001
0000
0110
0000
0000
0000
,
1000
0100
0010
0001
0100
0010
0100
0000
,
0010
1000
0100
0010
0001
0100
0010
0000
,
0001
1000
0110
0000
0001
1000
1100
0000
,
0101
0000
0000
0000
0010
0100
0000
0000
0000
0000
1000
0000
0101
0000
0000
0000
,
0010
0100
0001
1000
0100
0010
0100
0000
,
0010
0001
0100
0010
1000
0001
0100
0000
,
0001
1000
0110
0000
1000
0001
0011
0000
,
1100
0000
0000
0000
0001
1000
0000
0000
0000
0000
0010
0000
0101
0000
0000
0000
,
0010
0100
0001
1000
0100
0010
0100
0000
,
1000
0001
0100
0010
1000
0001
0100
0000
,
0010
0100
0001
0000
1000
0001
0011
0000
,
1100
0000
0000
0000
0010
0100
0000
0000
0000
0000
1000
0000
1100
0000
0000
0000
,
0010
0100
0001
1000
0100
0010
0100
0000
,
0010
0001
0100
0010
1000
0001
0100
0000
,
0010
1000
1100
0000
0010
0100
0101
0000
,
0020
0000
2030
0000
,
3200
0000
0320
0000
,
0032
0000
0000
0003
,
0202
0000
0000
0303
,
1000
0001
1100
0000
0010
0100
0010
0100
,
0001
1000
0100
0010
0001
0100
0001
1000
,
0100
0010
0001
1000
0010
0100
0010
0100
,
0001
1000
0100
0010
0100
1000
0001
0000
,
1000
0001
1100
0000
0010
0100
0010
0100
,
0001
1000
0100
0010
0001
0100
0001
1000
,
0100
0010
0001
1000
0010
0100
0010
0100
,
0001
1000
0100
0010
0100
1000
0001
0000
,
0100
0001
1010
0000
0100
0010
0100
0010
,
0001
1000
0010
0100
0001
1000
0100
0010
,
1000
0001
1000
0001
0010
0100
0010
0100
,
1000
0000
0001
0000
0100
0000
0010
0000
0000
0100
0010
0100
0010
0100
0010
0000
;

//---------------dance-single - ----------------
#NOTES:
     dance-single:
     :
     Challenge:
     15:
     :
0000
0000
0000
0000
,
0000
0000
0000
0000
,
0000
0000
0000
0000
,
0000
0000
0000
0000
,
0000
0000
0000
0000
,
0000
0000
0000
0000
,
0000
0000
0000
0000
,
1000
1000
0001
0001
1000
1000
0001
0001
,
1000
0001
1000
0001
1000
0001
1000
0001
1000
0001
1000
0001
1000
0001
1000
0001
,
1000
0000
0010
0000
0100
0000
0001
0010
0000
0001
1000
0000
0010
0000
0100
0000
,
0001
0000
0010
0000
0100
0000
1000
0000
0010
1000
0000
0010
0100
0000
0001
1000
,
0000
0100
0010
0000
0100
1000
0000
0010
0100
0000
0001
1000
0000
0001
0010
0000
,
0001
0100
0000
0010
1000
0000
0001
0010
0000
0100
1000
0000
0010
0000
0100
0000
,
0001
0010
0000
0001
0100
0000
0010
1000
0000
0100
1000
0000
0010
1000
0000
0001
,
0100
0000
0010
0100
0000
0010
1000
0000
0001
0010
0000
0001
1000
0000
0001
0100
,
0000
0010
1000
0000
0100
0010
0000
0001
1000
0000
0001
0100
0000
0001
1000
0000
,
0010
0100
0000
0010
0100
0000
0010
0100
0010
0100
0010
0100
0010
0100
0010
0100
,
0010
1000
0100
0010
0001
0101
0000
0010
,
1010
0000
1000
0000
0100
0000
0010
0000
0001
0000
0100
0010
0000
1000
0001
0000
,
0010
0000
0001
0100
0000
0010
0100
0001
1000
0000
0100
1000
0000
0001
1000
0010
,
0100
0000
0001
0010
0000
0001
0010
0100
1000
0000
0001
1000
0000
1000
0010
0100
,
0001
0000
0010
0001
0000
1000
0100
0000
0010
0000
0011
0000
0000
0000
0100
0000
,
1100
0000
0010
0000
1000
0000
0100
0000
0010
0000
0001
0100
0000
0001
1000
0000
,
0010
0000
1000
0100
0000
1000
0010
0100
0001
0000
0010
0001
0000
0100
0001
1000
,
0010
0000
1000
0100
0000
0010
0100
0010
0001
0000
1000
0001
0000
0100
0001
1000
,
0100
0000
0010
0001
0000
1000
0010
0100
0001
0000
0101
0000
0000
0000
1000
0000
,
1100
0000
0001
0000
1000
0000
0010
0000
0100
0000
0001
0010
0000
0100
1000
0000
,
0010
1000
0010
0100
0000
0001
1000
0000
0100
0010
0001
0100
0000
0001
1000
0000
,
0001
0100
0010
1000
0000
0100
0010
0000
0001
1000
0010
1000
0000
0100
0001
0000
,
0010
0001
0100
0001
0000
1000
0100
0000
0010
0000
0011
0000
0000
0000
1000
0000
,
1010
0000
0100
0000
0010
0000
1000
0000
0001
0000
0010
0001
0000
1000
0100
0000
,
1000
0010
0100
0010
1000
0010
0100
0000
0001
1000
0001
0100
0001
1000
0001
0000
,
0010
0001
0100
0001
0010
0001
0100
0000
0001
1000
0010
1000
0100
1000
0010
1000
,
0001
0000
0100
0000
0110
0000
0010
0000
1000
0000
0100
1000
0000
0001
0010
0000
,
0001
0100
0010
0000
1000
0100
0010
0000
0001
0000
1000
0010
1000
0000
0100
0000
,
0010
0002
0000
0000
1003
0020
0000
0000
0130
0002
0000
0000
1003
0200
0000
0000
,
1300
0000
0010
0100
0001
0000
0010
0000
0100
0000
1000
0000
0001
0000
0100
0000
,
0010
1000
0001
0000
1001
0000
0100
0000
0001
0000
1000
0010
0000
0100
0001
0000
,
0010
0001
0010
0100
1000
0000
0001
0100
0001
0000
1000
0010
1000
0000
0100
0000
,
1000
0020
0000
0000
0130
0002
0000
0000
1003
0200
0000
0000
0310
0002
0000
0000
,
1003
0010
1000
0010
1000
0010
1000
0010
0100
0001
0100
0001
0100
0001
0100
0001
,
0010
0000
0100
0000
0110
0000
0010
0000
0001
1000
0001
1000
0000
0010
0100
0000
,
0001
1000
0100
0000
0010
0100
1000
0000
0001
0000
1000
0010
1000
0000
0100
0000
,
1000
0002
0000
0000
0103
0020
0000
0000
1030
0002
0000
0000
0103
0020
0000
0000
,
1030
0000
0100
1000
0001
0000
0100
0000
0010
0000
0001
0000
0010
0000
1000
0000
,
0100
0010
0001
0000
1001
0000
0100
0000
0010
1000
0001
1000
0000
0001
0100
0000
,
0010
1000
0001
1000
0010
0000
0100
0001
0100
0000
0001
0010
0100
0000
1000
0000
,
0001
2000
0000
0000
3010
0200
0000
0000
0301
2000
0000
0000
3010
0200
0000
0000
,
0301
0010
0001
0010
0001
0010
0001
0010
0100
1000
0100
1000
0100
1000
0100
1000
,
0010
0000
0100
0000
0001
0000
0100
0000
0010
0000
1000
0100
0000
1000
0001
0000
,
0010
0000
0001
0100
0000
0010
1000
0000
0100
1000
0000
0001
0100
0000
0001
0010
,
0000
0100
1000
0000
0001
1000
0000
0010
0100
0000
0001
0010
0000
0100
1000
0000
,
0001
0100
0000
0010
1000
0000
0001
0010
0000
0100
1000
0000
0010
0000
0100
0000
,
0001
0010
0000
0100
1000
0000
0010
0000
0100
0001
1000
0000
0001
0010
0100
0000
,
1000
0000
0010
0100
0000
0001
0010
0000
0001
0100
0001
0000
1000
0010
1000
0000
,
0100
0010
0001
0000
0100
0010
1000
0000
0001
1000
0000
0010
1000
0000
0001
0000
,
0100
0001
0000
1000
0010
0000
0100
0001
0000
1000
0010
0000
0100
0001
1000
0010
,
0100
0000
0001
0000
0010
0100
1000
0000
0001
0100
0001
0000
1000
0010
1000
0000
,
0001
0010
0001
0000
1000
0100
1000
0000
0010
0100
0010
0000
1000
0001
1000
0000
,
0100
0000
0010
0001
1000
0000
0010
0000
0100
0001
0010
0100
1000
0000
0001
0000
,
0100
0010
0000
1000
0001
0000
0010
0001
0000
1000
0100
0000
1000
0010
0000
0100
,
0001
0010
0000
0001
1000
0100
0010
0000
0001
1000
0100
0000
1000
0010
0100
0000
,
0001
0000
1000
0001
0000
0010
0100
0000
1000
0010
1000
0000
0001
0100
0010
0000
,
1000
0100
1000
0100
0010
0000
0001
0000
0100
0001
0010
0001
1000
0000
0010
0000
,
1000
0001
1000
0001
1000
0001
1000
0001
0100
0010
0100
0010
0100
0010
0100
0010
;

//---------------dance-double - ----------------
#NOTES:
     dance-double:
     :
     Easy:
     6:
     :
00000000
00000000
00000000
00000000
,
00000000
00000000
00000000
00000000
,
00000000
00000000
00000000
00000000
,
00000000
00000000
00000000
00000000
,
00000000
00000000
00000000
00000000
,
00000000
00000000
00000000
00000000
,
00000000
00000000
00000000
00000000
,
20000000
00000000
00000000
30000000
,
00020000
00000000
00000000
00000000
00000000
00030000
00000000
00000000
,
00010000
10000000
01000000
00100000
,
00002000
00003000
00020000
00030000
,
00000020
00000030
00000200
00000300
,
00000010
00010000
00001000
01000000
,
00020000
20000000
00030000
30000000
,
00200000
00000000
02300000
03000000
,
00002000
00000000
00023000
00030000
,
00000200
00000000
00002300
00003000
,
00000001
00000100
00000010
00000100
,
00000002
00000003
00000200
00000300
,
00000010
00010000
00001000
00100000
,
00020000
00030000
20000000
30000000
,
01100000
00010000
10000000
01000000
,
00200000
00300000
00002000
00003000
,
00010000
00000010
00000200
00000300
,
00000001
00000100
00000020
00000030
,
00010000
00001000
00200000
00300000
,
00010000
01000000
00200000
00300000
,
01000000
00010000
00200000
00300000
,
00001000
00010000
00000200
00000300
,
00002000
00000000
00003002
00000003
,
00001000
00000010
00010000
00001000
,
01000000
00100000
02000000
03000000
,
00010000
00100000
02020000
03030000
,
00001000
00010000
00001000
00000000
00022000
00000000
00000000
00000000
,
00000000
00033000
00000200
00000000
,
00002300
00000000
00003002
00000003
,
00000100
00000010
00010000
00001000
,
00200000
02300000
20000000
03000000
,
00200000
00300000
02000000
30000000
,
00200000
00300000
20000000
33000000
,
00100000
01000000
00001000
00010000
,
00000200
00000000
00002000
00003300
,
00000001
00000010
00000200
00000300
,
00010000
00001000
00010000
00000000
00012000
00000000
00003000
00000000
,
01000000
00010000
20000000
30000000
,
02000000
00000000
03200000
00300000
,
00001000
00010000
00002000
00003000
,
00020000
00000000
00001000
00031000
,
00010000
00000100
00000020
00000030
,
00000200
00002000
00000000
00000000
,
00000000
00000000
00000000
00003300
,
00012000
00020000
00000000
00000000
,
00000000
00000000
00000000
00033000
,
00120000
00200000
00000000
00000000
,
00000000
00000000
00000000
00330000
,
01020000
02000000
00000000
00000000
,
00000000
00000000
00000000
03030000
,
00100000
10000000
00200000
00300000
,
10000000
01000000
00200000
00300000
,
00002000
00003000
00020000
00030000
,
00000010
00000100
00000002
00000003
,
00002000
00003000
00000200
00000300
,
00010000
00001000
02000000
03000000
,
00020000
00000000
20030000
30000000
,
00010000
10000000
02200000
00000000
,
03300000
00000000
00000000
00000000
;

//---------------dance-double - ----------------
#NOTES:
     dance-double:
     :
     Medium:
     8:
     :
00000000
00000000
00000000
00000000
,
00000000
00000000
00000000
00000000
,
00000000
00000000
00000000
00000000
,
00000000
00000000
00000000
00000000
,
00000000
00000000
00000000
00000000
,
00000000
00000000
00000000
00000000
,
00000000
00000000
00000000
00000000
00000000
00000000
00000000
10000000
,
20000000
00000000
00000000
00010000
00020000
00000000
30000000
01000000
,
02000000
00000000
00030000
00100000
00200000
00000000
03300000
00000000
,
10010000
00000000
10000000
00010000
00100000
00000000
00001000
00000000
,
00020000
00030000
00000200
00000300
,
00001000
00000000
00000100
00001000
00000010
00000000
00000100
00000000
,
00000001
00001000
00000010
00000000
00010000
00000000
00001000
00000000
,
00200000
00300000
00020000
00030000
,
10000000
00100000
02000000
00000000
03002000
00000000
00003000
00000000
,
00010000
00000000
00000010
00001000
00000200
00000000
00001300
00000000
,
00000002
00000000
00000203
00000300
,
00000010
00000000
00010000
00000000
00001000
00000000
00100000
01000000
,
00100000
00001000
00020000
00031000
,
00010000
00001000
00010000
00000000
00000100
00000000
00001000
00000000
,
00000001
00001000
00000001
00000000
00000010
00000000
00000100
00000000
,
00000220
00000000
00000330
00000000
00000000
00000000
00010000
00001000
,
02000000
03000000
00020000
00030000
,
10000000
01000000
00100000
00000000
00002000
00000000
00013000
00000000
,
00010000
00001000
00010000
00000000
00000020
00000000
00001030
00000000
,
00001000
00000100
00000020
00000031
,
00000001
00000100
00000020
00001030
,
00000100
00010000
00001000
00000000
00200000
00000000
00310000
10000000
,
00010000
00100000
01000000
00000000
00200000
00000000
00300000
00000000
,
00020000
00000000
20030000
30000000
,
00010000
00100000
00001000
00000000
00020000
00000000
00031000
00000000
,
00010000
00000100
00001000
00000000
00000020
00000000
00000030
00000000
,
00002000
00000000
00003002
00000000
00000003
00000100
00000010
00001000
,
00000200
00000300
00021000
00000000
,
00032000
00003000
02000000
03010000
,
00200000
00320000
02030000
03200000
,
20300000
00000000
30020000
00000000
00130000
00001000
00010000
00000100
,
00002000
00003020
00000230
00000300
,
00000002
00002003
00003020
00000030
,
00001000
00000001
00000100
00000010
,
00000100
00000010
00001000
00000100
,
00000020
00000000
00000031
00000200
00000000
00000000
00000300
00000000
,
00000002
00000000
00000013
00000200
00000000
00000000
00000300
00000000
,
00010000
00001000
00100000
01000000
,
10000000
01000000
00100000
00010000
,
02000000
03200000
20000000
30300000
,
10000000
00000000
01000000
10000000
00100000
00000000
01000000
00000000
,
00020000
00230000
02300000
23000000
,
30020000
00000000
00230000
00000000
00301000
00010000
00000100
00000010
,
00000001
00002000
00000000
00000000
,
00000000
00000000
00000000
00000000
00003001
00000100
00000010
00000000
,
00000200
00000000
00000000
00000000
,
00000000
00000000
00000000
00000000
00000310
00001000
00000010
00000000
,
00000200
00000020
00000000
00000000
,
00000000
00000000
00000300
00002030
,
00003200
00000000
00000000
00000000
,
00000000
00000000
00000300
00000000
,
00010000
00000000
00001000
00100000
01000000
00000000
10000000
00010000
,
01000000
00000000
00100000
01000000
00010000
00000000
10000000
00000000
,
00020000
00230000
02000000
03300000
,
20000000
30020000
02030000
03000000
,
00001000
00000000
00010000
00000010
00000100
00000000
00000001
00001000
,
00000100
00000000
00000010
00000100
00001000
00000000
00000001
00000000
,
00002000
00000000
00003002
00000003
,
00001000
00000001
00001000
00000000
00000220
00000000
00000000
00000000
,
00000330
00000000
00000000
00000000
;

//---------------dance-double - ----------------
#NOTES:
     dance-double:
     :
     Hard:
     10:
     :
00000000
00000000
00000000
00000000
,
00000000
00000000
00000000
00000000
,
00000000
00000000
00000000
00000000
,
00000000
00000000
00000000
00000000
,
00000000
00000000
00000000
00000000
,
00000000
00000000
00000000
00000000
,
00000000
00000000
00000000
00000000
00000000
00000000
00000000
10000000
,
20000000
00000000
00000000
00010000
00020000
00000000
30000000
01000000
,
02000000
00000000
00030000
00100000
00200000
00000000
03300000
00000000
,
10000000
00010000
10000000
00010000
00100000
00000000
01000000
00000000
,
10000000
01000000
10000000
01000000
00100000
00000000
00001000
00000000
,
00010000
00001000
00010000
00001000
00010000
00000000
00000100
00000000
,
00000010
00000001
00000010
00000001
00000100
00000000
00000010
00000000
,
00010000
00001000
00010000
00000000
00001000
00100000
00010000
00000000
,
01000000
00100000
02000000
00000000
03020000
00000000
00030000
00000000
,
10000000
00010000
00100000
00001000
00020000
00000000
00030010
00000000
,
00001000
00000001
00000100
00000010
00000200
00000000
00000300
00000000
,
00000001
00001000
00000002
00000000
00000013
00000100
00020000
00000000
,
00030000
00001000
02000000
00000000
03100000
10000000
02000000
00000000
,
23000000
00000000
00000000
00000000
30010000
01000000
00001000
00010000
,
00002000
00000000
00000000
00000000
00013000
00000100
00001000
00000100
,
00002000
00003002
00000203
00000300
,
00000002
00000023
00000230
00000300
,
00010000
00001000
00010000
00000000
00001000
01000000
00100000
01000000
,
00020000
00000000
00000000
00000000
10030000
01000000
00100000
01000000
,
10000000
01000000
00200000
00300000
,
00001000
00010000
00000100
00000000
00000020
00000000
00000030
00000000
,
00000001
00001000
00000010
00000000
00000200
00000000
00000300
00000001
,
00001000
00000010
00000100
00000010
00010000
00001000
01000000
00010000
,
20000000
30020000
02030000
00000000
,
03020000
00000000
20030000
00000000
30200000
00000000
00300000
10000000
,
00010000
10000000
02000000
00000000
13000000
00010000
00200000
00000000
,
00302000
00023000
00030200
00000300
,
00002000
00000002
00000000
00003003
,
00000100
00000000
00000000
00000001
00000010
00000000
00000000
00000000
00000002
00000000
00000000
00000000
00000003
00000000
00001000
00000000
,
00000010
00000000
00010000
00000000
00001000
00000000
00100000
00010000
,
10000000
00100000
10000000
01000000
,
00200000
00000000
00000000
00000000
00310000
00000000
00000000
10000000
00200000
00000000
00000000
00000000
00300000
00000000
00000000
00000000
,
20000000
00000000
00000000
00000000
30010000
00000000
00000000
01000000
00200000
00000000
00000000
00000000
00300000
00000000
00000000
00000000
,
10000000
00000000
01000000
00000000
00100000
00000000
00001000
00010000
,
00000100
00000010
00000001
00000100
,
00000020
00000000
00001030
00000200
00000300
00000000
00001000
00000000
,
00000002
00000000
00000013
00000200
00000300
00000000
00001000
00000010
,
00020000
00032000
02003000
03100000
,
20000000
00000000
32000000
00000000
03200000
00000000
00310000
10000000
,
02000000
00000000
03100000
00001000
00020000
00000000
00030000
00000000
,
00000200
00000000
00001300
00000001
00000010
00000000
00000100
00000000
,
00002000
00003002
00000023
00000230
,
00020300
00032000
00203000
00300000
,
22000000
03000000
00200000
30300000
,
00020000
00200000
00300000
02030000
,
03200000
20000000
00000000
00300000
,
02000000
00000000
03000000
30020000
,
00230000
00000000
00000000
00320000
,
02030000
03200000
20300000
32000000
,
03200000
00020000
00030000
02300000
,
23000000
02000000
30000000
13000000
,
00100000
10000000
00010000
00100000
00001000
00000000
00010000
00000100
,
00001000
00000100
00000010
00000100
00001000
00000000
00000001
00000000
,
00002000
00000000
00003020
00000000
00000230
00000000
00000301
00001000
,
00000002
00000000
00000203
00000000
00000320
00000000
00000030
00010000
,
00001000
00100000
01000000
00100000
01000000
00100000
00010000
10000000
,
01000000
10000000
00100000
01000000
00100000
10000000
00010000
01000000
,
00020000
01000000
20030000
30100000
,
10000000
00010000
10000000
00100000
01000000
00010000
10000000
00010000
,
01000000
00000000
00000000
00000000
;
