#TITLE:Ignited Night;
#ARTIST:HHH;
#BANNER:Ignited Night-bn.png;
#BACKGROUND:Ignited Night-bg.png;
#JACKET:Ignited Night-jacket.png;
#MUSIC:Ignited Night.ogg;
#SAMPLESTART:16.107;
#SAMPLELENGTH:20;
#DISPLAYBPM:149;
#BPMS:0=149;
#BGCHANGES:;

//---------------dance-single - ----------------
#NOTES:
     dance-single:
     :
     Beginner:
     3:
     :
0000
0000
0000
0000
,
0000
0000
0000
0000
,
0000
0000
0000
0000
,
0000
0000
0000
0000
,
0001
0000
1000
0000
,
1001
0000
0000
0000
,
0010
0000
0000
0000
,
1000
1000
1000
0000
,
0001
0000
0100
0000
,
0001
0001
0001
0000
,
0100
0000
1001
0000
,
0010
0000
1000
0000
,
0100
0000
0010
0000
,
0001
0000
0100
0000
,
0001
0001
0001
0000
,
0010
0000
0001
0000
,
1000
0000
0010
0000
,
1000
0000
0100
0000
,
0010
0010
0010
0000
,
0001
0000
1000
0000
,
0010
0000
0100
0000
,
0001
0000
0100
0000
,
0010
0000
1000
0000
,
0100
0000
1000
0000
,
0010
0000
0001
0000
,
1000
0000
0001
0000
,
0010
0010
0010
0000
,
1001
0000
0001
0000
,
0010
0010
0010
0000
,
1001
0000
1000
0000
,
0100
0100
0100
0000
,
1001
0000
0100
0000
,
1000
1000
1000
0000
,
1001
0000
0010
0000
,
0001
0000
1000
0000
,
1001
0000
0000
0000
,
0100
0000
0000
0000
,
0010
0010
0010
0000
,
1000
0000
0001
0000
,
0100
0100
0100
0000
,
0010
0000
1001
0000
,
1000
1000
1000
0000
,
0001
0000
0010
0000
,
0001
0000
0100
0000
,
0010
0000
1000
0000
,
0100
0100
0100
0000
,
1000
0000
0010
0000
,
1000
0000
0001
0000
,
0010
0000
0100
0000
,
1000
1000
1000
0000
,
0001
0000
1000
0000
,
0010
0000
0100
0000
,
1000
0000
0100
0000
,
0010
0000
0001
0000
,
1000
0000
0001
0000
,
0010
0000
0100
0000
,
0010
0000
0100
0000
,
1000
1000
1000
0000
,
0010
0000
0000
0000
;

//---------------dance-single - ----------------
#NOTES:
     dance-single:
     :
     Easy:
     6:
     :
0000
0000
0000
0000
,
0000
0000
0000
0000
,
0000
0000
0000
0000
,
0000
0000
0000
0000
,
0001
0000
1000
0001
,
1001
0000
0000
0010
,
1000
0100
1000
0001
,
0010
0001
0100
0000
,
0010
1000
0100
0010
,
0001
0100
1000
0000
,
0110
0000
1001
0010
,
1000
0100
1000
0001
,
0010
0100
1000
0110
,
0001
0010
0001
0100
,
1000
0001
0100
0000
,
0010
1000
0100
1000
,
0010
0100
0001
1001
,
0010
0001
0010
0100
,
1000
0010
0100
0000
,
0001
0010
0100
1000
,
0010
0010
0010
0000
,
1000
0100
0010
0001
,
0010
0010
0010
0000
,
0100
0010
0001
1000
,
0010
0010
0010
0000
,
0010
1000
0100
0001
,
0010
0100
1000
0001
,
0110
0001
0100
1000
,
0010
0100
0010
1000
,
1001
0010
1000
0100
,
1000
0010
0001
0100
,
0110
0001
0010
0100
,
1000
0010
1000
0001
,
1001
0010
0100
0001
,
0010
0100
0010
0100
,
0110
0000
0000
1000
,
0020
0030
0200
0300
,
0002
0003
2000
3000
,
0002
0003
0020
0030
,
0001
0010
0100
1000
,
0110
0000
1001
0010
,
1000
0001
0100
0010
,
1000
0001
1000
0100
,
0010
0001
0100
0110
,
0010
1000
0001
0010
,
0001
0100
1000
0000
,
0010
1000
0001
0010
,
0001
0100
0010
1001
,
1000
0010
1000
0001
,
0010
0100
1000
0000
,
0001
0100
0010
1000
,
0010
0010
0010
0000
,
1000
0010
0001
0100
,
0010
0010
0010
0000
,
0100
0001
0010
1000
,
0010
0010
0010
0000
,
0010
0001
0100
1000
,
0001
0100
2000
3000
,
0020
0000
0000
0000
,
0030
0000
0000
0000
;

//---------------dance-single - ----------------
#NOTES:
     dance-single:
     :
     Medium:
     8:
     :
0000
0000
0000
0000
,
0000
0000
0000
0000
,
0000
0000
0000
0000
,
0000
0000
0000
0000
,
0001
0001
1000
1000
,
1001
0000
0000
0000
0000
0000
1000
0001
,
1000
0100
0010
0001
,
0100
0000
0010
1000
0010
0000
0100
0001
,
0100
0010
1000
0001
,
1000
0100
0010
0002
0000
0000
0003
0000
,
0100
0010
0000
0000
1001
0000
0100
0010
,
1000
0000
0001
0000
0010
0001
0100
0000
,
0010
0000
1000
0100
1000
0000
1100
0000
,
0010
0000
1000
0000
0100
0010
0001
0000
,
1000
0010
0100
0001
0000
0000
0000
0010
,
0001
0000
0100
0000
0001
1000
0010
0000
,
1000
0000
0100
0010
0001
0000
0011
0000
,
0001
0000
1000
0000
0010
0100
0010
0000
,
1000
0001
0100
0020
0000
0000
0030
0000
,
1000
0010
0100
0000
0101
0000
1010
0000
,
0010
0000
1000
0100
0002
0000
0003
0000
,
0001
0010
0100
0000
1100
0000
0011
0000
,
0010
0000
0001
0100
2000
0000
3000
0000
,
0100
0010
0001
0000
1001
0000
0110
0000
,
0010
0000
0100
0001
2000
0000
3000
0000
,
1000
0010
1000
0000
0001
0100
0001
0000
,
0010
0100
1000
0002
0000
0000
0003
0000
,
0110
0000
1001
0000
1000
0001
0100
0000
,
0010
0000
0100
0000
0010
1000
0001
0000
,
1100
0000
0101
0000
0010
0001
1000
0000
,
0010
0000
1000
0100
1000
0000
0001
0100
,
0002
0000
0003
0000
0010
0100
1000
0000
,
0020
2030
3002
0203
,
0310
1010
0100
0011
,
1000
1000
0001
0001
,
1001
0000
0000
0000
0000
0000
0010
0100
,
0010
1000
0100
0001
,
0011
0110
1100
0000
,
0010
1000
0001
0100
,
0001
1000
0010
0200
0000
0000
0300
0000
,
0001
1000
0000
0000
1001
0000
0110
0000
,
2000
0000
3002
0000
0203
0000
0301
1000
,
0100
0000
0010
0000
0001
0100
1000
0000
,
0010
0000
1000
0001
0100
0000
0110
0000
,
0010
0000
1000
0000
0100
0010
0001
0000
,
1000
0001
0100
0020
0000
0000
0030
1000
,
0001
0000
0010
0000
0001
0100
1000
0000
,
0010
0000
0100
0001
0100
0000
1010
0000
,
0100
0000
1000
0000
0001
0100
0010
0000
,
1000
0100
0010
0002
0000
0000
0003
0000
,
0001
0010
0100
0000
1100
0000
0011
0000
,
0010
0000
0001
0100
2000
0000
3000
0000
,
0100
0010
0001
0000
0101
0000
1010
0000
,
0010
0000
0100
0001
2000
0000
3000
0000
,
0001
0010
1000
0000
0110
0000
1001
0000
,
0010
0000
1000
0100
0002
0000
0003
0000
,
0100
0010
0100
0000
0001
1000
0001
0000
,
0010
0001
0100
2000
0000
0000
3000
0000
,
0020
0000
0000
0000
,
0030
0000
0000
0000
;

//---------------dance-single - ----------------
#NOTES:
     dance-single:
     :
     Hard:
     10:
     :
0000
0000
0000
0000
,
0000
0000
0000
0000
,
0000
0000
0000
0000
,
0000
0000
0000
0000
,
0002
0103
0101
1100
,
1001
0000
0010
0000
1000
0000
0100
0010
,
0002
0000
0103
0000
0010
1000
0001
0000
,
1100
0000
0110
0000
0011
0000
1000
0001
,
0200
0000
0310
1000
0100
0010
0001
0000
,
1000
0001
0010
0200
0000
0000
0300
0000
,
2000
0002
3003
0000
1001
0000
0010
0100
,
0001
0000
0000
0010
0000
0000
0100
0000
0000
0000
1000
0000
0010
0000
0100
0000
,
0001
0000
0010
0100
1000
0000
0010
1000
,
0001
0000
0000
0100
0000
0000
0010
0000
0000
0000
1000
0000
0100
0000
1000
0000
,
0001
0010
0100
1000
0000
0000
0010
1000
,
0100
0000
0000
0010
0000
0000
0001
0000
0000
0000
1000
0000
0001
0000
0100
0000
,
0010
0000
0100
0001
1000
0000
0001
0010
,
0001
0000
0000
1000
0000
0000
0010
0000
0000
0000
0100
0000
0010
0000
1000
0000
,
0100
0010
0001
2000
0000
0000
3000
0010
,
1000
0010
0100
0010
1000
0000
0001
0100
,
0010
0000
1000
0001
0200
0000
0300
0001
,
1000
0010
0100
0010
1000
0000
0001
0100
,
0010
0000
0100
0001
2000
0000
3000
0100
,
1000
0010
1000
0001
0100
0000
0001
1000
,
0010
0000
1000
0001
0200
0000
0300
0001
,
1000
0010
0100
0001
1000
0000
0010
0100
,
0001
0010
0100
2000
0000
0000
3010
0100
,
0001
0000
0011
0000
0001
0100
0010
1000
,
0100
0000
0010
0001
1000
0000
0010
0100
,
0001
0000
0101
0000
1000
0001
0100
0010
,
1000
0100
0001
0000
0010
0100
1000
0000
,
1010
0000
0101
0000
1000
0010
0100
0001
,
0010
0000
0001
1000
0100
1000
0001
0000
,
0011
0000
1100
0000
0010
1000
0001
0000
,
1010
0101
1100
0011
,
1001
0000
0010
0000
0100
0000
0001
1000
,
0001
0000
0010
0000
0001
0100
1000
0000
,
0101
0110
1010
0100
,
1001
0000
0001
0000
0010
0001
1000
0000
,
0100
1000
0001
0020
0000
0000
0030
0000
,
0002
2000
3003
0000
1100
0000
0101
0000
,
0010
1000
0100
0010
0001
0000
1000
0001
,
0100
0000
0000
0010
0000
0000
1000
0000
0000
0000
0001
0000
0001
0000
0010
0000
,
0001
0000
0100
0010
1000
0000
0100
1000
,
0001
0000
0000
1000
0000
0000
0010
0000
0000
0000
0100
0000
0100
0000
0010
0000
,
1000
0100
0010
0002
0000
0000
0013
0001
,
1000
0000
0000
0100
0000
0000
1000
0000
0000
0000
0010
0000
0010
0000
0100
0000
,
0001
0000
1000
0001
0010
0000
0100
1000
,
0010
0000
0000
1000
0000
0000
0001
0000
0000
0000
0100
0000
0100
0000
0010
0000
,
1000
0000
0100
0000
0010
0000
0002
0000
0000
0000
0000
0000
0003
0000
1000
0001
,
1000
0010
0100
0010
1000
0000
0001
0100
,
0010
0000
0000
0000
1000
0000
0100
0000
0002
0000
0000
0000
0003
0000
0100
0001
,
0100
0010
1000
0001
1000
0000
0001
0100
,
0010
0000
0000
0000
0100
0000
0001
0000
2000
0000
0000
0000
3000
0000
0100
1000
,
0100
0010
0001
0100
0001
0000
1000
0100
,
0010
0000
0000
0000
0001
0000
0100
0000
2000
0000
0000
0000
3000
0000
0001
1000
,
0001
0010
0100
1000
0010
0000
1000
0001
,
0100
0010
1000
0002
0000
0000
0003
0000
,
2000
0002
0000
0000
0000
0000
0000
0000
,
0003
0000
0000
0000
,
0000
0000
0000
3000
;

//---------------dance-single - ----------------
#NOTES:
     dance-single:
     :
     Challenge:
     13:
     :
0000
0000
0000
0000
,
0000
0000
0000
0000
,
0000
0000
0000
0000
,
0000
0000
0000
0000
,
0001
0010
0100
1000
0000
0000
0001
0100
0010
1000
0000
0000
,
1001
0000
0000
0000
0010
0000
0100
0000
0001
0000
0000
0000
1000
0100
1000
0100
,
1000
0000
0000
0000
0010
0000
0100
0000
0010
0000
1000
0000
0001
0000
0010
0100
,
0010
0000
0001
0000
0100
0000
0010
0000
1000
0000
0000
0000
0001
0100
0001
0100
,
0001
0000
0000
0000
0010
0000
0001
0000
1000
0000
0010
0000
0100
0000
0001
1000
,
0001
0010
0100
1000
0010
0100
0001
1000
,
0020
0000
0200
0000
0330
0000
0000
0000
1001
0000
1001
0000
1000
0010
1000
0010
,
1000
0000
0100
0000
0010
0000
0001
0000
1000
0000
0010
0000
0010
0000
0100
0001
,
0100
0000
0000
0010
0000
1000
0100
1000
0100
0000
0000
0000
0110
0000
0001
0010
,
0001
0000
0100
0000
0010
0000
1000
0000
0100
0000
0010
0000
0010
0000
0001
1000
,
0001
0000
0100
0000
0010
0000
1000
0000
0100
0000
0000
0000
1000
0001
1000
0001
,
1000
0000
0010
0000
0100
0000
0001
0000
0010
0000
0100
0000
0100
0000
1000
0010
,
1000
0000
0000
0001
0000
0100
0010
0100
0010
0000
0000
0000
0110
0000
0001
1000
,
0001
0000
0010
0000
0100
0000
1000
0000
1000
0010
1000
0000
0100
0000
0010
0000
,
0001
0000
1000
0000
0010
0000
0100
0000
0001
0000
0000
0000
0011
0000
1000
0100
,
1000
0000
0010
0000
0001
0000
0010
0000
1000
0000
0100
1000
0000
1000
0001
0000
,
0010
0000
0000
0000
0001
0000
0100
0000
1000
0010
1000
0010
1000
0000
0001
0100
,
0001
0000
0010
0000
1000
0000
0010
0000
0001
0000
0100
0010
0000
0010
1000
0000
,
0010
0000
0000
0000
1000
0000
0100
0000
0001
0010
0001
0010
0001
0000
1000
0100
,
1000
0000
0010
0000
0001
0000
0010
0000
1000
0000
0100
0010
0000
0010
0001
0000
,
0010
0000
0000
0000
0001
0000
0100
0000
1000
0001
1000
0001
1000
0000
0001
0100
,
0001
0000
0010
0000
1000
0000
0010
0000
0001
0000
1000
0001
0000
0001
0100
0000
,
0010
0000
1000
0000
0001
0000
0100
0000
0110
0000
0000
0000
1001
0000
0100
0010
,
0200
0000
0000
0000
0301
0000
0001
0000
0001
0000
0100
0000
0010
0000
1000
0100
,
1000
0000
0010
0000
0100
0000
0001
0000
0010
0000
0100
0000
1000
0000
0001
0100
,
0002
0000
0000
0000
0013
0000
0001
0000
0100
0000
0010
0000
1000
0000
0001
0100
,
0001
0000
0010
0000
0100
0000
0010
0000
0001
0000
1000
0000
0100
1000
0100
1000
,
0200
0000
0000
0000
0310
0000
0010
0000
0010
0000
0001
0000
0100
0000
0001
1000
,
0001
0000
0100
0000
0010
0000
1000
0000
0100
0000
1000
0000
0001
0000
0010
0100
,
0020
0000
0000
0000
0031
0000
1000
0000
0010
0000
1000
0000
0100
0000
0010
0001
,
0010
0100
1000
0001
0000
0000
0100
0010
1000
0001
0000
0000
,
1001
0000
0000
0000
0100
0000
0010
0000
1000
0000
0000
0000
0001
0100
0001
0100
,
0001
0000
0000
0000
0010
0000
0100
0000
1000
0000
0010
0000
0100
0000
0001
1000
,
0001
0000
0000
0000
0011
0000
0000
0000
1100
0000
0000
0000
0010
1000
0010
1000
,
0010
0000
0000
0000
0100
0000
0001
0000
0010
0000
0100
0000
1000
0000
0010
0100
,
0010
1000
0100
0001
,
0020
0200
0330
0000
1001
1001
0110
0000
,
1000
0001
1000
0001
1000
0001
1000
0001
1000
0000
0000
0000
0010
0100
0001
0100
,
0010
0000
1000
0000
0100
0000
0010
0000
0001
0000
0100
0000
0100
0000
0010
1000
,
0001
0000
0000
0010
0000
0001
0010
0100
1000
0000
0000
0000
0010
1000
0100
1000
,
0010
0000
0100
0000
0010
0000
1000
0000
0100
0000
0001
0000
0001
0000
0100
1000
,
0010
0000
0100
0000
0001
0000
1000
0000
0100
0000
0010
0000
0001
1000
0100
1000
,
0001
0000
0100
0000
0010
0000
1000
0000
0001
0000
1000
0000
1000
0000
0100
0010
,
0001
0000
0000
0100
0000
0010
0100
0001
1000
0000
0100
0000
0100
0000
1000
0001
,
0010
0000
0001
0000
0100
0000
0010
0000
1000
0100
1000
0000
0100
0010
0001
1000
,
0001
0000
0100
0000
0010
0000
1000
0000
0101
0000
0000
0000
1000
0010
0100
0001
,
1000
0000
0010
0000
0001
0000
0010
0000
1000
0000
0100
0010
0000
0010
0001
0000
,
0010
0000
0000
0000
0001
0000
0100
0000
1000
0000
0001
0100
0001
0000
1000
0010
,
0100
0000
0010
0000
0001
0000
0010
0000
1000
0000
0100
1000
0000
1000
0001
0000
,
0010
0000
0000
0000
0001
0000
0100
0000
1000
0000
0010
0000
0100
0001
0010
0100
,
1000
0000
0010
0000
0001
0000
0010
0000
1000
0000
0100
0010
0000
0010
0001
0000
,
0010
0000
0000
0000
0001
0000
0100
0000
1000
0000
0000
0000
1010
0000
0001
1000
,
0100
0000
0010
0000
1000
0000
0010
0000
0001
0000
0100
0010
0000
1000
0001
0000
,
1000
0010
0100
0001
1000
0100
0010
0001
,
2000
0002
0000
0000
0000
0000
0000
0000
,
0003
0000
0000
0000
,
0000
0000
0000
3000
;

//---------------dance-single - INFERNO----------------
#NOTES:
     dance-single:
     :
     Edit:
     16:
     :
0000
0000
0000
0000
,
0000
0000
0000
0000
,
0000
0000
0000
0000
,
0000
0000
0000
0000
,
0001
0010
0100
1000
0000
0000
0001
0100
0010
1000
0100
0010
,
0001
0000
0000
0000
0100
0000
0010
0000
0100
0000
0010
0000
1000
0001
0100
0010
,
2000
0000
0000
0000
3010
0000
0100
0000
0001
1000
0000
0010
0000
1000
0100
0010
,
0001
0000
0100
0000
0110
0000
0010
0000
1010
0000
0000
0000
1000
0100
0010
0001
,
0100
0000
0001
1000
0010
1000
0100
0000
0010
0001
0100
0000
0010
1000
0001
1000
,
0100
0000
0000
0010
0000
0000
0001
0000
0000
0100
0000
0000
0010
0000
1000
0000
0001
0000
0010
0000
0100
0000
1000
0000
,
0002
0000
2000
0000
3003
0000
0000
0000
1001
0000
1001
0000
0010
0100
0001
1000
,
0100
0000
0010
0001
0000
0010
0100
1000
0000
0001
0000
0001
0000
1000
0010
0100
,
0001
0000
0000
0010
0000
0001
0100
0010
1000
0100
0010
0100
1000
0000
0001
0100
,
0010
0000
1000
0001
0000
0010
0100
1000
0000
0001
0000
0001
0000
0100
0010
1000
,
0001
0010
0100
0010
0001
0000
1000
0100
1000
0010
0100
0000
0001
1000
0010
0100
,
0001
0000
0010
0100
0000
0010
0001
1000
0000
0100
0000
0100
0000
1000
0001
1000
,
0010
0000
0100
0001
0000
0010
0001
1000
0100
0000
0010
0001
1000
0100
1000
0010
,
0100
0001
0010
0001
0000
0010
0100
1000
0001
1000
0100
0000
1000
0010
1000
0001
,
0100
0010
1000
0010
0100
0000
0001
0000
0010
0100
1000
0000
0110
0000
0001
1000
,
0100
0000
0010
0001
0010
0001
0100
0010
1000
0100
1000
0001
0010
0100
1000
0001
,
0010
0000
0001
0100
0001
1000
0100
1000
0010
0100
0001
1000
0100
0000
1000
0001
,
1000
0000
0010
0100
0001
0010
0001
1000
0100
1000
0010
0100
0001
0010
0001
1000
,
0010
0000
0100
0001
1000
0010
1000
0001
0100
0010
1000
0010
0100
0010
1000
0001
,
0100
0000
0010
1000
0100
1000
0001
0010
0001
0100
0001
0010
0100
1000
0001
0100
,
0010
0000
1000
0001
1000
0010
0100
0001
0010
0100
1000
0100
0010
0000
0001
1000
,
0001
0000
0010
0100
0010
0001
1000
0001
0100
0010
1000
0100
1000
0010
0100
0001
,
0010
0000
0100
0000
1100
0000
0001
0000
0101
0000
0000
0000
0010
0001
0010
0100
,
1000
0000
0000
0000
1010
0000
1010
0000
1000
0001
0000
0010
0000
0001
0100
0010
,
1000
0000
0100
0000
0001
0000
0100
0000
0010
0100
0000
1000
0000
0010
0100
0001
,
1000
0000
0000
0000
0101
0000
0101
0000
0010
0100
0000
0001
0000
1000
0001
0100
,
1000
0000
0100
0000
0010
0000
0100
0000
0001
1000
0000
0010
1000
0100
0001
0100
,
0010
0000
0000
0000
0011
0000
0011
0000
1000
0001
0000
0010
0001
0100
0010
1000
,
0100
0000
0001
0000
0100
0000
0010
0000
0100
1000
0000
1000
0001
0100
0010
1000
,
0001
0000
0010
0001
0100
0010
0100
0000
0001
1000
0100
1000
0010
0100
0001
1000
,
0001
0100
0010
1000
0000
0000
0001
1000
0010
0100
0001
1000
,
0010
0000
0000
0000
1000
0000
0001
0000
1000
0000
0001
0000
0100
0010
1000
0001
,
0020
0000
0000
0000
0031
0000
0100
0000
0010
1000
0000
0100
0000
1000
0010
0100
,
0001
0000
0010
0000
0011
0000
0100
0000
1010
0000
1000
0010
1000
0100
0010
0001
,
0100
0000
0010
0000
1000
0000
1000
0000
0100
0010
0000
0010
0001
0100
0001
1000
,
0010
1000
0100
0010
0001
0100
0001
0000
1000
0010
1000
0000
0100
0010
0001
0000
,
2000
0002
3003
0000
1001
1001
0110
0000
,
1000
0010
0100
0001
1000
0100
0010
0001
0100
0000
0000
0000
0010
1000
0001
0100
,
0010
0000
1000
0100
0000
0010
0001
0100
0001
1000
0000
1100
0000
0100
0010
0001
,
0100
0000
0010
1000
0000
0100
1000
0001
0010
0100
0001
0100
1000
0000
0010
0100
,
0001
0000
0010
0001
0000
0100
0010
1000
0001
0100
0000
0101
0000
0010
0001
1000
,
0100
0010
0100
0010
0001
1000
0100
0000
0010
0001
0010
0000
0001
0100
0010
1000
,
0100
0010
0100
1000
0000
0010
0100
0001
1000
0010
0000
1100
0000
0100
1000
0001
,
0100
0000
0010
1000
0000
1000
0100
0010
0001
0100
0010
0100
0001
0000
1000
0100
,
0010
0000
0001
0100
0001
0010
0100
1000
0010
0100
0010
1000
0100
0010
0001
0100
,
0010
1000
0100
0010
0001
0000
0100
0000
0110
0000
0000
0000
0010
1000
0001
0100
,
0001
0000
0010
0100
0010
0001
0100
0010
1000
0001
1000
0100
0010
1000
0010
0001
,
0010
0000
0100
0010
0001
0100
0010
1000
0001
0100
0010
0100
0001
0000
1000
0001
,
1000
0000
0010
0100
0010
1000
0100
0010
0001
0100
0001
0010
0001
1000
0100
1000
,
0010
0100
0010
1000
0100
0010
0001
0100
0001
0010
0100
0000
1000
0001
1000
0001
,
1000
0000
0010
0100
0001
0010
0001
1000
0100
1000
0001
1000
0010
0100
0001
1000
,
0010
0000
1000
0100
1000
0010
0100
0001
0010
1000
0010
0001
0100
0000
0010
1000
,
0001
0000
0010
0000
0100
0000
1000
0000
0001
0100
0010
0100
0001
1000
0010
1000
,
0100
0010
0001
0100
1010
0001
0101
0000
,
2000
0002
0000
0000
0000
0000
0000
0000
,
0003
0000
0000
0000
,
0000
0000
0000
3000
;
