#TITLE:If I Had You;
#ARTIST:Adam Lambert;
#BANNER:If I Had You-bn.png;
#BACKGROUND:If I Had You-bg.png;
#JACKET:If I Had You-jacket.png;
#MUSIC:If I Had You.ogg;
#SAMPLESTART:36.599;
#SAMPLELENGTH:20;
#DISPLAYBPM:131;
#BPMS:0=131.15;
#BGCHANGES:;

//---------------dance-single - ----------------
#NOTES:
     dance-single:
     :
     Beginner:
     3:
     :
0000
0000
0000
0000
,
0000
0000
0000
0000
,
0000
0000
0000
0000
,
0000
0000
0000
0000
,
0000
0000
0000
0000
,
0010
0000
0010
0000
,
0001
0000
1000
0000
,
0010
0000
0010
0000
,
1000
0000
0001
0000
,
0100
0000
0100
0000
,
0100
0000
0100
0000
,
0001
0000
1000
0000
,
0001
0000
0000
0000
,
1000
0000
0010
0000
,
0100
0000
0001
0000
,
1000
0000
0100
0000
,
0010
0000
0001
0000
,
0100
0000
0100
0000
,
0010
0000
0010
0000
,
2000
0000
3000
0000
,
0002
0000
0003
0000
,
1001
0000
0000
0000
,
0100
0100
0100
0000
,
0001
0000
1000
0000
,
0000
0000
0010
0000
,
0110
0000
0000
0000
,
0001
0001
0001
0000
,
0010
0000
0100
0000
,
0000
0000
1000
1000
,
1000
0000
0000
0000
,
0010
0010
0010
0000
,
0100
0000
0010
0000
,
0000
0000
1000
1000
,
1000
0000
0000
0001
,
0001
0000
0000
0100
,
0100
0000
0000
0010
,
0010
0000
1000
0000
,
0001
0000
0001
0000
,
0001
0000
0000
0000
,
0100
0000
0100
0000
,
0100
0000
0000
0000
,
1000
0000
1000
0000
,
1000
0000
0000
0000
,
0010
0000
0010
0000
,
0010
0000
0100
0000
,
0010
0000
0010
0000
,
0010
0000
0000
0000
,
1000
0000
1000
0000
,
1000
0000
0000
0000
,
0001
0000
0001
0000
,
0001
0000
0000
0000
,
0100
0000
0100
0000
,
0200
0000
0000
0000
,
0300
0000
0000
0000
,
1000
0000
0001
0000
,
0100
0000
0010
0000
,
0000
0000
1000
0000
,
0020
0000
0030
0000
,
0100
0000
0001
0000
,
1000
0000
0001
0000
,
0000
0000
0100
0100
,
0100
0000
0000
0000
,
0001
0001
0001
0000
,
0100
0000
0010
0000
,
0000
0000
0100
0100
,
0100
0000
0000
0001
,
0001
0000
0000
1000
,
1000
0000
0000
0010
,
0010
0000
0110
0000
,
1001
0000
0000
0000
;

//---------------dance-single - ----------------
#NOTES:
     dance-single:
     :
     Easy:
     8:
     :
0000
0000
0000
0000
,
0000
0000
0000
0000
,
0000
0000
0000
0000
,
0000
0000
0000
0000
,
0000
0000
0000
0010
,
0001
0100
0010
1000
,
0001
0100
1000
1000
,
0001
1000
0010
0100
,
0100
0001
0010
0001
,
0010
0100
1000
0010
,
1000
0100
1000
0001
,
0100
0010
1000
0001
,
0100
0000
0000
0000
0000
0000
0001
0100
,
0020
0000
0000
2030
0000
0000
3001
0100
,
0002
0000
0000
0023
0000
0000
0130
1000
,
0002
0000
0000
2003
0000
0000
3010
0100
,
0020
0000
0000
0230
0000
0000
0301
1000
,
0002
0000
0000
0203
0000
0000
0310
1000
,
0200
0000
0000
2300
0000
0000
3001
0010
,
0200
0000
0000
0000
0300
1000
0002
0000
,
0103
0000
0100
0000
0100
0001
1000
0000
,
1001
0010
0110
0001
,
0010
0001
0100
0000
0010
1000
0100
0000
,
2000
0000
3000
0010
0200
0000
0300
0000
,
0002
0000
0003
0000
1000
0010
0100
0000
,
0110
0001
1001
0010
,
1000
0100
1000
0000
0001
0100
0001
0000
,
0020
0000
0030
0001
2000
0000
3000
0000
,
0200
0000
0300
1000
0001
0000
0001
0000
,
0100
0010
0000
0000
1000
0001
0000
0010
,
0000
0001
0100
1000
,
0020
0000
0030
2000
0002
0000
3003
0000
,
0200
0000
0300
0000
0001
1000
0010
0000
,
1010
0000
0000
0101
0000
0001
0010
0000
,
1100
0000
0000
0011
0000
1000
0001
0000
,
0110
0000
0000
1001
0000
1000
0100
0000
,
1000
0000
0010
0000
0001
0100
0001
0000
,
1000
0001
0000
1000
0001
0000
1000
0001
,
0000
0010
0000
0010
,
0001
0100
0000
0001
0100
0000
0001
0100
,
0000
0000
0000
0000
0010
0000
0000
0000
0000
0000
0010
0100
0010
0000
0000
0000
,
1000
0010
0000
1000
0010
0000
1000
0010
,
0000
0100
0000
0100
,
0002
0000
0000
0023
0000
0000
0230
0000
,
0000
0300
2000
3002
,
0103
0010
0000
0100
0010
0000
0100
0010
,
0000
1000
0000
0001
,
1000
0100
0000
1000
0100
0000
1000
0100
,
0000
0000
0000
0000
0010
0000
0000
0000
0000
0000
0010
0100
0010
0000
0000
0000
,
0001
0010
0000
0001
0010
0000
0001
0010
,
0000
0001
0000
1000
,
0020
0000
0000
2030
0000
0000
3002
0000
,
0000
0000
0000
0000
,
0003
0000
0000
0000
,
1000
0010
0001
0100
,
0020
0000
2000
3030
,
0000
0000
0100
1000
,
0001
0000
0000
0000
,
0010
0100
0001
1000
,
0002
0000
0200
0303
,
0000
0000
0000
1000
0001
0000
0001
0000
,
1000
0010
0000
0000
0100
0001
0000
1000
,
0000
0010
0100
0001
,
2000
0000
3000
0020
0200
0000
0330
0000
,
0002
0000
0003
0000
0010
0100
1000
0000
,
1100
0000
0000
0101
0000
0010
0100
0000
,
1010
0000
0000
0011
0000
0001
1000
0000
,
0110
0000
0000
1001
0000
1000
0100
0000
,
0110
0000
0000
0000
0001
0100
1000
0000
,
1001
0000
0000
0000
;

//---------------dance-single - ----------------
#NOTES:
     dance-single:
     :
     Medium:
     10:
     :
0000
0000
0000
0000
,
0000
0000
0000
0000
,
0000
0000
0000
0000
,
0000
0000
0000
0000
,
0000
0000
0000
0000
,
0010
0000
0010
0000
0010
0000
0010
0001
,
0100
0000
0100
0000
0100
0010
1000
0010
,
0100
0000
0100
0000
0010
0000
0100
0001
,
1000
0000
1000
0000
1000
0100
0010
0001
,
1000
0000
1000
0000
1000
0000
1000
0010
,
0100
0000
0100
0000
0100
0001
0010
0001
,
0100
0000
0100
0000
0100
0000
0100
0010
,
1000
0000
1000
0000
1000
0001
0100
0010
,
1000
0000
1100
0000
0011
0000
0100
0010
,
1000
0000
1001
0000
0010
0001
0100
0010
,
1000
0000
1010
0000
0101
0000
0001
0010
,
0100
0000
0110
0000
0010
0001
1000
0010
,
1000
0000
1010
0000
0011
0000
0010
0001
,
0100
0000
0110
0000
0001
0010
0001
1000
,
0100
0000
1001
0000
0010
1000
0001
0100
,
0001
0001
1000
1000
0001
0100
0010
0000
,
0101
0010
1000
0000
1100
0001
0100
0000
,
0010
1000
0010
0100
0010
1000
0010
0100
,
0002
0000
0000
1000
2000
0000
3003
0000
,
0010
1000
0100
1000
0001
0100
0001
0000
,
0011
1000
0100
0000
1010
0001
0010
0000
,
0001
0100
0010
0100
0001
0010
0100
1000
,
0020
0000
0000
0100
0200
0000
0330
0000
,
0010
1000
0001
0100
0110
0000
0110
0000
,
1001
0010
0100
0000
0001
1000
0000
0101
,
0000
0010
1000
0100
1000
0010
0100
0001
,
2000
0000
0000
0000
3000
0000
0001
0100
0002
0000
0000
0000
0003
0000
0000
0000
,
0010
0001
0010
0100
1000
0001
1000
0000
,
1010
0000
0000
0000
0000
0000
0101
0000
0000
0000
1000
0000
0010
0100
0010
0000
,
0110
0000
0000
0000
0000
0000
1001
0000
0000
0000
0001
0000
1000
0100
1000
0000
,
1100
0000
0000
0000
0000
0000
0011
0000
0000
0000
0100
0000
0001
1000
0001
0000
,
0100
0010
1000
0001
1000
0100
0010
0000
,
0001
0001
0000
1000
1000
0000
0010
0010
,
0000
1000
0200
0000
0301
0200
0000
0310
,
0100
0100
0000
1000
1000
0000
0001
0001
,
0000
0100
0001
0000
1000
0010
0000
0100
,
0001
0001
0000
0010
0010
0000
0100
0100
,
0000
1000
0002
0000
0013
0002
0000
0103
,
0002
0000
0000
2003
0000
0000
3020
0000
,
0000
0000
0000
0000
1030
0100
0001
0100
,
1000
1000
0000
0010
0010
0000
0100
0100
,
0000
0001
0020
0000
1030
0020
0000
0130
,
0010
0010
0000
0001
0001
0000
0100
0100
,
0000
0010
1000
0000
0100
1000
0000
0001
,
0100
0100
0000
0001
0001
0000
1000
1000
,
0000
0010
2000
0000
3100
2000
0000
3001
,
2000
0000
0000
3020
0000
0000
0230
0000
,
0000
0000
0000
0000
,
0300
0000
0000
0000
,
0001
0100
1000
0000
0001
0010
1000
0000
,
0020
0000
0000
0100
0200
0000
0330
0000
,
0000
0000
0000
0000
1000
0001
0200
0000
,
0020
0000
0000
0330
,
1000
0100
0001
0000
1000
0010
0001
0000
,
2000
0000
0000
0001
0002
0000
3003
0000
,
0000
0000
0000
1000
1001
0000
1001
0000
,
0110
0001
0100
0000
0010
1000
0000
1100
,
0000
0001
1000
0010
1000
0100
0010
0001
,
0200
0000
0000
0000
0300
0000
0001
1000
0002
0000
0000
0000
0003
0000
0000
0000
,
0010
0001
0100
0010
1000
0100
0001
0000
,
0011
0000
0000
0000
0000
0000
1010
0000
0000
0000
1000
0000
0001
0100
0001
0000
,
0101
0000
0000
0000
0000
0000
1100
0000
0000
0000
0010
0000
1000
0001
1000
0000
,
1001
0000
0000
0000
0000
0000
0110
0000
0000
0000
0001
0000
1000
0010
1000
0000
,
1010
0000
0000
0001
0100
0010
1000
0000
,
1001
0000
0000
0000
;

//---------------dance-single - ----------------
#NOTES:
     dance-single:
     :
     Hard:
     13:
     :
0000
0000
0000
0000
,
0000
0000
0000
0000
,
0000
0000
0000
0000
,
0000
0000
0000
0000
,
0000
0000
0000
0000
0000
0000
0010
0001
,
0100
0001
1000
0000
1000
0000
1000
0100
,
0010
0000
0010
0001
0100
1000
0100
0001
,
1000
0100
0010
0000
0010
0000
0010
0001
,
1000
0000
1000
0010
0100
0010
1000
0001
,
0010
0001
0100
0000
0100
0000
0100
0010
,
1000
0000
1000
0100
1000
0010
0100
0001
,
1000
0001
0100
0000
0100
0000
0100
0010
,
1000
0000
1000
0000
1000
1000
1000
0001
,
0010
0000
1001
0001
0100
0000
0010
1000
,
0100
0000
0110
1000
0001
0100
0001
1000
,
0010
0000
0101
0010
1000
0000
0100
0010
,
0001
0000
1100
0001
0100
0010
0100
0001
,
0010
0000
0011
0100
0010
0000
1000
0001
,
0100
0000
1010
0010
1000
0100
1000
0001
,
0110
0000
1001
0000
1000
0010
0100
0001
,
0010
0100
0010
0100
1000
0100
1000
0100
1000
0010
1000
0010
0100
0000
0000
0000
,
1010
0001
0100
0010
0101
0010
1000
0001
,
1000
0010
0100
1000
0100
0001
0010
0001
,
2000
0010
3010
0100
0002
1000
1003
0000
,
0100
0001
0010
0001
1000
1000
1000
0000
,
1100
0001
1000
0100
0011
0001
0100
0010
,
1000
0100
0001
0100
0010
1000
0010
0001
,
0200
0010
0310
1000
0002
0100
0103
0000
,
0001
0010
0100
1000
1001
0000
1001
0000
,
0110
0001
0100
0010
1000
0100
1000
0002
,
0000
0100
0103
0010
0001
0010
1000
0001
,
0200
0000
0010
0000
0310
0000
1000
0001
2000
0000
0100
0000
3100
0000
0010
0000
,
0001
0100
0010
1000
0100
0100
0100
0000
,
0011
0000
0000
0000
1000
0000
1100
0000
0000
0000
0001
0000
0001
0100
0010
0000
,
1010
0000
0000
0000
0001
0000
0101
0000
0000
0000
0010
0000
0010
1000
0100
0000
,
1100
0000
0000
0000
0010
0000
0101
0000
0000
0000
1000
0000
1000
0001
0100
0000
,
0110
0010
1000
0100
0001
0100
1000
0000
,
1100
1100
0000
0011
0011
0000
1001
1001
,
0000
0010
0010
1000
0100
0100
1000
0001
,
0101
0101
0000
1010
1010
0000
0110
0110
,
0000
0000
0001
0000
0001
0000
1000
0000
0010
0000
0010
0100
0001
0000
1000
0000
,
1100
1100
0000
1010
1010
0000
1001
1001
,
0000
0010
0100
0000
1000
0100
0000
0001
,
2000
0010
3010
0200
0001
0301
0020
0100
,
0130
0000
1000
0000
0001
0000
0000
0000
0010
0000
0001
0100
1000
0000
0010
0000
,
0110
0110
0000
1001
1001
0000
0110
0110
,
0001
0100
1000
0100
0001
0100
1000
0100
,
0101
0101
0000
1100
1100
0000
0101
0101
,
0010
0000
1000
0000
0100
0000
1000
0000
0010
0000
1000
0100
1000
0000
0010
0000
,
1010
1010
0000
0011
0011
0000
1010
1010
,
0100
1000
0100
0001
0100
1000
0100
0001
,
0020
0001
0031
2000
0010
3010
0200
0001
,
0302
0000
1000
0000
1000
0000
0000
0000
0013
0000
0001
0100
1000
0000
0010
0000
,
0000
0000
0000
0000
,
1000
0100
0001
0100
1000
0010
0001
0010
,
2000
0000
0000
0001
0002
0000
3003
0000
,
0000
0000
0000
1000
0100
0010
0002
0000
,
0200
0000
0000
0000
0000
0000
0303
0010
,
0100
0010
0001
0010
1000
0100
1000
0001
,
0200
0000
0000
0010
0020
0000
0330
0000
,
0000
0000
0000
1000
1001
0000
1001
0000
,
0110
0001
0100
0010
0100
0001
1000
0020
,
0000
0100
0130
0010
1000
0100
1000
0001
,
0020
0000
0001
0000
0031
0000
1000
0010
2000
0000
0100
0000
3100
0000
0000
0000
,
0001
0100
0010
0100
1000
0100
0001
0000
,
0011
0000
0000
0000
1000
0000
1100
0000
0000
0000
0001
0000
0001
0010
0100
0000
,
1100
0000
0000
0000
0010
0000
0101
0000
0000
0000
0001
0000
0001
1000
0100
0000
,
1010
0000
0000
0000
0001
0000
0011
0000
0000
0000
0100
0000
0100
0010
1000
0000
,
0001
0100
1000
0100
0001
0001
0001
0000
,
1002
1000
1000
1000
,
1003
0000
0000
0000
;
