#TITLE:INTO YOUR HEART (Ruffage remix);
#ARTIST:NAOKI feat. YASMINE;
#BANNER:INTO YOUR HEART (Ruffage remix).png;
#BACKGROUND:INTO YOUR HEART (Ruffage remix)-bg.png;
#JACKET:INTO YOUR HEART (Ruffage remix)-jacket.png;
#MUSIC:INTO YOUR HEART (Ruffage remix).ogg;
#SAMPLESTART:2.57;
#SAMPLELENGTH:20;
#DISPLAYBPM:135;
#BPMS:0=135.338,4=134.997;
#BGCHANGES:;

//---------------dance-single - ----------------
#NOTES:
     dance-single:
     :
     Beginner:
     3:
     :
0000
0000
0000
0000
,
0000
0000
0000
0000
,
0000
0000
0000
0000
,
0000
0000
0000
0000
,
0000
0000
0000
0000
,
0000
0000
0000
0000
,
0000
0000
0000
0000
,
0000
0000
0000
0000
,
0000
0000
0000
0000
,
0000
0000
0000
0000
,
1000
0000
1000
0000
,
0001
0000
0001
0000
,
0001
0000
0100
0000
,
0010
0000
0000
0000
,
1000
0000
1000
0000
,
0001
0000
0001
0000
,
1000
0000
0010
0000
,
1001
0000
0000
0000
,
0010
0000
0000
0000
,
1000
0000
0000
0000
,
0001
0000
1000
0000
,
0001
0000
0100
0000
,
0100
0000
0000
0000
,
0001
0000
0000
0000
,
1000
0000
0000
0000
,
0000
0010
0010
0010
,
0010
0000
0000
0000
,
0001
0000
0000
0000
,
1000
0000
0001
0000
,
1000
0000
0100
0000
,
0100
0000
0000
0000
,
1000
0000
0000
0000
,
0001
0000
0000
0000
,
0000
0001
1000
1000
,
0001
0000
0001
0000
,
1000
0000
1000
0000
,
1000
0000
0100
0000
,
0010
0000
0000
0000
,
0001
0000
0001
0000
,
1000
0000
1000
0000
,
0100
0000
0000
0000
,
0000
1000
0001
0001
,
1000
0000
1000
0000
,
0001
0000
0001
0000
,
0001
0000
0100
0000
,
0010
0000
0000
0000
,
1000
0000
1000
0000
,
0001
0000
0001
0000
,
0010
0000
1000
0000
,
0010
0000
0001
0000
,
1001
0000
0000
0000
,
0000
0000
0000
0000
;

//---------------dance-single - ----------------
#NOTES:
     dance-single:
     :
     Easy:
     4:
     :
0000
0000
0000
0000
,
0000
0000
0000
0000
,
0000
0000
0000
0000
,
0000
0000
0000
0000
,
0000
0000
0000
0000
,
0000
0000
0000
0000
,
1000
0000
1000
0000
,
0001
0000
0001
0000
,
0100
0000
0000
0001
,
0001
0000
0100
0100
,
0001
0000
0000
0001
,
0010
0000
0000
0010
,
1000
0000
0000
1000
,
0100
0000
0000
0100
,
0001
0000
0001
0000
,
1000
0000
1000
0000
,
0010
0000
0000
0000
,
0000
0000
0100
0100
,
0010
0000
0000
0000
,
1000
0100
0010
0001
,
1000
0000
0010
0000
,
0001
0000
0000
0000
,
0100
0000
0000
0000
,
0001
0010
0100
1000
,
1000
0000
0000
0000
,
0000
0010
0001
0001
,
0010
0000
0000
0000
,
0001
0100
0010
1000
,
0001
0000
0010
0000
,
1000
0000
0000
0000
,
0100
0000
0000
0000
,
1000
0010
0100
0001
,
0001
0000
0000
0000
,
0110
0000
0010
0010
,
1000
0000
0000
1000
,
0100
0000
0000
0100
,
0001
0000
0000
0001
,
0010
0000
0000
0010
,
1000
0000
1000
0000
,
0001
0000
0001
0000
,
0100
0000
0000
0001
,
0001
0000
0100
0100
,
0001
0000
0001
0001
,
0010
0000
0010
0010
,
1000
0000
1000
1000
,
0100
0000
0100
0100
,
0001
0000
0001
0000
,
1000
0000
1000
0000
,
0010
0000
0000
0000
,
0100
0010
1000
0001
,
2002
0000
0000
0000
,
0000
3003
0000
0000
,
0000
0000
0000
0000
;

//---------------dance-single - ----------------
#NOTES:
     dance-single:
     :
     Medium:
     8:
     :
0000
0000
0000
0000
,
0000
0000
0000
0000
,
0000
0000
0000
0000
,
0000
0000
0000
0000
,
0000
0000
0000
0000
,
0000
0000
0000
0000
,
0010
0000
0000
0100
0000
0000
1000
0000
,
0001
0000
0000
1000
0000
0000
0010
0000
,
0100
0000
0100
0100
,
0010
0000
0010
0010
,
0001
0100
0001
0000
0100
0010
0011
0000
,
1000
0010
1000
0000
0010
0100
1100
0000
,
0001
0000
1000
0100
1000
0000
0010
0000
,
0010
0100
0010
0100
0010
0001
0010
0000
,
1000
0010
1000
0000
0010
0100
1100
0000
,
0001
0100
0001
0000
0100
0010
0011
0000
,
0200
0010
1000
0301
,
1001
0000
0000
0110
0000
0000
0001
1000
0001
1000
0000
0000
,
0010
0000
0001
0100
,
0010
0000
0011
0000
0101
0010
1010
0000
,
0010
0000
1000
0001
,
0100
1000
0001
0100
0010
1000
0001
0000
,
0100
0000
0010
0001
1000
0000
0010
0000
,
0100
1100
1010
0001
,
2000
0000
0020
3000
,
0031
1000
0100
0100
,
0010
0000
0001
0100
,
0010
0000
1010
0000
1100
0010
0011
0000
,
0010
0000
0001
1000
,
0100
0001
1000
0100
0010
0001
1000
0000
,
0100
0000
0010
0001
1000
0000
0010
0000
,
0100
0101
0011
1000
,
0002
0000
0020
0003
,
1030
0001
0100
0100
,
1000
0010
1000
0000
0010
1000
1100
0000
,
0001
0100
0001
0000
0100
0001
0011
0000
,
1000
0000
0001
0010
0001
0000
0100
0000
,
0100
0010
0100
0010
0100
1000
0100
0000
,
1000
0010
1000
0000
0010
0100
1100
0000
,
0001
0100
0001
0000
0100
0010
0011
0000
,
0200
0010
1000
0301
,
1000
0001
0100
0100
,
0001
0100
0001
1000
0100
0010
0011
0000
,
1000
0010
1000
0001
0010
0100
1100
0000
,
0001
0000
1000
0100
1000
0000
0110
0000
,
0010
0100
0010
0100
0010
0001
0010
0000
,
0001
0100
0001
1000
0100
0010
0011
0000
,
1000
0010
1000
0001
0010
0100
1100
0000
,
0020
0100
0001
1030
,
0001
1000
0010
0100
,
2002
0000
0000
0000
,
0000
3003
0000
0000
,
0000
0000
0000
0000
;

//---------------dance-single - ----------------
#NOTES:
     dance-single:
     :
     Hard:
     11:
     :
0000
0000
0000
0000
,
0000
0000
0000
0000
,
0000
0000
0000
0000
,
0000
0000
0000
0000
,
0000
0000
0000
0000
,
0000
0000
0000
0000
,
0010
0100
1000
0100
0000
0010
0000
0010
,
0100
1000
0100
0001
0000
0010
0001
0100
,
0110
0000
0100
0010
1010
0000
0100
0001
,
0201
0000
0001
1300
,
0011
0000
0100
0000
1000
0000
0100
0000
0000
0000
0010
0000
0000
0001
0010
0000
,
0100
1000
0100
0001
0100
0010
0001
0100
,
1100
0000
1000
0100
0001
0010
0100
1000
,
0100
1000
0010
0001
0000
0001
0010
1000
,
1010
0000
0010
0000
0001
0000
0010
0000
0000
0000
0100
0000
0000
1000
0100
0000
,
0010
0001
0010
1000
0000
0010
0001
0010
,
0100
0000
0001
0100
0010
0000
1000
0010
,
0001
0000
0000
1000
0000
0000
0001
0000
0000
1000
0000
0000
0001
0000
0100
0000
0010
0000
1000
0000
0000
0000
0000
0000
,
1000
0001
0100
0000
1000
0100
0001
0100
,
1000
0010
0100
1000
0100
0001
0101
0000
,
0020
1000
1030
0100
0200
0010
0310
0001
,
0002
0000
0013
0100
1000
0001
0100
0000
,
0001
1000
0010
0000
0001
0010
1000
0010
,
0001
0100
0010
0001
0010
1000
1010
0000
,
0101
0000
0100
0010
1010
0000
0100
0010
,
0110
0200
0001
1300
,
0001
1000
0010
0000
0001
0010
1000
0010
,
0001
0100
0010
0001
0010
1000
1010
0000
,
0200
0001
0301
0010
0020
0100
0130
1000
,
2000
0000
3100
0010
0001
1000
0010
0000
,
1000
0001
0100
0000
1000
0100
0001
0100
,
1000
0010
0100
1000
0100
0001
0101
0000
,
1010
0000
0010
0100
0101
0000
0010
1000
,
1020
0000
1000
0031
,
1100
0000
0010
0000
0001
0000
0010
0000
0000
0000
0100
0000
0000
1000
0100
0000
,
0010
0001
0010
1000
0010
0100
1000
0010
,
0011
0000
0001
0010
1000
0100
0010
0001
,
0010
0001
0100
1000
0000
1000
0100
0001
,
0101
0000
0100
0000
1000
0000
0100
0000
0000
0000
0010
0000
0000
0001
0010
0000
,
0100
1000
0100
0001
0000
0100
1000
0100
,
0010
0100
1000
0010
0100
0010
0001
0010
,
1000
0001
1000
0001
1000
0001
0100
0010
1000
0001
0000
0000
,
0011
0000
0100
0000
1000
0000
0100
0000
0000
0000
0010
0000
0000
0001
0010
0000
,
0100
1000
0100
0001
0100
0010
0001
0100
,
1100
0000
1000
0100
0011
0010
0100
1000
,
0100
1000
0010
0001
0000
0001
0010
1000
,
1010
0000
0010
0000
0001
0000
0010
0000
0000
0000
0100
0000
0000
1000
0100
0000
,
0010
0001
0010
1000
0000
0010
0001
0010
,
0100
0000
0001
0100
0010
0000
1000
0010
,
0011
0010
0100
0010
1100
0100
0010
0100
,
2200
0000
0000
0000
,
0000
3300
0000
0000
,
0000
0000
0000
0000
;

//---------------dance-single - ----------------
#NOTES:
     dance-single:
     :
     Challenge:
     14:
     :
0000
0000
0000
0000
,
0000
0000
0000
0000
,
0000
0000
0000
0000
,
0000
0000
0000
0000
,
0000
0000
0000
0000
,
0000
0000
0000
0000
,
0001
0000
0010
0000
1000
0000
1000
0000
0100
1000
0000
0001
0100
0000
0010
0000
,
1000
0100
0010
0010
0001
1000
0001
0100
,
0010
0000
1000
0000
0100
0000
0000
0010
0001
0000
0100
0000
0001
0000
1000
0000
,
0100
0000
0010
0000
0100
0000
1000
0000
0001
0100
0001
0100
0001
0000
1000
0000
,
0010
0000
1000
0000
0100
0000
0010
0000
0001
0000
0100
0010
0000
0100
0010
0000
,
1000
0000
0100
0000
0001
0000
0001
0000
0010
0000
0100
1000
0000
0100
1000
0000
,
0010
0000
0100
0001
0100
0000
0010
0000
1000
0000
0100
1000
0100
0000
0010
0000
,
0001
0010
0001
1000
0100
0010
0010
0100
,
1000
0000
0010
0000
1000
0000
1000
0000
0100
0000
0010
0001
0000
0010
0001
0000
,
0100
0010
1000
0001
0010
0100
1000
0001
,
0100
0000
0001
0010
0001
0000
1000
0100
0000
1000
0100
0000
1000
0010
1000
0010
,
1000
0000
0000
0100
0000
0000
0010
0000
0000
0001
0000
0000
0100
0000
0010
0000
0100
0000
0010
0000
0000
1000
0000
0000
,
1001
0000
0010
0000
1000
0000
0100
0020
0000
0000
0001
0000
0031
0000
0100
0000
,
0010
0001
0010
0100
0010
0001
0010
1000
,
0100
0010
1000
0010
0100
1000
0010
0001
,
0010
0000
0100
0000
0010
0000
0001
0000
0010
0000
1000
0100
1000
0000
0001
0000
,
0010
0001
0010
0001
0010
0000
0200
0000
0000
0000
1000
0000
1300
0000
0001
0000
,
0100
0000
1000
0000
0100
0000
0010
0000
0100
0000
1000
0000
0100
0001
0100
0000
,
0020
1000
1030
1100
2100
0001
3100
0000
,
1010
0000
0000
0000
0001
0100
0000
0000
0001
1000
0000
0000
0001
0010
0000
0000
,
0011
0001
0100
0010
0010
1000
0100
0010
,
1000
0010
0100
0010
0100
0001
0100
1000
,
0010
0100
0001
0101
0101
1000
0010
0200
,
0000
0001
0301
0010
1000
0010
0100
0010
,
0002
1000
1003
1010
1010
0001
0100
0010
,
0001
0010
0010
1000
1100
0100
1000
0001
,
0100
0000
0010
0000
0100
0000
0001
1000
0000
1000
0100
0000
0010
0000
0001
0000
,
0100
0010
0100
0010
0110
0000
0110
0000
,
1000
0000
0010
0000
0001
0000
0001
0000
0010
0001
0000
0010
0100
0000
1000
0000
,
0010
0000
1000
0000
0001
0000
0001
0000
0100
0010
0100
0000
0001
0000
1000
0000
,
0100
0000
0010
0001
0010
0000
0100
0000
1000
0000
0001
0000
1000
0000
0010
0000
,
0100
1000
0100
0001
0010
0100
0100
1000
,
0001
0000
1000
0000
0100
0000
0100
0000
0010
0001
0010
0000
0001
0000
1000
0000
,
0010
0100
0010
0010
1000
0100
1000
0001
,
0010
0000
0001
0000
0100
0000
1000
0010
1000
0000
0100
0000
0010
0000
0001
0000
,
1000
0100
0001
1000
0010
0001
0100
0100
0100
0100
0000
0000
,
1001
0000
0010
0000
1000
0000
0001
0000
0010
0001
0100
0001
1000
0000
0100
0000
,
1000
0000
0010
0000
0100
0000
0001
0000
0010
0100
0010
0001
1000
0000
0100
0000
,
1000
0010
0100
0010
1000
0000
0001
0000
0010
0000
1000
0000
0100
0000
0010
0000
,
1000
0010
0100
0010
0001
0100
0100
0010
,
1010
0000
0001
0000
1000
0000
0100
0000
1000
0010
0100
0001
0010
0000
0100
1000
,
0001
0000
0010
0000
0001
0000
0100
0000
1000
0000
0010
1000
0001
0000
0100
0000
,
0110
0000
0000
0000
1000
0010
1000
0010
0000
0000
0100
0001
0100
0001
0010
0100
,
1000
0000
0001
0000
0100
0000
0010
0000
1000
0100
0010
0001
0010
0100
1000
0000
,
2002
0000
0000
0000
,
0000
0000
0000
0000
,
0000
0000
0000
0000
,
3003
0000
0000
0000
;

//---------------dance-double - ----------------
#NOTES:
     dance-double:
     :
     Easy:
     5:
     :
00000000
00000000
00000000
00000000
,
00000000
00000000
00000000
00000000
,
00000000
00000000
00000000
00000000
,
00000000
00000000
00000000
00000000
,
00000000
00000000
00000000
00000000
,
00000000
00000000
00000000
00000000
,
00000001
00000100
00000001
00000000
,
00001000
00000100
00001000
00000000
,
00000100
00000000
00010000
00000000
,
00011000
00000000
01000000
01000000
,
00100000
00100000
00010000
01000000
,
00100000
00100000
10000000
00000000
,
01000000
00000000
00001000
00000000
,
00000100
00000001
00000100
00000001
,
00000010
00001000
00000001
00000000
,
00000010
00000001
00001000
00000000
,
00000001
00000100
00001000
00010000
,
01000000
10000000
00100000
00000000
,
00100000
00000000
00100000
00000000
,
10000000
00010000
00100000
00001000
,
00000100
00000000
00000100
00000000
,
00000001
00000010
00000100
00001000
,
00000100
00000001
00000100
00000000
,
00001000
00000010
00000100
00000000
,
00001000
00000000
00010000
00000000
,
00010000
00100000
10000000
10000000
,
00010000
01000000
10000000
00000000
,
00100000
00100000
00010000
00010000
,
00001000
00000100
00000010
00000000
,
00000001
00000001
00000100
00000100
,
00000010
00001000
00000100
00000000
,
00000001
00000010
00000100
00001000
,
00002000
00000000
00020000
00033000
,
00022000
00033000
00010000
00001000
,
00100000
00000000
00100000
01100000
,
01000000
00000000
01000000
01100000
,
10000000
10000000
01000000
10000000
,
01000000
00010000
00001000
00000000
,
00000010
00000000
00000010
00000110
,
00000100
00000000
00000100
00000110
,
00000001
00000100
00001000
00010000
,
00011000
00000000
00010000
00010000
,
00100000
10000000
00100000
00100000
,
01000000
00010000
01000000
01000000
,
00100000
00010000
00001000
00000010
,
00000100
00000001
00000100
00000100
,
00001000
00000001
00001001
00000000
,
00000010
00000100
00000110
00000000
,
00001000
00000000
00010000
00000000
,
00100000
10000000
01000000
00100000
,
20020000
00000000
00000000
00000000
,
00000000
30030000
00000000
00000000
,
00000000
00000000
00000000
00000000
;

//---------------dance-double - ----------------
#NOTES:
     dance-double:
     :
     Medium:
     8:
     :
00000000
00000000
00000000
00000000
,
00000000
00000000
00000000
00000000
,
00000000
00000000
00000000
00000000
,
00000000
00000000
00000000
00000000
,
00000000
00000000
00000000
00000000
,
00000000
00000000
00000000
00000000
,
00100000
00000000
00100000
00000000
01000000
10000000
01000000
00000000
,
00100000
00000000
00100000
00000000
01000000
00010000
01000000
00000000
,
10000000
01000000
00010000
00001000
,
00011000
00000000
00000010
00000010
,
00000100
00000001
00000100
00000000
00001000
00000000
00001100
00000000
,
00000010
00010000
00000010
00000000
00001000
00000000
00011000
00000000
,
01000000
10000000
00010000
00100000
,
01000000
00100000
01000000
00100000
01000000
00000000
00100000
00000000
,
10000000
00100000
10000000
01000000
00000000
00010000
00001000
00000000
,
00000010
00001000
00000010
00000100
00000000
00000001
00000100
00000000
,
00000020
00000100
00000001
00001030
,
00011000
00000000
00000000
01100000
00000000
00000000
00010000
10000000
00010000
10000000
00000000
00000000
,
00100000
00100000
01000000
01000000
,
10000000
00000000
10000000
00000000
01000000
00010000
00001000
00000000
,
00000010
00000010
00000100
00000100
,
00000001
00000000
00000001
00000000
00000100
00001000
00010000
00000000
,
00100000
10000000
00100000
00000000
00010000
00000000
01000000
00000000
,
10000000
01000000
00100000
00000000
01000000
00000000
10000000
00000000
,
00020000
00000000
00002000
00033000
,
00001000
00000100
00000001
00001001
,
00000010
00000000
00000000
00000001
00000100
00000000
00001000
00000000
,
00100000
00000000
00110000
00000000
10000000
01000000
00010000
00000000
,
00100000
00000000
00000000
10000000
01000000
00000000
00010000
00000000
,
00000010
00000000
00001010
00000000
00000001
00000100
00001000
00000000
,
01000000
00000000
00000000
00100000
01000000
00000000
00010000
00000000
,
10000000
00000000
11000000
00000000
00010000
00001000
00000100
00000000
,
00000002
00000000
00002000
00000003
,
00003010
00000001
00000100
00000100
,
00000011
00000000
00001100
00000000
00010000
00001000
00010000
00000000
,
01100000
00000000
10010000
00000000
01000000
00010000
00100000
00000000
,
10000000
00010000
01000000
00000000
00100000
00001000
01000000
00000000
,
00100000
01000000
00100000
01000000
00100000
00000000
01000000
00000000
,
10000000
00000000
10000000
00000000
10000000
00100000
00010000
00000000
,
00001000
00000000
00001000
00000000
00001000
00000100
00000001
00000000
,
00000200
00000010
00001000
00000301
,
00001001
00000000
00000010
00000010
,
00000100
00000001
00000100
00000000
00001000
00000000
00001100
00000000
,
00000010
00010000
00000010
00000000
00001000
00000000
00011000
00000000
,
01000000
10000000
00010000
00100000
,
01000000
00100000
01000000
00100000
01000000
00000000
00100000
00000000
,
10000000
00100000
10000000
01000000
00000000
00010000
00001000
00000000
,
00000010
00001000
00000010
00000100
00000000
00000001
00000100
00000000
,
00000020
00000100
00000001
00001030
,
00010000
10000000
00100000
01000000
,
20020000
00000000
00000000
00000000
,
00000000
30030000
00000000
00000000
,
00000000
00000000
00000000
00000000
;

//---------------dance-double - ----------------
#NOTES:
     dance-double:
     :
     Hard:
     11:
     :
00000000
00000000
00000000
00000000
,
00000000
00000000
00000000
00000000
,
00000000
00000000
00000000
00000000
,
00000000
00000000
00000000
00000000
,
00000000
00000000
00000000
00000000
,
00000000
00000000
00000000
00000000
,
00000100
00000010
00000001
00000100
00000000
00010000
00001000
00000000
,
00100000
00010000
00100000
10000000
00000000
01000000
10000000
00100000
,
01000000
00000000
00001000
00100000
01000000
00000000
00010000
00001000
,
00021000
00000000
00031000
00001100
,
00000010
00000001
00000010
00000100
00000000
00010000
00001000
01000000
,
00100000
10000000
00100000
01000000
00000000
00010000
00100000
01000000
,
01010000
00000000
00011000
00000000
00001000
00000100
00000001
00000010
,
00000100
00000010
00000001
00000100
00001000
00010000
01000000
00000000
,
11000000
00010000
01000000
00200000
00000000
10300000
01000000
00010000
,
00000100
00001000
00000100
00000002
00000000
00000103
00001000
00000010
,
00000100
00000001
00001000
00000100
,
00001000
00000000
00000000
00000010
00000000
00000000
00010000
00000000
00000000
00001000
00000000
00000000
01000000
00000000
00100000
00000000
01000000
00000000
00100000
00000000
00000000
00000000
00000000
00000000
,
00010000
10000000
01000000
00000000
00100000
01000000
10000000
00100000
,
00010000
00001000
00000010
00000001
00000010
00000000
00001100
00000000
,
00000020
00000100
00000130
00000010
00020000
00001000
00031000
00000200
,
00000001
00000301
00000100
00000010
00000001
00001000
00000010
00000000
,
00000100
00001000
00010000
01000000
00100000
01000000
10000000
00000000
,
00010000
00100000
01000000
10000000
00100000
00000000
01010000
00000000
,
00011000
00000000
00000010
00000100
00000101
00000000
00000010
00000100
,
00000110
00000020
00001000
00000130
,
00000010
00000001
00000100
00000000
00000010
00001000
00000100
00000000
,
00000001
00001000
00000100
00010000
00001000
01000000
01010000
00000000
,
00100000
10000000
01000000
00000000
00100000
00010000
01000000
00000000
,
10000000
00010000
01000000
00001000
00010000
00000100
00001100
00000000
,
00000001
00001000
00000010
00000000
00001000
00000001
00000010
00000000
,
00000100
00000010
00001000
00010000
00100000
10000000
01000000
00000000
,
00100000
00001000
00100000
00000000
01000000
00010000
01000000
00000000
,
00001000
00010000
00001000
00000100
00000001
00000000
00001001
00000000
,
00000010
00000001
00000100
00000001
00000010
00000100
00000010
00000100
,
00010000
00001000
00000100
00001000
00010000
01000000
10000000
00000000
,
00110000
01000000
10000000
00000000
10100000
01000000
00010000
00100000
,
01000000
00010000
00001000
00000100
00000001
00001000
00000100
00000000
,
00001010
00000010
00001000
00000020
00000000
00000130
00000010
00000000
,
00000101
00000001
00001000
00000200
00000000
00000310
00001000
00010000
,
00000010
00001000
00000100
00010000
00000010
00000100
00001000
00010000
,
00100000
10000000
00100000
01000000
00010000
01000000
00010000
10000000
01000000
00010000
00000000
00000000
,
00100000
10000000
00100000
01000000
00000000
00001000
00010000
00000100
,
00000010
00000001
00000010
00000100
00000000
00001000
00000010
00000100
,
00001100
00000000
00011000
00000000
00010000
01000000
10000000
00100000
,
01000000
00100000
10000000
01000000
00010000
00001000
00000100
00000000
,
00000101
00001000
00000100
00000020
00000000
00000031
00000100
00001000
,
01000000
00010000
01000000
20000000
00000000
31000000
00010000
00100000
,
01000000
10000000
00010000
00100000
,
01000000
00100000
00001000
00010000
00000010
00000100
00000001
00000010
,
00002200
00000000
00000000
00000000
,
00000000
00003300
00000000
00000000
,
00000000
00000000
00000000
00000000
;
