#VERSION:0.83;
#TITLE:INSIDE YOUR HEART;
#SUBTITLE:;
#ARTIST:AKIRA YAMAOKA;
#TITLETRANSLIT:;
#SUBTITLETRANSLIT:;
#ARTISTTRANSLIT:;
#GENRE:;
#ORIGIN:;
#CREDIT:;
#BANNER:INSIDE YOUR HEART.png;
#BACKGROUND:INSIDE YOUR HEART-bg.png;
#PREVIEWVID:;
#JACKET:INSIDE YOUR HEART-jacket.png;
#CDIMAGE:;
#DISCIMAGE:;
#LYRICSPATH:;
#CDTITLE:;
#MUSIC:INSIDE YOUR HEART.ogg;
#OFFSET:0.000000;
#SAMPLESTART:69.542999;
#SAMPLELENGTH:20.000000;
#SELECTABLE:YES;
#DISPLAYBPM:107.000000;
#BPMS:0.000=106.500,
4.000=107.000;
#STOPS:156.000=0.561;
#DELAYS:;
#WARPS:;
#TIMESIGNATURES:0.000=4=4;
#TICKCOUNTS:0.000=4;
#COMBOS:0.000=1;
#SPEEDS:0.000=1.000=0.000=0;
#SCROLLS:0.000=1.000;
#FAKES:;
#LABELS:0.000=Song Start;
#BGCHANGES:0.000=INSIDE YOUR HEART.avi=1.000=0=0=0=StretchNoLoop====,
99999=-nosongbg-=1.000=0=0=0 // don't automatically add -songbackground-
;
#KEYSOUNDS:;
#ATTACKS:
;

//---------------dance-single - ----------------
#NOTEDATA:;
#CHARTNAME:;
#STEPSTYPE:dance-single;
#DESCRIPTION:;
#CHARTSTYLE:;
#DIFFICULTY:Beginner;
#METER:3;
#RADARVALUES:0.111804,0.169404,0.029720,0.000000,0.000000,79.000000,76.000000,3.000000,0.000000,0.000000,0.000000,0.000000,0.000000,0.000000,0.111804,0.169404,0.029720,0.000000,0.000000,79.000000,76.000000,3.000000,0.000000,0.000000,0.000000,0.000000,0.000000,0.000000;
#CREDIT:;
#DISPLAYBPM:107.000000;
#NOTES:
0000
0000
0000
0000
,
0000
0000
0000
0000
,
0000
0000
0000
0000
,
1000
0000
0000
0000
,
0001
0000
0000
0000
,
1000
0000
0000
0000
,
0001
0000
0000
0000
,
1000
1000
0000
0000
,
0001
0001
0000
0000
,
1000
1000
0000
0000
,
0001
0001
0000
0000
,
1000
1000
1000
0000
,
1000
1000
1000
0000
,
0001
0001
0001
0000
,
0100
0100
0100
0000
,
0010
0000
0010
0000
,
0100
0000
0100
0000
,
0001
0000
0001
0000
,
1000
0000
1000
0000
,
0001
0000
0000
0000
,
0001
0000
0000
0000
,
1000
0000
0000
0000
,
1000
0000
0000
0000
,
0010
0010
0010
0000
,
0100
0100
0100
0000
,
1000
0000
0000
0000
,
0001
0000
0000
0000
,
1000
0000
1000
0000
,
0001
0000
0001
0000
,
1000
0000
1000
0000
,
0100
0000
0100
0000
,
0010
0000
0000
0001
,
0001
0000
0000
1000
,
1000
0000
0000
0100
,
0100
0000
0100
0000
,
1001
0000
1001
0000
,
1001
0000
0000
0000
,
1000
0000
1000
0000
,
0001
0000
0001
0000
,
1000
1000
0000
0010
,
0000
0100
0000
0010
,
0000
1000
0000
0001
,
0000
1000
0000
0001
;

//---------------dance-single - ----------------
#NOTEDATA:;
#CHARTNAME:;
#STEPSTYPE:dance-single;
#DESCRIPTION:;
#CHARTSTYLE:;
#DIFFICULTY:Easy;
#METER:4;
#RADARVALUES:0.165583,0.192809,0.000000,0.079253,0.000000,117.000000,117.000000,0.000000,8.000000,0.000000,0.000000,0.000000,0.000000,0.000000,0.165583,0.192809,0.000000,0.079253,0.000000,117.000000,117.000000,0.000000,8.000000,0.000000,0.000000,0.000000,0.000000,0.000000;
#CREDIT:;
#DISPLAYBPM:107.000000;
#NOTES:
0000
0000
0000
0000
,
0000
0000
0000
0000
,
0000
0000
0000
0000
,
2000
0000
0000
3000
,
0002
0000
0000
0003
,
1000
1000
0001
0000
,
0001
0001
1000
0000
,
1000
0001
1000
0000
,
0001
1000
0001
0000
,
1000
0100
1000
0000
,
0001
0100
0001
0000
,
0002
0000
0003
0001
,
1000
1000
1000
0000
,
0001
0001
0001
0000
,
0020
0000
0030
0000
,
0100
1000
0010
0000
,
0001
0100
1000
0000
,
1000
0001
0001
0000
,
0001
1000
0100
0000
,
0010
0100
0010
0000
,
0100
0010
0100
0000
,
1000
0100
0010
0000
,
0001
0100
0010
0000
,
1000
1000
0001
0001
,
1000
0001
1000
0000
,
1000
0010
0002
0000
,
2003
0000
0002
3003
,
1000
0010
1000
0000
,
1000
1000
0010
0000
,
0001
0100
0001
0000
,
0001
0001
0100
0000
,
1000
0100
1000
0100
,
0010
0001
0010
0001
,
1000
1000
0001
0001
,
1000
0010
0100
0001
,
0100
0000
0010
0000
,
0100
0010
0100
0010
,
1000
0000
0001
0000
,
1000
1000
0001
0001
,
0010
0010
0000
0100
,
0000
0010
0000
0100
,
0000
1000
0001
0100
,
0000
1000
0001
0010
,
0200
0300
0000
0000
;

//---------------dance-single - ----------------
#NOTEDATA:;
#CHARTNAME:;
#STEPSTYPE:dance-single;
#DESCRIPTION:;
#CHARTSTYLE:;
#DIFFICULTY:Medium;
#METER:6;
#RADARVALUES:0.270311,0.277697,0.059440,0.039627,0.004953,191.000000,185.000000,6.000000,4.000000,0.000000,0.000000,0.000000,0.000000,0.000000,0.270311,0.277697,0.059440,0.039627,0.004953,191.000000,185.000000,6.000000,4.000000,0.000000,0.000000,0.000000,0.000000,0.000000;
#CREDIT:;
#DISPLAYBPM:107.000000;
#NOTES:
0000
0000
0000
0000
,
0000
0000
0000
0000
,
0000
0000
0000
0000
,
0010
0001
0010
0001
,
1000
0100
1000
0100
,
0010
0000
0010
0000
0001
0100
0001
0000
,
0010
0000
0010
0000
0100
1000
0100
0000
,
0010
0000
0001
0000
1000
0010
1000
0000
,
0010
0000
1000
0000
0001
0010
0001
0000
,
0100
0000
0001
0000
0100
0010
0100
0000
,
0010
0000
0100
0000
0010
1000
0001
0000
,
0010
0100
0020
0000
,
0130
0001
2000
0000
,
3001
0010
0100
0000
,
0010
0000
0000
0001
0000
0000
1000
0000
0000
0000
0000
0000
0001
0000
1000
0000
,
0001
0100
1000
0001
,
0010
0000
0001
0000
1000
0100
1000
0000
,
0010
0000
0100
0000
0001
0100
0001
0000
,
1000
0010
0200
0300
,
0001
1000
1000
0001
,
1000
1000
0100
0000
0001
0001
0010
0000
,
1000
0100
0010
0000
0010
0010
0001
0000
,
0001
0010
0100
0000
1000
1000
0100
0000
,
0001
0000
1000
0000
0010
0010
0010
0000
,
1000
0000
0001
0000
0100
0100
0100
0000
,
0001
0000
1000
0000
0100
0000
0001
0100
,
0020
0000
0000
0030
,
1001
0100
1001
0100
,
1000
1000
0001
0000
,
1001
1001
0100
1001
,
0100
0100
1001
0000
,
1000
0000
0001
0000
0100
0000
0001
0100
,
0001
0000
1000
0000
0010
1000
0001
1000
,
0100
0000
0010
0000
0001
1000
0001
0010
,
0100
0000
1000
0000
0010
0100
0001
0000
,
0010
0100
0000
0000
1000
0001
0000
0000
,
0100
0000
0100
0001
0100
0010
1000
0000
,
1000
0000
0001
0000
0010
1000
0100
0000
,
0001
0000
0100
0000
0001
1000
0100
0010
,
0001
0010
0100
1000
,
0010
0010
0100
0000
0001
0000
0010
0000
,
0100
1000
0100
0000
0010
0000
0001
0000
,
0100
0100
0010
0000
0100
0000
0001
0000
,
1000
0001
0000
0000
0000
0000
0000
0000
;

//---------------dance-single - ----------------
#NOTEDATA:;
#CHARTNAME:;
#STEPSTYPE:dance-single;
#DESCRIPTION:;
#CHARTSTYLE:;
#DIFFICULTY:Hard;
#METER:9;
#RADARVALUES:0.363717,0.427845,0.158507,0.049533,0.054487,257.000000,241.000000,16.000000,5.000000,0.000000,0.000000,0.000000,0.000000,0.000000,0.363717,0.427845,0.158507,0.049533,0.054487,257.000000,241.000000,16.000000,5.000000,0.000000,0.000000,0.000000,0.000000,0.000000;
#CREDIT:;
#DISPLAYBPM:107.000000;
#NOTES:
0000
0000
0000
0000
,
0000
0000
0000
0000
,
0000
0000
0000
0000
,
0010
0001
1000
0100
,
0010
0001
0100
0010
,
1000
1000
0001
0000
0100
0000
0001
0000
,
0010
0010
0100
0000
1000
0000
0001
0000
,
1001
0001
0100
0000
0010
0000
1000
0000
,
1001
1000
0100
0000
0010
0000
0001
0000
,
0101
0100
0010
0000
1000
0000
0100
0000
,
1100
0000
0100
0000
0010
0000
0000
0000
0001
0000
0000
0000
0100
0010
0100
0010
,
0000
1000
0100
0010
0001
0000
0000
0000
,
0100
0010
0100
1000
0100
0000
0000
0000
,
0010
0001
0010
0100
0010
0000
0000
0000
,
1010
0000
0000
1100
0000
0000
0202
0000
0000
0000
0000
0000
0303
0000
0000
0000
,
1000
0000
0001
0000
1000
0010
0000
0000
0000
0000
0000
0000
0100
0000
0100
0000
,
0001
0000
1000
0000
0001
0010
0000
0000
0000
0000
0000
0000
0100
0000
0100
0000
,
0010
0000
0001
0000
1000
0001
0000
0000
0000
0000
0000
0000
0010
0000
0010
0000
,
0100
0000
1000
0000
0001
1000
0000
0000
0000
0000
0000
0000
1000
0000
1000
0000
,
0001
1000
0100
0010
0110
0000
1000
0000
,
1000
0001
0100
0010
0110
0000
0001
0000
,
0010
0100
1000
0001
1001
0000
0010
0000
,
0100
0010
0001
1000
1001
0000
0100
0000
,
0001
1000
0001
0010
0100
1000
0100
0000
,
1000
0001
1000
0010
0100
0001
0100
0000
,
1000
0100
1000
0100
2000
0000
0000
0000
,
3001
0100
0001
0100
0002
0000
0000
0000
,
1003
0010
1000
0100
0010
0000
1000
0000
,
0001
0010
0001
0100
0010
0000
0001
0000
,
1000
0001
0010
0100
1000
0000
0001
0000
,
0001
0100
0010
1000
0001
0000
1000
0000
,
1001
0100
1000
0100
1001
0100
0001
1000
,
1001
0100
1000
0001
0010
0100
1000
0001
,
1000
1000
0100
1000
0001
0001
0100
0001
,
0010
0010
0100
1000
0010
0010
0100
0001
,
0100
0110
0000
0000
0010
0110
0000
0000
,
0001
0100
0010
1000
0010
0100
0001
1000
,
0001
0001
0010
0001
1000
1000
0100
1000
,
0001
0100
0010
0001
0010
1000
0010
0100
,
0002
0103
0010
1000
,
0100
0100
0010
0001
0100
0000
0001
0000
,
0010
0010
0100
1000
0010
0000
0100
0000
,
0001
0100
0001
0100
0000
0000
0010
0000
1000
0000
0000
0000
0100
0000
0000
0000
,
1000
0001
1000
0001
0000
0000
0000
0000
0000
0000
0000
0000
0000
0000
0000
0000
;

//---------------dance-double - ----------------
#NOTEDATA:;
#CHARTNAME:;
#STEPSTYPE:dance-double;
#DESCRIPTION:;
#CHARTSTYLE:;
#DIFFICULTY:Easy;
#METER:3;
#RADARVALUES:0.166998,0.192809,0.000000,0.089160,0.000000,118.000000,118.000000,0.000000,9.000000,0.000000,0.000000,0.000000,0.000000,0.000000,0.166998,0.192809,0.000000,0.089160,0.000000,118.000000,118.000000,0.000000,9.000000,0.000000,0.000000,0.000000,0.000000,0.000000;
#CREDIT:;
#DISPLAYBPM:107.000000;
#NOTES:
00000000
00000000
00000000
00000000
,
00000000
00000000
00000000
00000000
,
00000000
00000000
00000000
00000000
,
00002000
00000000
00000000
00003000
,
00020000
00000000
00000000
00030000
,
00001000
00010000
00001000
00000000
,
00000100
00000001
00000100
00000000
,
00000010
00000100
00000010
00000000
,
00010000
00000100
00010000
00000000
,
00001000
01000000
00001000
00000000
,
00100000
01000000
10000000
00000000
,
00020000
00000000
00000000
10030000
,
01000000
01000000
01000000
00010000
,
00001000
00001000
00001000
00010000
,
00020000
00000000
00030000
00000000
,
00000010
00001000
00000100
00000000
,
00000001
00001000
00000100
00000000
,
00010000
00001000
00010000
00000000
,
00100000
10000000
01000000
00000000
,
00010000
01000000
00010000
00000000
,
00100000
00001000
00100000
00000000
,
00001000
00010000
00001000
00000000
,
00000010
00000001
00000100
00000000
,
00000001
00000001
00000100
00000100
,
00001000
00010000
00001000
00000000
,
00100000
00100000
00020000
00000000
,
20030000
00000000
00000000
30000000
,
01000000
00010000
00002000
00000000
,
00013000
00010000
00010000
00000000
,
00000100
00000010
00000002
00000000
,
00001003
00001000
00001000
00000000
,
00000001
00000100
00000001
00000100
,
00000010
00001000
00000010
00001000
,
00000100
00000100
00010000
00010000
,
00001000
00010000
01000000
00100000
,
01000000
00000000
00010000
00000000
,
00100000
00010000
10000000
00010000
,
01000000
00000000
00010000
00000000
,
10000000
10000000
01000000
01000000
,
00010000
00001000
00000000
00010000
,
00000000
00001000
00000000
00000100
,
00000000
00000001
00001000
00000010
,
00000000
00001000
00000001
00000100
,
00000020
00000030
00000000
00000000
;

//---------------dance-double - ----------------
#NOTEDATA:;
#CHARTNAME:;
#STEPSTYPE:dance-double;
#DESCRIPTION:;
#CHARTSTYLE:;
#DIFFICULTY:Medium;
#METER:6;
#RADARVALUES:0.273141,0.277697,0.059440,0.039627,0.004953,193.000000,187.000000,6.000000,4.000000,0.000000,0.000000,0.000000,0.000000,0.000000,0.273141,0.277697,0.059440,0.039627,0.004953,193.000000,187.000000,6.000000,4.000000,0.000000,0.000000,0.000000,0.000000,0.000000;
#CREDIT:;
#DISPLAYBPM:107.000000;
#NOTES:
00000000
00000000
00000000
00000000
,
00000000
00000000
00000000
00000000
,
00000000
00000000
00000000
00000000
,
00100000
10000000
01000000
10000000
,
01000000
00010000
00001000
00010000
,
00001000
00000000
00000010
00000000
00000001
00000010
00000001
00000000
,
00001000
00000000
00000001
00000000
00000100
00000001
00000100
00000000
,
00001000
00000000
00010000
00000000
00100000
00010000
00100000
00000000
,
10000000
00000000
01000000
00000000
00100000
00010000
00100000
00000000
,
00001000
00000000
00010000
00000000
00001000
00100000
00001000
00000000
,
00010000
00000000
00000100
00000000
00001000
00000100
00001000
00001000
,
00000010
00000100
00000020
00000000
,
00001030
00000100
00020000
00000000
,
00031000
00100000
01000000
00000000
,
00100000
00000000
00000000
01000000
00000000
00000000
10000000
00000000
00000000
00000000
00000000
00000000
00010000
00000000
10000000
00000000
,
01000000
00010000
00001000
00000010
,
00000100
00000000
00001000
00000000
00000001
00000100
00000001
00000000
,
00000100
00000000
00001000
00000000
00010000
00001000
00010000
00000000
,
00100000
10000000
02000000
03000000
,
10000000
01000000
00010000
00001000
,
00000010
00000010
00000001
00000000
00001000
00001000
00000100
00000000
,
00000001
00000100
00000010
00000000
00000100
00000100
00001000
00000000
,
00010000
01000000
00100000
00000000
00010000
00010000
01000000
00000000
,
00100000
00000000
10000000
00000000
01000000
01000000
01000000
00000000
,
00010000
00000000
00001000
00000000
00010000
00010000
00010000
00000000
,
00001000
00000000
00000100
00000000
00000001
00000000
00000010
00000100
,
00002000
00000000
00000000
00003000
,
00010100
00001000
00011000
00010000
,
00001000
00001000
01000000
00000000
,
01001000
01001000
00010000
00011000
,
00001000
00010000
00011000
00000000
,
00001000
00000000
00000100
00000000
00000001
00000000
00000010
00000001
,
00000010
00000000
00000100
00000000
00001000
00000001
00000100
00001000
,
00010000
00000000
00001000
00000000
00010000
01000000
10000000
01000000
,
00100000
00000000
00010000
00000000
01000000
00100000
00010000
00000000
,
00001000
00010000
00000000
00000000
00000010
00001000
00000000
00000000
,
00000100
00000000
00000100
00000001
00000100
00001000
00000100
00000000
,
00000001
00000000
00000100
00000000
00001000
00010000
01000000
00000000
,
10000000
00000000
01000000
00000000
00100000
00010000
01000000
00100000
,
10000000
01000000
00010000
00001000
,
00010000
00010000
00001000
00000000
00010000
00000000
00000010
00000000
,
00001000
00000100
00001000
00000000
00000010
00000000
00000100
00000000
,
00000001
00000001
00000010
00000000
00000100
00000000
00010000
00001000
,
00010000
00001000
00000000
00000000
00000000
00000000
00000000
00000000
;

//---------------dance-double - ----------------
#NOTEDATA:;
#CHARTNAME:;
#STEPSTYPE:dance-double;
#DESCRIPTION:;
#CHARTSTYLE:;
#DIFFICULTY:Hard;
#METER:9;
#RADARVALUES:0.365132,0.427845,0.158507,0.049533,0.054487,258.000000,242.000000,16.000000,5.000000,0.000000,0.000000,0.000000,0.000000,0.000000,0.365132,0.427845,0.158507,0.049533,0.054487,258.000000,242.000000,16.000000,5.000000,0.000000,0.000000,0.000000,0.000000,0.000000;
#CREDIT:;
#DISPLAYBPM:107.000000;
#NOTES:
00000000
00000000
00000000
00000000
,
00000000
00000000
00000000
00000000
,
00000000
00000000
00000000
00000000
,
00000010
00001000
00000001
00000100
,
00001000
00010000
01000000
00100000
,
10000000
10000000
01000000
00000000
00100000
00000000
00001000
00000000
,
00010000
00010000
00000100
00000000
00000010
00000000
00000001
00000000
,
00001100
00001000
00000001
00000000
00000100
00000000
00001000
00000000
,
00011000
00001000
00010000
00000000
00100000
00000000
10000000
00000000
,
11000000
01000000
00100000
00000000
00010000
00000000
10000000
00000000
,
11000000
00000000
01000000
00000000
00010000
00000000
00000000
00000000
00001000
00000000
00000000
00000000
00010000
00001000
00010000
00001000
,
00010000
00001000
00000100
00000010
00000001
00000000
00000000
00000000
,
00001000
00000001
00000100
00001000
00010000
00000000
00000000
00000000
,
00001000
00010000
01000000
10000000
00010000
00000000
00000000
00000000
,
10100000
00000000
00000000
01010000
00000000
00000000
00022000
00000000
00000000
00000000
00000000
00000000
00033000
00000000
00000000
00000000
,
00010000
00000000
00001000
00000000
00000100
00000010
00000000
00000000
00000000
00000000
00000000
00000000
00000100
00000000
00000100
00000000
,
00000001
00000000
00000010
00000000
00001000
00010000
00000000
00000000
00000000
00000000
00000000
00000000
01000000
00000000
01000000
00000000
,
00100000
00000000
00001000
00000000
00010000
00001000
00000000
00000000
00000000
00000000
00000000
00000000
00010000
00000000
00010000
00000000
,
00001000
00000000
00000100
00000000
00000001
00000100
00000000
00000000
00000000
00000000
00000000
00000000
00000001
00000000
00001000
00000000
,
00000001
00000010
00001000
00010000
00011000
00000000
00100000
00000000
,
00010000
01000000
00100000
10000000
11000000
00000000
00100000
00000000
,
10000000
01000000
00010000
00001000
00011000
00000000
00000010
00000000
,
00001000
00000100
00000010
00000001
00000101
00000000
00000010
00000000
,
00000100
00001000
00010000
00001000
00000010
00001000
00010000
00000000
,
00001000
00010000
01000000
10000000
00100000
10000000
00010000
00000000
,
01000000
00010000
01000000
00001000
00020000
00000000
00000000
00000000
,
00031000
01000000
00010000
01000000
00002000
00000000
00000000
00000000
,
00013000
00000100
00001000
00000001
00000100
00000000
00000010
00000000
,
00001000
00000100
00010000
00001000
00100000
00000000
00010000
00000000
,
10000000
00100000
01000000
00010000
00100000
00000000
00001000
00000000
,
00010000
00000010
00001000
00000100
00010000
00000000
00001000
00000000
,
00011000
00001000
00000100
00000001
00000101
00000010
00001000
00010000
,
00011000
00010000
01000000
10000000
00100000
01000000
00010000
01000000
,
00001000
00010000
00000010
00001000
00000001
00000100
00000001
00000010
,
00000100
00001000
00000001
00000100
00001000
00010000
01000000
10000000
,
01000000
01100000
00000000
00000000
00001000
00011000
00000000
00000000
,
00000010
00001000
00000001
00000100
00000001
00000100
00001000
00010000
,
01000000
01000000
10000000
00100000
00010000
00010000
00001000
00000010
,
00001000
00010000
01000000
10000000
01000000
00010000
00001000
01000000
,
00020000
01030000
00001000
00010000
,
00001000
00001000
00010000
00000010
00001000
00000000
00000100
00000000
,
00000010
00000010
00000001
00001000
00000100
00000000
00000010
00000000
,
00000001
00000100
00000001
00000100
00000000
00000000
00000010
00000000
00001000
00000000
00000000
00000000
00000100
00000000
00000000
00000000
,
00010000
00001000
00010000
00001000
00000000
00000000
00000000
00000000
00000000
00000000
00000000
00000000
00000000
00000000
00000000
00000000
;

//---------------dance-single - ----------------
#NOTEDATA:;
#CHARTNAME:;
#STEPSTYPE:dance-single;
#DESCRIPTION:;
#CHARTSTYLE:;
#DIFFICULTY:Challenge;
#METER:14;
#RADARVALUES:0.574587,0.513414,0.277387,0.118880,0.634027,406.000000,378.000000,28.000000,12.000000,0.000000,0.000000,0.000000,0.000000,0.000000,0.574587,0.513414,0.277387,0.118880,0.634027,406.000000,378.000000,28.000000,12.000000,0.000000,0.000000,0.000000,0.000000,0.000000;
#CREDIT:;
#DISPLAYBPM:107.000000;
#NOTES:
// measure 0
0000
0000
0000
0000
,  // measure 1
0000
0000
0000
0000
,  // measure 2
0000
0000
0000
0000
,  // measure 3
1000
0000
0001
0000
0010
0001
0000
0001
0100
0000
0100
0010
0000
0010
1000
0000
,  // measure 4
0100
0000
0010
0000
0001
0100
0000
0100
0010
0000
0010
1000
0000
1000
0001
0000
,  // measure 5
1000
0000
0100
0000
0010
0001
0000
0001
1000
0000
1000
0100
0000
0100
0010
0000
,  // measure 6
0100
0000
1000
0000
0001
0100
0000
0100
0010
0000
0010
1000
0000
1000
0001
0000
,  // measure 7
0010
0000
0001
0000
1000
0001
0000
0001
1000
0000
1000
0010
0000
0010
0100
0000
,  // measure 8
0010
0000
1000
0000
0001
0100
0000
0100
0001
0000
0001
1000
0000
1000
0010
0000
,  // measure 9
1000
0000
0001
0000
0010
0100
0000
0100
1000
0000
1000
0001
0000
0001
1000
0000
,  // measure 10
0010
0000
0100
0000
0001
0010
0000
0100
1000
0000
0001
1000
0010
0100
0010
0100
,  // measure 11
0001
0000
0010
0000
0000
1100
0000
1100
0000
0000
0010
0000
1000
0000
0001
0000
,  // measure 12
0100
0000
0010
0000
0000
0101
0000
0101
0000
0000
1000
0000
0100
0000
0010
0000
,  // measure 13
0001
0000
0100
0000
0000
1010
0000
1010
0000
0000
1000
0000
0001
0000
0100
0000
,  // measure 14
0110
0000
0000
1001
0000
0000
1100
0000
0000
0012
0000
0000
1003
0000
0001
0000
,  // measure 15
0010
0000
0001
0100
0000
0010
0000
1000
0001
0000
0010
0000
0001
0000
0100
0000
,  // measure 16
0010
0000
1000
0100
0000
1000
0001
0000
0010
0000
0100
0000
1000
0000
0001
0000
,  // measure 17
0100
0000
0001
0010
0000
0001
1000
0000
0100
0000
0010
0000
0001
0000
0100
0000
,  // measure 18
0010
0000
0010
0000
1000
0000
0001
0000
0100
0000
0001
0010
0001
1000
0001
1000
,  // measure 19
0010
0000
1000
0100
0000
0100
1000
0000
1020
0000
0000
0000
0031
0000
0010
0000
,  // measure 20
0100
0000
0001
1000
0000
1000
0001
0000
0201
0000
0000
0000
0310
0000
0100
0000
,  // measure 21
1000
0000
0100
0001
0000
0001
0100
0000
2001
0000
0000
0000
3010
0000
1000
0000
,  // measure 22
0001
0000
0100
0010
0000
0010
0100
0000
0210
0000
0000
0000
1300
0000
0001
0000
,  // measure 23
0010
0000
0001
0100
0010
1000
0100
0000
2010
0000
0001
0000
3001
0000
1000
0000
,  // measure 24
0100
0000
0010
0001
1000
0001
0100
0000
0210
0000
0010
0000
0310
0000
1000
0000
,  // measure 25
0001
0000
0010
0100
1000
0001
0100
0000
0010
0010
0000
1000
1000
0000
0001
1000
,  // measure 26
0001
0000
0010
0100
0000
1000
0001
0000
1200
0000
1000
0000
0310
0000
0000
0000
,  // measure 27
0001
0000
0010
0100
0000
0100
1000
0000
0201
0000
0000
0000
0310
0000
0100
0000
,  // measure 28
1000
0000
0100
0001
0000
0001
0010
0000
2100
0000
0100
0000
3001
0000
0000
1000
,  // measure 29
0001
0000
1000
0010
0000
0010
0100
0000
0210
0000
0000
0000
1300
0000
0001
0000
,  // measure 30
0100
0000
0001
1000
0000
1000
0010
0000
2010
0000
0001
0000
3100
0000
0000
0000
,  // measure 31
1001
0000
0010
1000
0100
1000
0001
0000
0010
0100
0000
0010
0001
0000
0100
0000
,  // measure 32
0010
0000
1000
0001
0010
0001
0000
0100
0000
0100
0000
0100
0010
0000
1000
0000
,  // measure 33
0100
0000
0010
0001
1000
0001
0100
0000
0010
1000
0000
0001
1000
0000
0100
0000
,  // measure 34
1000
0000
0001
0010
0001
0100
0000
1000
0000
1000
0000
1000
0010
0000
0100
0000
,  // measure 35
0110
1001
0010
0100
0101
1100
0001
1000
,  // measure 36
0010
0000
1000
0100
1000
0001
0000
0010
0000
0010
0000
0010
0001
0000
0100
0000
,  // measure 37
0010
0000
1000
0100
0010
0100
1000
0000
0001
1000
0000
0001
0010
0000
0100
0000
,  // measure 38
1000
0000
0010
0100
0000
0001
0000
1000
0001
1000
0100
0000
0110
0000
0010
0000
,  // measure 39
0011
0000
0000
0000
1000
0000
0010
0000
1000
0100
0000
0100
0010
0000
0010
0001
,  // measure 40
0000
0001
0100
0000
0001
0000
0010
0000
1000
0001
0000
0001
0100
0000
0100
0010
,  // measure 41
0000
0010
1000
0000
0100
0000
0010
0000
0001
0100
0000
0100
0010
0000
1000
0100
,  // measure 42
1000
0001
1000
0010
0100
0000
0010
0000
1000
0001
0000
0010
0100
0000
1000
0010
,  // measure 43
0100
0001
1000
0001
0000
0000
0000
0000
0000
0000
0000
0000
0000
0000
0000
0000
;
