#TITLE:IN THE FIRE;
#ARTIST:nc ft. StormRock;
#BANNER:IN THE FIRE-bn.png;
#BACKGROUND:IN THE FIRE-bg.png;
#JACKET:IN THE FIRE-jacket.png;
#MUSIC:IN THE FIRE.ogg;
#OFFSET:0.1;
#SAMPLESTART:62.226;
#SAMPLELENGTH:20;
#DISPLAYBPM:156;
#BPMS:0=156;
#STOPS:66=0.384,97.5=0.384,224.5=0.384;
#BGCHANGES:;

//---------------dance-single - ----------------
#NOTES:
     dance-single:
     :
     Beginner:
     3:
     :
0000
0000
0000
0000
,
0000
0000
0000
0000
,
0000
0000
0000
0000
,
0000
0000
0000
0000
,
0000
0000
0000
0000
,
1000
0000
1000
0000
,
0001
0000
0001
0000
,
0100
0000
0100
0000
,
0010
0000
0010
0000
,
1000
1000
0000
0000
,
0002
0000
0003
0000
,
0020
0000
0030
0000
,
0001
0000
0100
0000
,
0001
0001
0000
0000
,
2000
0000
3000
0000
,
0200
0000
0300
0000
,
1000
1000
1000
0010
,
0000
0110
0000
0100
,
0000
0110
0000
0001
,
0000
0010
0000
0001
,
0001
0001
0000
1000
,
0000
1001
0000
0001
,
0000
1001
0000
0100
,
0100
0100
0000
0010
,
0010
0010
1000
0000
,
0001
0000
1000
0000
,
0001
0000
0010
0000
,
0100
0000
1000
0000
,
0010
0010
0010
0000
,
0100
0000
0010
0000
,
0100
0000
0001
0000
,
0010
0000
0001
0000
,
1000
1000
2000
0000
,
0000
0000
3000
0000
,
1001
0000
0001
0000
,
0100
0000
0010
0000
,
0100
0100
0200
0000
,
0000
0000
0300
0000
,
0110
0000
0001
0000
,
1000
0000
0001
0000
,
0100
0000
0010
0010
,
0000
0000
1000
0000
,
0001
0000
0010
0000
,
0100
0000
1000
0000
,
0001
0000
0100
0100
,
0000
0000
0010
0000
,
1000
0000
0100
0000
,
0010
0000
0001
0000
,
1000
0000
0001
0001
,
0000
0000
0100
0000
,
0001
0000
0010
0000
,
0100
0000
1000
0000
,
0010
0000
1000
1000
,
0000
0000
0100
0000
,
0010
0000
0001
0000
,
1000
0000
0001
0000
,
0100
0010
0000
0110
,
0000
0100
0000
0110
,
0000
0001
0000
0010
,
0000
0100
0100
0100
,
0000
1000
0000
1001
,
0000
0001
0000
1001
,
0000
0010
0000
0001
,
0000
0100
0000
0110
,
0000
1001
0000
0000
;

//---------------dance-single - ----------------
#NOTES:
     dance-single:
     :
     Easy:
     7:
     :
0000
0000
0000
0000
,
0000
0000
0000
0000
,
0000
0000
0000
0000
,
0000
0000
0000
0000
,
0000
0000
0000
0000
,
1000
1000
0001
0001
,
0100
0100
0010
0010
,
1000
0100
0010
0001
,
0100
0010
1000
0001
,
0200
0020
0000
0330
,
1000
1000
1000
0000
,
0001
0010
0001
1000
,
0100
0010
0001
0100
,
0002
2000
0000
3003
,
0010
0010
0010
0000
,
1000
0001
0010
0100
,
1100
0101
1001
0010
,
1000
0100
0010
0001
,
0100
0001
1000
0010
,
1000
0010
0100
0001
,
0010
0001
1000
0100
,
0010
0100
1000
0010
,
1000
0001
0010
0001
,
0100
0010
1000
0100
,
0010
0110
1000
0001
,
1000
0000
0010
0100
,
0001
0000
0010
0001
,
1000
0010
0100
0000
,
0101
1100
0001
0010
,
0100
0000
1000
0010
,
1000
0000
0100
0010
,
0001
0100
0010
0000
,
1000
1000
0002
0000
,
0013
0001
0100
0010
,
0110
0000
1000
0001
,
0100
0010
1000
0001
,
0100
0100
0020
0000
,
0000
1030
0001
0010
,
1001
0000
0100
0010
,
0001
0100
1000
0000
,
0010
0100
1001
1001
,
1000
0001
0100
0010
,
1000
0000
0100
1000
,
0010
0100
0001
0100
,
0001
0001
0101
0101
,
1000
0010
1000
0100
,
0001
0000
0010
0001
,
0010
0100
1000
0001
,
1000
1000
1100
1100
,
0010
0001
0010
0100
,
1000
0010
1000
0001
,
0010
0100
1000
0001
,
0100
0100
0110
0110
,
0001
0010
0001
0100
,
0010
1000
0100
0010
,
0001
0100
0001
1000
,
0100
1000
0001
1000
,
0010
1000
0100
0010
,
0001
0100
0001
0010
,
0100
1000
0010
1000
,
0100
1000
0001
0010
,
0100
0010
0001
0100
,
0010
1000
0001
1000
,
0100
1100
0101
1001
,
0000
0110
0000
0000
;

//---------------dance-single - ----------------
#NOTES:
     dance-single:
     :
     Medium:
     10:
     :
0000
0000
0000
0000
,
0000
0000
0000
0000
,
0000
0000
0000
0000
,
0000
0000
0000
0000
,
0000
0000
0000
0000
,
1000
0000
1000
0000
0001
0010
0001
0000
,
0100
0000
0100
0000
0010
1000
0010
0000
,
1000
0000
0100
0000
0010
0001
0100
0000
,
0001
1000
0001
1000
0010
1000
0100
0000
,
2000
0002
0000
3003
,
0010
0000
0001
0000
0100
0000
0010
1000
,
0010
0000
0100
0000
0001
0000
0010
0100
,
1000
0000
0010
0000
1000
0001
0100
0010
,
2000
0002
0000
3003
,
0010
0000
0001
0000
1000
0000
0100
1000
,
0010
0000
0100
0000
0001
1000
0100
0000
,
1000
0000
0001
0000
1000
0000
0001
0000
0100
0000
0000
0000
0010
0000
0000
1000
,
0000
0000
0002
0000
0000
0000
0000
0000
1003
0000
0100
0000
1000
0000
0000
0010
,
0000
0000
0200
0000
0000
0000
0000
0000
0301
0000
1000
0000
0100
0000
0000
0100
,
0000
0000
0010
0000
0000
0010
0000
0000
0001
0000
0100
0000
0001
0000
0000
1000
,
0000
0000
0010
0000
1000
0000
0100
0000
1000
0000
0001
0000
0010
0000
0000
0100
,
0000
0000
2000
0000
0000
0000
0000
0000
3010
0000
1000
0000
0001
0000
0000
1000
,
0000
0000
0200
0000
0000
0000
0000
0000
0310
0000
0100
0000
1000
0000
0000
1000
,
0000
0000
0001
0000
0000
0001
0000
0000
0100
0000
0001
0000
0010
0000
0100
0000
,
0010
0100
1000
0001
0010
0001
0010
0001
,
0010
0001
0000
0200
0000
0310
1000
0010
,
1000
0010
0000
0200
0000
0301
1000
0001
,
1000
0100
0010
0001
0000
0000
0000
0000
,
0101
0000
1010
0000
1000
0100
1000
0100
,
1000
0100
0000
0020
0000
0031
0100
0001
,
0100
0001
0000
0020
0000
0031
0010
0100
,
1000
0100
0010
0001
0000
1000
0001
0000
,
0011
1100
0002
0100
,
1003
0100
0010
0001
0000
0100
0010
0100
,
0001
2000
0000
3200
0000
1300
0010
1000
,
0100
0010
0000
0002
0000
1003
0000
0000
,
1001
0110
0020
1000
,
0100
0000
1030
0001
0000
0010
0001
0010
,
0001
2000
0000
0000
3010
0100
0001
1000
,
0100
0010
0001
2000
0000
3010
0100
0010
,
2000
3001
0101
1100
,
0000
0010
1000
0002
0000
0023
0000
0032
,
0000
0203
0000
0320
0000
1030
0100
1000
,
0100
0010
0001
1000
0010
0100
0010
0100
,
0002
1003
1010
0011
,
0000
1000
0001
2000
0000
3200
0000
0320
,
0000
0032
0000
0203
0000
0310
1000
0010
,
1000
0100
0010
0001
0100
0010
0100
0010
,
2000
3001
1001
0110
,
0000
1000
0100
0002
0000
2003
0000
3200
,
0000
2300
0000
3020
0000
0130
0010
0100
,
0001
0010
0100
1000
0010
0100
0010
0100
,
0002
1003
0110
1001
,
0000
1000
0010
0200
0000
0320
0000
2030
,
0000
3002
0000
0023
0000
0031
0100
0001
,
0010
0100
1000
0002
0000
2003
0000
3002
,
0000
0000
0103
0000
0010
0000
0000
1000
0000
0000
1200
0000
0000
0000
0000
0000
,
1300
0000
0010
0000
1000
0000
0000
0001
0000
0000
0201
0000
0000
0000
0000
0000
,
0310
0000
1000
0000
0100
0000
0000
0010
0000
0000
0001
0000
0000
1000
0000
0000
,
0010
0000
0100
0000
0010
0000
0000
1000
0000
0000
0001
0000
1000
0000
0010
0000
,
1000
0000
0001
0000
0100
0000
0000
0010
0000
0000
1020
0000
0000
0000
0000
0000
,
0130
0000
0001
0000
1000
0000
0000
0001
0000
0000
0012
0000
0000
0000
0000
0000
,
1003
0000
0010
0000
1000
0000
0000
0100
0000
0000
0010
0000
0000
0001
0000
0000
,
0100
0001
0010
0100
0010
0100
1000
0002
,
0000
0000
0103
0020
0000
0000
0000
0000
,
0000
0030
0000
0000
;

//---------------dance-single - ----------------
#NOTES:
     dance-single:
     :
     Hard:
     13:
     :
0000
0000
0000
0000
,
0000
0000
0000
0000
,
0000
0000
0000
0000
,
0000
0000
0000
0000
,
0000
0000
0000
0000
,
1000
0100
1000
0000
0001
0100
0001
0000
,
1000
0010
1000
0000
0001
0010
0001
0000
,
0100
0010
0100
0000
0001
1000
0001
0000
,
0010
0001
0010
0100
1000
0010
1000
0001
,
0200
0020
0000
0330
,
1000
0000
0000
0100
0000
0000
1000
0000
0000
0000
0000
0000
0001
0100
0001
0100
,
0001
0000
0000
1000
0000
0000
0010
0000
0000
1000
0000
0000
0010
0100
0010
0100
,
0010
0000
0000
0100
0000
0000
0001
0000
0000
1000
0001
0000
1000
0000
0100
0000
,
0020
0200
0000
0330
,
1000
0000
0000
0001
0000
0000
0010
0000
0000
0000
0000
0000
0000
0001
0100
0001
,
0100
0000
0000
0010
0000
0000
1000
0000
0000
0001
0000
0000
1000
0100
1000
0000
,
0010
0100
0010
0100
0010
0000
1000
0000
1001
0000
0000
0000
0010
0000
0000
0001
,
0000
0000
2200
0000
3000
0000
0000
0000
1300
0010
1000
0010
1000
0000
0000
0001
,
0000
0000
0202
0000
0003
0000
0000
0000
0310
0100
0010
0100
0010
0000
0000
1000
,
0000
0000
0100
0000
0000
0010
0000
0000
0001
0100
0001
0100
0001
0000
0000
1000
,
0000
0000
0100
0010
0100
0010
0100
0000
1000
0000
0001
0000
0100
0000
0000
0010
,
0000
0000
2020
0000
0030
0000
0000
0000
3100
1000
0100
1000
0100
0000
0000
0010
,
0000
0000
0022
0000
0003
0000
0000
0000
0031
1000
0001
1000
0001
0000
0000
0100
,
0000
0000
0001
0000
0000
1000
0000
0000
0100
0010
0100
0010
0100
0000
1000
0000
,
0001
0100
0001
0100
0001
0000
1000
0000
0110
0000
0001
0000
0100
0000
0010
0000
,
1000
0001
0000
0020
0000
0031
0100
0010
,
0100
0001
0000
2000
0000
3100
0001
0100
,
1000
0010
0100
0001
0010
0001
0010
0100
,
2000
0000
3002
0000
1003
0010
0100
0010
,
1000
0001
0000
0200
0000
0301
0010
0001
,
1000
0100
0000
0002
0000
0013
1000
0010
,
0100
0010
0001
1000
0010
1000
0001
0100
,
0101
0000
1010
0000
1100
0001
1000
0010
,
1000
0000
0100
0000
1000
0000
0001
0000
0010
0000
0001
0100
0000
0001
0100
0000
,
1000
1000
0000
0020
0000
1030
0001
1000
,
0100
0010
0001
0200
0000
0310
1000
0001
,
0011
0000
1001
0000
0110
0010
1000
0100
,
0001
0000
0100
0000
1000
0000
0010
0000
0100
0001
0100
0000
0001
0000
0010
0000
,
1000
1000
0000
0100
0010
0100
1000
0010
,
1000
0001
0010
0100
1000
0010
1000
0001
,
0100
0100
0110
1001
,
1000
0010
1000
0001
0010
1000
0010
0001
,
0100
0010
1000
0001
0010
0100
0010
1000
,
0010
0001
0100
0010
0001
0010
1000
0100
,
0010
0010
0011
0101
,
0010
1000
0100
0001
0100
0010
0100
1000
,
0010
0100
0001
1000
0100
0001
0100
1000
,
0010
1000
0100
0010
0001
0100
0010
1000
,
1100
1010
1100
0101
,
0010
0001
0100
1000
0100
0010
0100
1000
,
0100
0001
0010
1000
0010
0100
0010
1000
,
0010
0001
0100
0010
1000
0100
1000
0001
,
1001
1010
0011
0110
,
1000
0001
0100
0010
1000
0100
0001
0100
,
0010
0100
0001
0100
1000
0010
0001
0010
,
0100
0010
0001
0010
1000
0001
1000
0010
,
0001
0000
0100
0000
0001
0000
0000
0010
0000
0000
0022
0000
0003
0000
0000
0000
,
0130
1000
0100
1000
0100
0000
0000
0010
0000
0000
2002
0000
3000
0000
0000
0000
,
1003
0010
1000
0010
1000
0000
0000
0001
0000
0000
0010
0000
0000
0100
0000
0000
,
1000
0010
1000
0010
1000
0000
0000
0001
0000
0000
0100
0010
0100
0010
0100
0000
,
0001
0000
1000
0000
0100
0000
0000
1000
0000
0000
2200
0000
0300
0000
0000
0000
,
3010
0100
0010
0100
0010
0000
0000
1000
0000
0000
2020
0000
3000
0000
0000
0000
,
0130
0001
0100
0001
0100
0000
0000
0010
0000
0000
1000
0000
0000
0001
0000
0000
,
0010
0001
0010
0001
0010
0000
0100
0000
1000
0001
1000
0001
1000
0000
1001
0000
,
0000
0000
0100
0101
0000
0000
0000
0000
;
