#VERSION:0.83;
#TITLE:IMPLANTATION;
#SUBTITLE:;
#ARTIST:TOMOSUKE;
#TITLETRANSLIT:;
#SUBTITLETRANSLIT:;
#ARTISTTRANSLIT:;
#GENRE:;
#ORIGIN:;
#TAGS:;
#CREDIT:;
#BANNER:IMPLANTATION-bn.png;
#BACKGROUND:IMPLANTATION-bg.png;
#PREVIEWVID:;
#JACKET:IMPLANTATION-jacket.png;
#CDIMAGE:;
#DISCIMAGE:;
#LYRICSPATH:;
#CDTITLE:;
#MUSIC:IMPLANTATION.ogg;
#OFFSET:0.000000;
#SAMPLESTART:23.172001;
#SAMPLELENGTH:20.000000;
#SELECTABLE:YES;
#DISPLAYBPM:145.000000;
#BPMS:0.000000=145.000000;
#STOPS:;
#DELAYS:;
#WARPS:;
#TIMESIGNATURES:0.000000=4=4;
#TICKCOUNTS:0.000000=4;
#COMBOS:0.000000=1;
#SPEEDS:0.000000=1.000000=0.000000=0;
#SCROLLS:0.000000=1.000000;
#FAKES:;
#LABELS:0.000000=Song Start;
#BGCHANGES:;
#KEYSOUNDS:;
#ATTACKS:
;

//---------------dance-single - ----------------
#NOTEDATA:;
#CHARTNAME:;
#CHARTHASH:0:
#STEPSTYPE:dance-single;
#BANNER:;
#DESCRIPTION:;
#CHARTSTYLE:;
#DIFFICULTY:Hard;
#METER:12;
#METERF:0.000000;
#RADARVALUES:0.605280,0.652190,0.176082,0.308143,0.566762,385.000000,369.000000,16.000000,28.000000,0.000000,0.000000,0.000000,0.000000,0.000000,0.605280,0.652190,0.176082,0.308143,0.566762,385.000000,369.000000,16.000000,28.000000,0.000000,0.000000,0.000000,0.000000,0.000000;
#CREDIT:;
#DISPLAYBPM:145.000000;
#NOTES:
0000
0000
0000
0000
,
0000
0000
0000
0000
,
2000
3002
0023
0230
,
0320
0032
2003
3000
,
0001
0000
0000
0010
0000
0000
0100
0000
1000
0000
0000
0010
0000
0000
0100
0000
,
0001
0000
0000
1000
0000
0000
0100
0000
0010
0000
0000
0000
0001
0000
1000
0000
,
0110
0000
0000
0001
0100
0000
0000
0000
0010
0000
1000
0000
0100
0000
0010
0000
,
0001
1000
0000
0001
1000
0000
0000
0000
0010
0000
0100
0000
0001
0000
0010
0000
,
0100
0000
0000
1000
0001
0000
0000
0000
0100
0000
0010
0000
1000
0000
0001
0000
,
0010
0100
0000
0010
0100
0000
0000
0000
1000
0000
0010
0000
1000
0000
0001
0000
,
0020
0032
0203
0320
,
2030
0000
3002
0000
0203
0010
0310
0000
,
1000
0100
0000
1000
0100
0000
0000
0010
0000
0000
0001
0000
1000
0000
0010
0000
,
0100
0001
0000
0100
0001
0000
0000
1000
0000
0000
0010
0000
1000
0000
0001
0000
,
1000
0000
0001
0100
0001
0100
0000
0010
0000
0010
0000
0010
1000
0000
0001
0000
,
0010
0000
0100
1000
0100
1000
0000
0001
0000
0001
0000
0001
0100
0000
0010
0000
,
0100
0000
0001
1000
0001
1000
0000
0010
0000
0010
0000
0010
1000
0000
0100
0000
,
0010
0000
0001
0100
0001
0100
0000
1000
0000
1000
0000
1000
0100
0000
0010
0000
,
0001
0000
0100
0010
0100
0010
0000
1000
0000
1000
0000
1000
0001
0000
0100
0000
,
0001
0000
1000
0010
1000
0010
0000
0100
0000
0100
0000
0100
0001
0000
0010
0000
,
0100
0000
0010
0001
0010
0001
0000
1000
0000
1000
0000
1000
0010
0000
0100
0000
,
0001
0000
1000
0100
1000
0100
0000
0010
0000
0010
0000
0010
0001
0000
0100
0000
,
1002
0023
0230
2300
,
3002
2003
3200
0300
,
0110
0000
0001
0000
1000
0000
0000
0010
0000
0000
1000
0000
0001
0000
0100
0000
,
0001
0000
0010
0000
0100
0000
0000
1000
0000
0001
1000
0000
0000
0000
1001
0000
,
2001
3020
2030
3200
,
0320
0032
0203
0300
,
0110
0000
0010
0000
1000
0000
0000
0001
0000
0000
1000
0000
0100
0000
0010
0000
,
0001
0000
0100
0000
0010
0000
0000
1000
0000
0001
1000
0000
0000
0000
1001
0000
,
1001
0000
0000
0001
0100
0000
0000
0100
0010
0000
0000
0010
1000
0000
0000
1000
,
0100
0000
0000
0100
0010
0000
0000
0010
0001
0000
0000
0001
1000
0000
0100
0000
,
0010
0000
0000
0010
0001
0000
0000
0001
1000
0000
0000
1000
0100
0000
0000
0100
,
1000
0000
0001
0000
0100
0000
0000
0010
0000
1000
0000
0001
1000
0000
0100
0000
,
0010
0000
0000
0010
0100
0000
0000
0100
1000
0000
0000
1000
0001
0000
0000
0001
,
1000
0000
0000
1000
0010
0000
0000
0010
0100
0000
0000
0100
0001
0000
0010
0000
,
0100
0000
0000
0100
0010
0000
0000
0010
0100
0000
0000
0100
1000
0000
0000
1000
,
0010
0000
0000
0010
0100
0000
0000
0100
0001
0000
0000
0001
1000
0000
0010
0000
,
0110
0000
0001
0000
1000
0001
0000
0000
0000
0000
0010
0000
1000
0100
1000
0000
,
0000
0000
0010
0000
0100
0010
0000
0000
0000
0000
1000
0000
0001
0100
0001
0000
,
0000
0000
1000
0000
0100
1000
0000
0000
0000
0000
0010
0000
0100
0001
0100
0000
,
0000
0000
0001
0000
0010
0001
0000
0000
0000
0000
0100
0000
1000
0001
1000
0000
,
0110
0000
0000
0000
0001
0000
0000
0100
0000
0000
0010
0000
0100
0000
0000
0001
,
0000
0000
1000
0000
0001
0000
0000
0010
0000
0000
0001
0000
0100
0000
0110
0000
,
0110
0000
0000
0001
0000
0000
1000
0000
0100
0000
0000
0010
0000
0000
1001
0000
,
1001
0000
0000
0000
0110
0000
0000
0000
1001
0000
0000
0010
0100
0000
0100
0000
,
0000
0001
0001
0010
0100
1000
0010
0100
,
0000
0010
0010
1000
0100
0010
0001
1000
,
0000
0001
0001
1000
0100
0010
0001
0100
,
0000
1000
1000
0001
1000
0010
0100
0001
,
0000
1000
1000
0100
0010
0100
0010
0001
,
0000
0100
0100
0010
1000
0001
1000
0100
,
0000
0001
0001
0010
0100
1000
0100
1000
,
0000
0010
0010
1000
0100
1000
0001
0001
;

//---------------dance-single - ----------------
#NOTEDATA:;
#CHARTNAME:;
#CHARTHASH:0:
#STEPSTYPE:dance-single;
#BANNER:;
#DESCRIPTION:;
#CHARTSTYLE:;
#DIFFICULTY:Medium;
#METER:10;
#METERF:0.000000;
#RADARVALUES:0.437059,0.444675,0.077036,0.484224,0.165076,278.000000,271.000000,7.000000,44.000000,0.000000,0.000000,0.000000,0.000000,0.000000,0.437059,0.444675,0.077036,0.484224,0.165076,278.000000,271.000000,7.000000,44.000000,0.000000,0.000000,0.000000,0.000000,0.000000;
#CREDIT:;
#DISPLAYBPM:145.000000;
#NOTES:
0000
0000
0000
0000
,
0000
0000
0000
0000
,
2000
3002
0023
0230
,
0320
0032
2003
3000
,
0010
0010
1000
1000
,
0001
0001
0100
0100
,
0110
0001
1000
0000
0000
0100
0010
0000
,
0001
0100
0001
0000
0000
1000
0010
0000
,
1000
0100
0010
0000
0000
0001
0100
0000
,
0001
0010
0001
0000
0000
1000
0100
0000
,
2000
3002
0023
0230
,
0320
0032
2003
3000
,
0001
1000
0010
0000
0000
0100
0001
0000
,
0010
0100
1000
0000
0000
0001
1000
0000
,
0010
0000
1000
0000
0100
0000
0000
1000
0000
0001
0000
0000
0010
0000
0100
0000
,
1000
0000
0001
0000
0100
0000
0000
0010
0000
0100
0000
0000
0001
0000
1000
0000
,
0100
0000
0010
0000
0001
0000
0000
1000
0000
0100
0000
0000
1000
0000
0001
0000
,
0010
0000
0001
0000
0100
0000
0000
0010
0000
1000
0000
0000
0001
0000
0100
0000
,
0001
0000
0010
0000
0100
0000
0000
1000
0000
0010
0000
0000
1000
0000
0001
0000
,
0010
0000
0001
0000
1000
0000
0000
0100
0000
0010
0000
0000
0001
0000
1000
0000
,
0100
0000
1000
0000
0001
0000
0000
0010
0000
0001
0000
0000
1000
0000
0010
0000
,
1000
0000
0100
0000
0001
0000
0000
1000
0000
0001
0000
0000
0100
0000
0010
0000
,
2000
3002
0023
0230
,
0320
0000
0032
0000
2003
0000
3000
0010
,
1001
0000
0000
0000
0100
0000
0000
0010
0000
1000
0000
0000
1000
0000
0001
0000
,
0010
0000
0100
0000
1000
0000
0000
0001
0000
0000
1000
0000
0000
0000
0100
0000
,
2000
3002
0023
0230
,
0320
0000
0032
0000
2003
0000
3000
0001
,
0110
0000
0000
0000
0010
0000
0000
0100
0000
0001
0000
0000
1000
0000
0100
0000
,
0010
0000
0001
0000
0100
0000
0000
0010
0000
0000
1000
0000
0001
0000
0000
0000
,
2001
3002
0023
0230
,
2300
0000
3020
0000
0230
0000
0302
1000
,
0003
0000
0001
0000
0000
0010
0000
0000
0100
0000
0000
1000
0000
0000
0010
0000
,
1000
0001
0100
0000
0010
1000
0001
0000
,
0020
0032
2003
3200
,
2300
0000
3002
0000
0203
0000
0320
1000
,
0030
0000
0010
0000
0000
1000
0000
0000
0100
0000
0000
0010
0000
0000
0001
0000
,
0010
0001
1000
0000
0010
1000
0100
0000
,
0000
0000
1000
0000
0000
1000
0000
0000
0000
0000
0001
0000
0010
0000
0100
0000
,
0000
0000
0010
0000
0000
0010
0000
0000
0000
0000
0001
0000
1000
0000
0100
0000
,
0000
0000
0001
0000
0000
0001
0000
0000
0000
0000
0010
0000
0100
0000
1000
0000
,
0000
0000
0100
0000
0000
0100
0000
0000
0000
0000
1000
0000
0010
0000
0001
0000
,
0100
0010
1000
0000
0000
0001
1000
0000
,
0000
0100
0010
0000
0000
0001
0100
0010
,
1000
0001
0100
0000
0000
0010
1000
0001
,
0011
0000
0110
0000
1100
0000
0010
0100
,
0010
0000
1000
0100
0000
0100
0001
0000
,
0001
0010
0000
0010
1000
0000
0001
1000
,
0000
1000
0100
0000
0010
0000
0001
1000
,
0000
0001
1000
0000
0010
0000
1000
0100
,
0010
0000
0001
0100
0000
0100
1000
0000
,
1000
0010
0000
0010
0001
0000
0100
0010
,
0000
1000
0001
0000
0010
0000
0001
0100
,
0000
0001
1000
0000
0100
0000
0010
0001
;

//---------------dance-single - ----------------
#NOTEDATA:;
#CHARTNAME:;
#CHARTHASH:0:
#STEPSTYPE:dance-single;
#BANNER:;
#DESCRIPTION:;
#CHARTSTYLE:;
#DIFFICULTY:Easy;
#METER:7;
#METERF:0.000000;
#RADARVALUES:0.309715,0.414067,0.132061,0.044020,0.000000,197.000000,185.000000,12.000000,4.000000,0.000000,0.000000,0.000000,0.000000,0.000000,0.309715,0.414067,0.132061,0.044020,0.000000,197.000000,185.000000,12.000000,4.000000,0.000000,0.000000,0.000000,0.000000,0.000000;
#CREDIT:;
#DISPLAYBPM:145.000000;
#NOTES:
0000
0000
0000
0000
,
0000
0000
0000
0000
,
1000
0001
0010
0100
,
0010
0001
2000
3000
,
0010
0000
0010
0000
,
1000
0000
0001
1001
,
0110
0100
0000
0010
,
0100
1000
0000
0001
,
1000
0010
0000
0001
,
0010
0100
0000
1000
,
0001
0010
0100
1000
,
0010
0100
0002
0003
,
1000
0001
0000
0010
,
0100
1000
0000
0001
,
0010
0001
1000
0010
,
0100
0010
1000
0001
,
0010
0001
0100
0010
,
1000
0001
1000
0100
,
1000
0010
0100
0001
,
0010
0001
0100
1000
,
0001
1000
0010
1000
,
0100
0010
0001
1000
,
1001
0100
0010
1000
,
0100
0010
0002
0003
,
1000
0000
0001
0000
,
0010
0000
0100
0000
,
0110
0010
0100
1000
,
0001
0100
0020
0030
,
1000
0100
0001
0010
,
0100
0010
0001
1000
,
0010
1000
0010
0100
,
0001
0010
0001
0100
,
1000
0010
1000
0001
,
1000
0100
0010
0001
,
0100
0010
0100
0001
,
0010
0100
1000
0001
,
1000
0001
0010
0100
,
0001
0010
1000
0100
,
1001
0001
0000
1000
,
0000
0100
0000
0010
,
0110
0100
0000
1000
,
0000
0010
0000
0001
,
1001
0001
0010
1000
,
0010
0100
0010
0001
,
0110
1000
0100
0001
,
1001
0110
1001
0110
,
0100
1000
0001
0010
,
1000
0001
0100
1000
,
0100
0010
1000
0100
,
0001
0010
0001
0100
,
0010
1000
0100
0010
,
0001
0100
0001
0010
,
1000
0100
0001
1000
,
0001
0010
0100
1000
;

//---------------dance-single - ----------------
#NOTEDATA:;
#CHARTNAME:;
#CHARTHASH:0:
#STEPSTYPE:dance-single;
#BANNER:;
#DESCRIPTION:;
#CHARTSTYLE:;
#DIFFICULTY:Beginner;
#METER:2;
#METERF:0.000000;
#RADARVALUES:0.147783,0.177457,0.066031,0.000000,0.000000,94.000000,88.000000,6.000000,0.000000,0.000000,0.000000,0.000000,0.000000,0.000000,0.147783,0.177457,0.066031,0.000000,0.000000,94.000000,88.000000,6.000000,0.000000,0.000000,0.000000,0.000000,0.000000,0.000000;
#CREDIT:;
#DISPLAYBPM:145.000000;
#NOTES:
0000
0000
0000
0000
,
0000
0000
0000
0000
,
1000
0000
1000
0000
,
1000
0000
1000
0000
,
0001
0000
0000
0000
,
0000
0000
0000
0000
,
1001
0000
0000
0010
,
0010
0000
0000
1000
,
1000
0000
0000
0001
,
0001
0000
0000
0100
,
0100
0000
0100
0000
,
0100
0000
0100
0000
,
0010
0000
0000
1000
,
1000
0000
0000
0000
,
0001
0000
0001
0000
,
0010
0000
0010
0000
,
0100
0000
0100
0000
,
1000
0000
1000
0000
,
0010
0000
0010
0000
,
0100
0000
0100
0000
,
0001
0000
0001
0000
,
1000
0000
1000
0000
,
0001
0000
0001
0000
,
0001
0000
0001
0000
,
1001
0000
0000
0000
,
0000
0000
0000
0000
,
0010
0000
0010
0000
,
0010
0000
0010
0000
,
1001
0000
0000
0000
,
0000
0000
0000
0000
,
1000
0000
0001
0000
,
0010
0000
0010
0000
,
0001
0000
0100
0000
,
0010
0000
1000
0000
,
1000
0000
0100
0000
,
0010
0000
0001
0000
,
0010
0000
0100
0000
,
1000
0000
0010
0000
,
1001
0000
0000
0000
,
0000
0000
0000
0000
,
1001
0000
0000
0000
,
0000
0000
0000
0000
,
1000
0000
0001
0000
,
1000
0000
0010
0000
,
1001
0000
0000
0000
,
0010
0010
0010
0000
,
0000
0000
0100
0100
,
0000
0000
0001
0001
,
0000
0000
1000
1000
,
0000
0000
0010
0010
,
0000
0000
1000
1000
,
0000
0000
0100
0100
,
0000
0000
0010
0010
,
0000
0000
0001
0001
;

//---------------dance-single - ----------------
#NOTEDATA:;
#CHARTNAME:;
#CHARTHASH:0:
#STEPSTYPE:dance-single;
#BANNER:;
#DESCRIPTION:;
#CHARTSTYLE:;
#DIFFICULTY:Challenge;
#METER:15;
#METERF:0.000000;
#RADARVALUES:0.908706,0.830059,0.286132,0.000000,1.194053,578.000000,552.000000,26.000000,0.000000,0.000000,0.000000,0.000000,0.000000,0.000000,0.908706,0.830059,0.286132,0.000000,1.194053,578.000000,552.000000,26.000000,0.000000,0.000000,0.000000,0.000000,0.000000,0.000000;
#CREDIT:;
#DISPLAYBPM:145.000000;
#NOTES:
// measure 0
0000
0000
0000
0000
,  // measure 1
0000
0000
0000
0000
,  // measure 2
1000
0010
1000
0010
0100
0001
0100
0001
,  // measure 3
0010
0100
0010
0100
1000
0001
1000
0001
,  // measure 4
0010
0100
0010
0100
1000
0001
1000
0001
,  // measure 5
0010
0000
0001
0000
0010
0000
0100
0000
1000
0000
0001
0000
0100
0010
0100
0010
,  // measure 6
1000
0001
0000
0001
0010
0000
0100
1000
0000
0010
0100
0000
0001
1000
0001
1000
,  // measure 7
0100
1000
0000
1000
0001
0000
0010
0100
0000
0010
0001
0000
1000
0001
1000
0001
,  // measure 8
0010
0001
0000
1000
0001
0000
1000
0100
0000
0100
0010
0000
0100
1000
0010
0100
,  // measure 9
0001
0010
0000
0001
0100
0000
0010
1000
0000
0100
0010
0000
0001
1000
0001
1000
,  // measure 10
0010
1000
0000
0001
0010
0000
0100
0010
0000
0001
0100
0000
0010
1000
0001
1000
,  // measure 11
0100
1000
0000
1000
0010
0000
0100
0001
0000
0001
0010
0000
0001
1000
0100
0010
,  // measure 12
0001
0010
0000
0100
1000
0000
0001
0100
0000
0010
1000
0000
0100
0010
0100
1000
,  // measure 13
0010
1000
0000
0001
0010
0000
0001
1000
0000
1000
0100
0000
1000
0001
0010
0100
,  // measure 14
1000
0000
0001
0100
0001
1000
0000
1100
0000
1100
0000
0010
0100
0000
0001
0000
,  // measure 15
0010
0000
0100
1000
0001
1000
0000
0101
0000
0101
0000
0001
0010
0100
1000
0000
,  // measure 16
0010
0000
1000
0100
1000
0001
0000
0011
0000
0011
0000
0010
0100
0000
1000
0000
,  // measure 17
0010
0000
1000
0001
0100
0010
0000
1010
0000
1010
0000
0010
0100
0001
1000
0000
,  // measure 18
0100
0000
0010
0001
1000
0001
0000
0011
0000
0011
0000
0100
0010
0000
1000
0000
,  // measure 19
0100
0000
0010
0100
1000
0010
0000
1100
0000
1100
0000
0001
0010
0001
0100
0000
,  // measure 20
1000
0000
0001
0010
0100
1000
0000
1010
0000
1010
0000
0100
0010
0000
0001
0000
,  // measure 21
0100
0000
1000
0001
1000
0010
0000
0101
0000
0101
0000
0001
1000
0100
0010
0000
,  // measure 22
0001
0100
0001
0000
1000
0000
0010
0100
0000
0100
0010
0000
1000
0000
0001
0000
,  // measure 23
0010
0100
0010
0000
0001
0000
1000
0100
0000
0100
1000
0000
0001
0000
1000
0000
,  // measure 24
0010
1000
0010
0000
1000
0000
0001
0100
0000
0100
0001
0000
0010
0000
0100
0000
,  // measure 25
1000
0010
1000
0000
0100
0000
0010
0001
0000
0001
0100
0000
0000
0000
0110
0000
,  // measure 26
1001
1000
0010
0100
0010
1000
0100
0010
,  // measure 27
0001
0100
0001
0010
0001
0100
0010
1000
,  // measure 28
1001
0001
0010
0001
0100
0010
1000
0001
,  // measure 29
0010
0100
1000
0010
0100
0001
1000
0001
,  // measure 30
0010
0001
0010
0000
0001
0100
0001
0000
1000
0100
1000
0000
0010
1000
0010
0000
,  // measure 31
1000
0001
1000
0000
0100
0010
0100
0000
1000
0010
1000
0010
0100
0001
0100
0001
,  // measure 32
0000
0000
0010
0100
0000
1000
0001
0000
0100
0010
0000
1000
0001
0000
0100
0000
,  // measure 33
0010
1000
0100
1000
0010
0000
0000
0110
0000
0110
0000
0001
1000
0010
1000
0001
,  // measure 34
1000
0100
1000
0000
0001
0010
0001
0000
0100
0001
0100
0000
0010
1000
0010
0000
,  // measure 35
0100
0010
0100
0000
0001
1000
0001
0000
1000
0100
1000
0100
0010
0001
0010
0001
,  // measure 36
0000
0000
1000
0001
0000
1000
0010
0000
0100
0010
0000
0100
0001
0000
1000
0000
,  // measure 37
0100
1000
0010
1000
0001
0100
0000
1001
0000
1001
0000
0001
0010
0100
1000
0000
,  // measure 38
0000
0001
0100
0001
0100
0001
0000
0000
0000
1000
0100
1000
0100
0010
0001
0000
,  // measure 39
0000
0100
0010
0100
0010
0100
0000
0000
0000
0001
0010
0001
0010
0100
1000
0000
,  // measure 40
0000
1000
0100
1000
0100
1000
0000
0000
0000
0010
0100
0010
0100
0001
1000
0000
,  // measure 41
0000
0100
0010
0100
0010
0100
0000
0000
0000
1000
0010
1000
0010
0100
0001
0000
,  // measure 42
0010
0001
0100
0001
0010
0001
0000
0000
1000
0100
1000
0010
1000
0001
1000
0000
,  // measure 43
0010
1000
0010
0100
0010
1000
0000
0000
0001
0010
0001
0100
0001
1000
0001
0000
,  // measure 44
1000
0100
0010
0100
0010
0001
0000
0000
1000
0001
0010
0001
0100
0010
1000
0000
,  // measure 45
1100
0000
0000
0000
0110
0000
0000
0000
0011
0000
0000
1000
0001
1000
0001
1000
,  // measure 46
0100
0000
1000
0000
0010
0100
0001
0000
0010
0100
1000
0000
0001
0100
0001
0000
,  // measure 47
0000
0000
0010
0000
0001
0100
0010
0000
1000
0100
0010
0000
0001
1000
0001
0000
,  // measure 48
0000
0000
1000
0000
0010
0100
0001
0000
1000
0100
0010
0000
0100
1000
0100
0000
,  // measure 49
0000
0000
0010
0000
0001
0100
1000
0000
0010
1000
0100
0000
1000
0001
1000
0000
,  // measure 50
0010
0000
0100
0000
0001
0010
0100
0000
1000
0001
0100
0000
0010
1000
0010
0000
,  // measure 51
0000
0000
1000
0000
0100
1000
0001
0000
0010
0100
1000
0000
0001
0010
0001
0000
,  // measure 52
0000
0000
0100
0000
0010
1000
0001
0000
1000
0100
0001
0000
0010
0100
0010
0000
,  // measure 53
0000
0000
0001
0000
0100
0010
1000
0000
0100
1000
0001
0000
1000
0010
1000
0000
;
