#TITLE:ILAYZA;
#ARTIST:BEMANI Sound Team "TAG";
#BANNER:ILAYZA-bn.png;
#BACKGROUND:ILAYZA-bg.png;
#JACKET:ILAYZA-jacket.png;
#MUSIC:ILAYZA.ogg;
#SAMPLESTART:72;
#SAMPLELENGTH:20;
#DISPLAYBPM:160;
#BPMS:0=160;
#BGCHANGES:;

//---------------dance-single - ----------------
#NOTES:
     dance-single:
     :
     Beginner:
     4:
     :
0000
0000
0000
0000
,
0000
0000
0000
0000
,
0000
0000
0000
0000
,
0000
0000
0000
0000
,
1001
0000
0000
0000
,
0000
0000
0000
0000
,
1000
0000
0001
0000
,
1000
0000
0010
0010
,
0010
0000
0100
0000
,
0010
0000
0100
0000
,
0001
0000
1000
0000
,
0001
0000
1000
0000
,
0100
0000
0100
0000
,
1000
0000
1000
0000
,
0100
0000
0010
0000
,
0001
0000
0100
0000
,
0110
0000
1000
0000
,
0001
0000
0010
0000
,
0001
0000
0100
0000
,
2000
0000
0000
0000
,
3000
0000
0001
0000
,
1000
0000
0010
0000
,
1000
0000
0100
0000
,
0001
0000
0010
0010
,
0010
0000
0001
0000
,
0100
0000
0010
0000
,
1000
0000
0100
0000
,
1000
0000
0001
0000
,
0100
0000
0001
0001
,
0001
0000
1000
1000
,
1000
0000
0010
0000
,
0100
0000
0001
0001
,
0002
0000
0003
0000
,
1000
1000
1000
0000
,
0010
0000
1000
0000
,
0010
0000
0100
0000
,
0001
0000
0010
0000
,
0001
0000
0100
0000
,
1000
0000
1000
0000
,
0010
0000
0100
0000
,
0001
0000
0001
0000
,
1000
0000
1000
0000
,
0001
0000
1000
0000
,
0010
0000
0100
0000
,
0001
0000
1000
0000
,
0100
0100
0100
0000
,
0020
0000
0030
0000
,
0200
0000
0300
0000
,
0010
0000
0001
0000
,
0100
0000
0010
0000
,
1000
0000
0100
0000
,
1000
0000
0001
0000
,
0010
0000
0001
0000
,
0100
0000
0001
0000
,
1000
0000
0010
0000
,
0010
0000
1000
1000
,
1000
0000
0100
0000
,
0010
0010
0010
0010
,
0010
0000
0001
0000
,
0100
0100
0100
0100
,
0100
0000
0001
0001
,
0001
0000
0010
0000
,
0001
0000
1000
0000
,
0020
0000
0030
0000
,
1000
0000
0001
0000
,
1000
0000
0001
0000
,
0010
0000
0100
0000
,
0010
0000
0100
0000
,
0010
0000
0001
0000
,
0100
0000
0001
0000
,
0010
0000
0001
0000
,
0100
0000
2000
3000
;

//---------------dance-single - ----------------
#NOTES:
     dance-single:
     :
     Easy:
     7:
     :
0000
0000
0000
0000
,
0000
0000
0000
0000
,
0000
0000
0000
0000
,
0000
0000
0000
0000
,
1001
0010
1000
0100
,
0000
1000
0001
0100
,
0010
0010
0100
0100
,
0220
0030
0001
0301
,
1001
0100
1001
0100
,
1010
0100
1010
0100
,
0011
1000
0011
1000
,
0101
0010
0101
0010
,
0110
0001
0010
1000
,
0110
1000
0100
0001
,
0110
0001
0110
1000
,
0010
1000
0100
0001
,
0010
0000
0001
0100
,
0001
0001
1000
1000
,
0010
1000
0100
0010
,
0001
0100
0001
0100
,
0010
0000
1000
0001
,
1000
0100
1000
0010
,
0100
0001
0010
1000
,
0200
0000
1300
0001
,
1100
0000
0010
0100
,
0010
0010
1000
0001
,
0010
0001
0100
0001
,
1000
0010
0200
0300
,
0001
0010
0001
1000
,
0022
0030
0100
0013
,
1000
0100
1000
0001
,
0200
0000
0010
0310
,
0200
0000
0002
0303
,
0010
0001
2000
3000
,
1001
1000
0200
0300
,
1001
0010
0001
0100
,
1000
0010
0002
0003
,
0100
0100
0001
1000
,
1010
0001
0020
0030
,
0002
0003
2000
3000
,
0101
0010
1010
0100
,
1100
0001
0011
1000
,
1001
0100
0110
0010
,
1010
0100
0002
0003
,
0010
0001
0100
1000
,
1001
0110
1000
0001
,
0201
0010
0010
0310
,
1000
0010
1000
0001
,
0011
0000
0100
0100
,
1000
0010
1000
0100
,
0001
0010
0001
0100
,
1000
0010
1000
0010
,
0100
0000
0001
0010
,
0001
0001
1000
1000
,
0100
1000
0010
0001
,
2000
0000
0010
3001
,
1010
0000
0001
0100
,
0110
0110
1001
1001
,
1000
0010
1000
0001
,
0011
0011
1100
1100
,
0001
0100
1010
1010
,
0101
0101
1000
0001
,
0010
0001
0100
1000
,
0220
0000
0000
0030
,
1300
0010
0001
0100
,
0001
0010
0001
0100
,
1000
0001
0010
0001
,
0100
0010
0100
0010
,
1010
0001
0100
0001
,
0011
1000
0100
1000
,
1001
0010
1001
0010
,
1000
0100
0010
0001
;

//---------------dance-single - ----------------
#NOTES:
     dance-single:
     :
     Medium:
     11:
     :
0000
0000
0000
0000
,
0000
0000
0000
0000
,
0000
0000
0000
0000
,
0000
0000
0000
0000
,
1001
0000
0010
1000
0010
0100
0001
1000
,
0100
0000
1000
0010
1000
0100
0010
0001
,
0100
0000
0001
0010
0001
1000
0010
0100
,
0002
0000
0000
0000
0013
0001
1000
0100
,
0010
0000
0001
0000
0000
1000
0000
0000
0010
0000
0100
0000
0010
1000
0000
0000
,
0100
0000
0010
0000
0000
0001
0000
0000
1000
0000
0001
0000
1000
0100
0000
0000
,
0010
0000
0001
0000
1000
0001
0000
0000
0010
0000
0100
0000
1000
0100
0000
0000
,
1000
0000
0010
0000
1000
0001
0000
0000
0100
0000
0010
0000
0100
0001
0000
0000
,
0010
0000
0001
0000
0000
1000
0000
0000
0100
0000
1000
0000
0000
0010
0000
0000
,
0100
0000
0001
0000
0000
0010
0000
0000
0001
0000
1000
0000
0000
0100
0000
0000
,
1000
0000
0010
0000
1000
0010
0000
0000
0100
0000
0001
0000
0100
0001
0000
0000
,
0010
0000
0001
0000
1000
0100
0000
0000
1000
0000
0010
0000
0100
0000
0001
0000
,
0010
0000
0000
0000
0000
0000
0001
1000
0001
0000
0100
0000
0010
0000
1000
0000
,
0100
0000
0000
0100
0000
0000
1000
0000
0000
0001
0000
0000
1000
0000
0100
0000
,
0010
0000
0000
0001
0000
0000
0100
0000
0000
0001
0000
0000
1000
0000
0010
0000
,
0100
0101
0100
1100
,
0110
0000
0000
0000
0000
0000
0001
0010
0001
0000
0100
0000
0010
0000
1000
0000
,
0001
0000
0000
0001
0000
0000
1000
0000
0000
1000
0000
0000
0010
0000
0100
0000
,
0010
0000
0000
1000
0000
0000
0100
0000
0000
1000
0000
0000
0001
0000
0100
0000
,
0020
0000
0000
0000
0030
0000
1000
0001
1000
0000
0001
0000
0010
0000
0100
0000
,
1000
0000
0000
0000
0000
0000
0001
0100
0001
0000
0010
0000
0100
0000
1000
0000
,
0001
0000
0000
0100
0000
0000
0010
0000
0000
0100
0000
0000
0010
0000
0100
0000
,
0001
0000
0000
0001
0000
0000
1000
0000
0000
1000
0000
0000
0001
0000
1000
0000
,
0010
0000
0000
1000
0000
0000
0100
0000
0010
0000
0000
0001
0000
0000
0100
0000
,
0010
0000
0000
0100
0000
0000
0001
0000
1000
0000
0000
0000
1000
0000
0100
0000
,
0002
0000
0013
0001
2000
0000
3200
0000
,
2300
0000
3010
0200
0000
0301
0010
0002
,
1000
0103
1010
0011
,
0200
0000
0000
0020
0000
0000
0330
1000
,
2000
0000
0000
3020
0000
0000
0230
0000
0002
0000
0000
0000
0303
0000
0010
0000
,
0020
0000
0000
0032
0000
0000
2003
0000
0200
0000
0000
0000
3300
0000
0010
0000
,
0010
0000
0000
0001
0000
0000
0100
0000
0002
0000
0000
0000
1003
0000
0100
0000
,
1000
0001
0000
0202
0000
0000
0003
0010
,
0310
1010
1100
0011
,
2000
0000
0000
3002
0000
0000
0203
0000
0000
0000
0000
0000
0000
0000
0310
0000
,
0200
0000
0300
0001
2000
0000
3000
0000
,
0010
0000
0000
0010
0000
0000
0010
0000
1000
0000
0000
1000
0000
0000
1000
0000
,
0100
0000
0000
0100
0000
0000
0100
0000
0001
0000
0000
0001
0000
0000
0001
0000
,
0010
0000
0000
0010
0000
0000
0010
0000
0100
0000
0000
0100
0000
0000
0100
0000
,
1000
0000
0000
0001
0000
0000
2000
0000
0002
0000
0000
0000
3003
0000
0100
0010
,
0200
0000
0301
1000
0000
0100
1000
0002
,
0000
0003
0110
1001
,
0010
1000
0100
0000
0010
0001
0100
0000
,
0001
1000
0010
0100
0001
1000
0010
0100
,
0001
0000
0000
1000
0001
1000
0100
0010
,
0001
0000
0000
0001
0000
0000
1000
0000
0000
0100
0000
0000
1000
0000
0100
0000
,
1000
0000
0000
0010
0000
0000
1000
0000
0000
0010
0000
0000
0100
0000
0001
0000
,
0010
0011
0010
1010
,
0100
0000
0000
0001
1000
0010
1000
0100
,
0010
0000
0000
0001
0000
0000
0100
0000
0000
0010
0000
0000
1000
0000
0001
0000
,
0010
0000
0000
0001
0000
0000
1000
0000
0000
0100
0000
0000
1000
0000
0001
0000
,
0200
0000
0310
1000
0000
1000
0100
0001
,
0010
0000
0000
0001
0100
1000
0100
0001
,
0010
0000
0000
0010
0000
0000
0010
0000
0000
0010
0000
0000
0010
0000
0010
0000
,
0001
0000
0000
0100
0000
0000
0001
0000
0000
1000
0000
0000
0100
0000
1000
0000
,
0001
0000
0000
0001
0000
0000
0001
0000
1000
0000
0000
1000
0000
0000
1000
0000
,
0010
0000
0000
1000
0000
0000
1100
0000
0000
0101
0000
0000
0100
0000
0001
0000
,
0010
0000
0000
0100
0000
0000
1000
0000
0000
1000
0000
0000
0001
0000
0100
0000
,
0020
0000
1030
0002
0000
0013
0001
0200
,
1000
0301
1001
0110
,
1000
0010
1000
0000
0100
0010
0001
0000
,
0100
0001
0010
0000
0001
0100
1000
0000
,
0001
1000
0010
0000
1000
0100
0001
0000
,
0010
0100
0010
0000
0001
1000
0001
0000
,
0100
0000
0010
0000
1000
0010
0000
0000
1000
0000
0001
0000
0100
0000
0001
0000
,
1000
0000
0001
0000
1000
0100
0000
0000
0010
0000
0100
0000
0010
0001
0000
0000
,
1000
0000
0100
0000
0000
0010
0000
0000
0001
0000
1000
0000
0000
0001
0000
0000
,
1000
0000
0100
0000
1000
0100
0000
0000
0010
0000
0001
0000
0010
0001
0000
0000
;

//---------------dance-single - ----------------
#NOTES:
     dance-single:
     :
     Hard:
     14:
     :
0000
0000
0000
0000
,
0000
0000
0000
0000
,
0000
0000
0000
0000
,
0000
0000
0000
0000
,
1001
0000
0000
0010
0000
1000
0000
0001
0000
1000
0000
0000
0100
0000
0010
0000
,
0001
0000
0000
0100
0000
0010
0000
1000
0000
0001
0000
0000
1000
0000
0100
0000
,
0010
0000
0000
0001
0100
0000
0000
0010
1000
0000
0000
0100
0010
0000
0000
0002
,
2000
0000
0000
0000
0003
0000
0000
0000
3010
1000
0000
1000
0010
0000
0100
0000
,
0001
0000
0010
0000
0001
0100
0000
0010
0000
1000
0000
0000
0100
1000
0100
0000
,
0000
0000
1000
0000
0001
0100
0000
0010
0000
0100
0000
0000
0001
1000
0001
0000
,
0010
0000
0100
1000
0000
0010
0000
1000
0000
0001
0000
0000
0100
0001
0100
0000
,
0000
0000
0001
1000
0000
0100
0000
0010
0000
0100
0000
0000
1000
0001
1000
0001
,
1000
0000
0010
0000
0100
0001
0000
0010
0000
0001
0000
0000
1000
0100
1000
0000
,
0001
0000
1000
0000
0100
1000
0000
0001
0000
0010
0000
0000
0001
0100
0001
0000
,
0010
0000
0100
0000
1000
0010
0000
0100
0001
0000
1000
0000
0001
0010
0001
0000
,
0100
0000
0010
0000
1000
0001
0000
1000
0000
0000
0010
0100
0010
0000
0100
0001
,
0100
0000
0000
0000
0010
0000
1000
0100
1000
0000
0001
0000
0010
0000
0001
0000
,
0100
0000
0000
0100
0000
0000
0010
1000
0010
0000
1000
0001
1000
0000
0100
0000
,
0010
0000
0000
0010
0000
0000
0001
0000
1000
0100
0000
0100
1000
0000
0001
0000
,
0100
0010
1000
0010
0001
0010
1000
0010
,
0100
0000
0000
0000
0001
0000
0010
0100
0010
0000
0001
0000
1000
0000
0100
0000
,
1000
0000
0000
1000
0000
0000
0001
0000
0100
0010
0000
0010
0100
0000
0001
0000
,
0010
0000
0000
0001
0000
0000
1000
0000
0100
0010
0000
0100
0010
0000
0001
0000
,
0100
0000
0000
0000
0010
0000
1000
0100
1000
0000
0001
0000
1000
0000
0010
0000
,
0100
0000
0001
0000
0010
0000
0001
0100
0001
0000
1000
0000
0010
0000
1000
0000
,
0200
0000
0000
0320
0000
0000
0230
0000
0000
2300
0000
0000
3001
0000
1000
0000
,
0010
0000
0100
0001
0000
0100
0001
0000
0000
1000
0000
0010
1000
0000
0100
0000
,
0010
0000
0000
0001
0000
0000
1000
0000
1000
0000
0000
0001
0100
0000
0010
0100
,
0010
0000
0000
1000
0000
0000
0100
0000
1000
0001
0000
0001
0100
0000
0010
0000
,
2000
0000
3100
0010
0001
0000
0001
0100
,
0010
1000
0100
0200
0000
0310
0001
1000
,
0001
0000
0100
0000
0010
0000
1000
0000
0100
0010
0000
0000
0001
1000
0000
0000
,
1010
0001
0100
0010
1000
0100
0001
0000
,
0020
0000
0000
0032
0000
0000
2003
0000
0000
0000
3100
0000
1000
0000
0001
0000
,
0002
0000
0000
2003
0000
0000
0010
0000
3020
0000
0000
0000
0130
0000
0001
0000
,
0001
0000
0000
0010
0000
0000
0001
0000
2000
0000
0000
0000
3100
0000
1000
0000
,
0001
0100
0000
0102
0000
1000
1003
0100
,
1000
0010
0100
0010
0001
0010
0100
0000
,
0110
0000
0010
2000
0001
0000
3100
0010
,
0021
0000
0000
0000
0130
0000
1000
0000
2100
0000
0000
0000
3001
0000
1000
0100
,
1000
0000
0000
0010
0000
0000
1000
0000
0100
0000
0000
0010
0000
0000
0001
0000
,
0100
0000
0000
0010
0000
0000
1000
0000
0001
0000
0000
1000
0000
0000
0100
0000
,
0010
0000
0000
0001
0000
0000
1000
0000
0001
0000
0000
0100
0000
0000
0010
0000
,
1000
0000
0000
0001
0000
0000
0100
0000
0020
0000
1000
0000
1030
0000
0001
0010
,
0001
0100
0010
0001
0010
1000
0100
1000
,
0001
0000
0100
0000
1000
0000
0000
0010
1000
0000
0000
0001
0100
0000
0000
0010
,
0100
0000
0001
0000
0010
0000
1000
0000
0010
0000
0001
0000
1000
0100
1000
0000
,
0001
0100
0010
1000
0001
0010
0100
1000
,
0010
1000
0000
0010
0100
0000
0001
1000
0001
0000
0010
0000
0100
0000
1000
0000
,
0010
0000
0100
0010
0000
1000
0001
0000
1000
0100
0000
0100
0010
0000
0001
0000
,
0100
0000
0010
1000
0000
0010
1000
0000
0001
0100
0000
0001
0100
0000
0010
0000
,
1000
0100
0000
1000
0100
0000
0010
0000
0001
0100
0000
0010
0000
0000
1000
0001
,
1000
0000
0010
0000
0100
0000
0001
0010
0001
0000
1000
0000
0001
0000
0100
0000
,
0010
0000
1000
0100
0000
0100
0010
0000
0001
1000
0000
0001
1000
0000
0100
0000
,
0010
0000
0001
0100
0000
0100
0010
0000
1000
0001
0000
0001
1000
0000
0100
0000
,
0010
0000
0001
0000
0100
0000
0001
0010
0001
0000
1000
0000
0100
0000
0010
0000
,
0001
0000
0100
0000
0010
0000
1000
0001
1000
0000
0100
0000
0010
0000
0001
0000
,
0101
0000
0000
0101
0000
0000
1100
0000
0000
1100
0000
0000
0001
1000
0001
0000
,
0100
0000
0010
1000
0000
0001
1000
0000
0100
0010
0000
0001
0100
0000
0010
0000
,
1010
0000
0000
1010
0000
0000
1001
0000
1001
0000
0000
0011
0000
0000
0011
0000
,
0100
0000
1000
0010
0000
0010
0100
0000
0001
0010
0000
0001
1000
0000
0100
0000
,
0010
0000
0001
0100
0000
0001
1000
0000
0001
0010
0000
0100
1000
0000
0100
0000
,
0120
0000
0031
0100
0020
1000
1030
0001
,
0100
0010
1000
0001
0010
0100
1000
0001
,
0100
0000
0010
1000
0000
0100
0000
1000
0000
0001
0000
0000
0010
0001
0100
0000
,
0010
0000
1000
0001
0000
0010
0000
0001
1000
0100
1000
0000
0100
0010
0001
0000
,
0100
0000
0010
0000
1000
0001
0000
0010
0001
0100
0001
0000
1000
0010
1000
0000
,
0100
0000
0010
0000
0001
0100
0000
0010
1000
0000
0001
0000
1000
0100
1000
0100
,
0010
0000
0001
0100
0000
0010
0000
1000
0100
1000
0001
0000
0010
0001
0100
0000
,
0001
0000
0010
0000
0001
1000
0000
0010
1000
0000
0100
0000
1000
0001
0100
0000
,
0010
0000
1000
0100
0000
1000
0100
0000
0010
0000
0001
0100
0000
0001
0010
0000
,
0100
0000
1000
0010
1000
0001
0000
0000
0110
0000
0001
0100
0000
0010
1000
0000
;
