#TITLE:IKA UKA;
#SUBTITLE:(E=MC˛ MIX);
#ARTIST:JENNY ROM;
#BANNER:IKA UKA (E=MC2 MIX)-bn.png;
#BACKGROUND:IKA UKA (E=MC2 MIX)-bg.png;
#JACKET:IKA UKA (E=MC2 MIX)-jacket.png;
#MUSIC:IKA UKA (E=MC2 MIX).ogg;
#OFFSET:0.375;
#SAMPLESTART:57.503;
#SAMPLELENGTH:20;
#DISPLAYBPM:170;
#BPMS:0=170,35.75=165,36=170,51.75=180,52=170,83.75=165,84=170,115.75=180,116=170,139.75=175,140=170,151.75=165,152=170,183.75=172.5,184=170,211.75=165,212=170,231.75=165,232=170,295.75=165,296=170;
#BGCHANGES:;

//---------------dance-single - ----------------
#NOTES:
     dance-single:
     :
     Beginner:
     4:
     :
0000
0000
0000
0000
,
0000
0000
0000
0000
,
0000
0000
0000
0000
,
0000
0000
0000
0000
,
0000
0000
0000
0000
,
0001
0001
0001
0000
,
1000
1000
1000
0000
,
0010
0010
0010
0000
,
0100
0100
0100
0000
,
0001
0000
1000
0000
,
0100
0100
0100
0000
,
0010
0000
0001
0000
,
1000
1000
1000
0000
,
0001
0000
1000
0000
,
0010
0010
0010
0000
,
1000
0000
0100
0000
,
0001
0001
0001
0000
,
1001
0000
0010
0000
,
1000
0000
0100
0000
,
1000
0000
0001
0000
,
0100
0000
0000
0000
,
1001
0000
0001
0000
,
1000
0000
0010
0000
,
1000
0000
0100
0000
,
0001
0000
0010
0010
,
0010
0000
0001
0000
,
1000
0000
0010
0000
,
1000
0000
0100
0000
,
0010
0000
0000
0000
,
0001
0000
0100
0000
,
0001
0000
0010
0000
,
1000
0000
0100
0000
,
0001
0000
0000
0000
,
0100
0000
0100
0000
,
0010
0000
0010
0000
,
0100
0000
0010
0000
,
1000
1000
0000
0000
,
0010
0000
1000
0000
,
0100
0000
0010
0000
,
0001
0000
0100
0000
,
0001
0001
0001
0001
,
0001
0000
0010
0000
,
0100
0100
0100
0000
,
1000
0000
0001
0000
,
0100
0100
0100
0000
,
0001
0000
0010
0000
,
1000
1000
1000
0000
,
0010
0000
0100
0000
,
0010
0010
0010
0000
,
1000
0000
0100
0000
,
0010
0010
0010
0000
,
0001
0000
1000
0000
,
0100
0100
0100
0000
,
0010
0000
0001
0000
,
0010
0010
0010
0000
,
0001
0000
1000
0000
,
0001
0001
0001
0000
,
0010
0000
0100
0000
,
0010
0000
0100
0000
,
1000
0000
0010
0000
,
1000
1000
1000
0000
,
0100
0000
0010
0000
,
0001
0000
0100
0000
,
0001
0000
0010
0000
,
1000
1000
1000
0000
,
0010
0000
0100
0000
,
0010
0000
0100
0000
,
0002
0000
0003
0000
,
2000
0000
3000
0000
,
0001
0000
1000
0000
,
0001
0000
1000
0000
,
0020
0000
0030
0000
,
0200
0000
0300
0000
,
0001
0000
0001
0000
,
0001
0000
1000
0000
,
0010
0000
1000
0000
,
0100
0000
0010
0000
,
0001
0000
0100
0000
,
0010
0000
0010
0000
,
1001
0000
0000
0000
,
1001
0000
0000
0000
,
1001
0000
0000
0000
,
1000
0000
1001
0000
;

//---------------dance-single - ----------------
#NOTES:
     dance-single:
     :
     Easy:
     7:
     :
0000
0000
0000
0000
,
0000
0000
0000
0000
,
0000
0000
0000
0000
,
0000
0000
0000
0000
,
0000
0000
0000
0000
,
0001
1000
1000
0001
,
0100
0010
0100
0010
,
1000
0100
0001
0100
,
0010
0010
0010
0000
,
1000
1001
0001
1001
,
0100
0010
0100
0010
,
1000
1001
0001
1001
,
1000
0100
0001
0000
,
0010
0110
0100
0110
,
0001
0010
0001
1000
,
0100
0110
0010
0110
,
1000
0100
0001
0000
,
1001
1000
0001
0100
,
0010
1000
1000
0100
,
1000
0010
0010
0100
,
0002
0003
1000
0110
,
1001
0001
0010
1000
,
0100
0100
0010
0001
,
0100
0001
0001
0010
,
0002
0003
1001
1001
,
0110
0010
1000
0100
,
0110
0001
0100
0001
,
1001
1000
0001
0010
,
0200
0300
1000
0001
,
0010
0001
0100
0100
,
0010
1000
0100
0100
,
1000
0001
0010
0100
,
0200
0000
0300
0000
,
1000
0001
1000
1001
,
0100
0010
0100
0110
,
0001
0010
1000
0100
,
1000
1000
1000
0000
,
0010
1000
0100
0110
,
0001
0010
1000
1001
,
0010
1000
0100
0001
,
0010
0010
0010
0010
,
0001
0001
1000
1000
,
1001
0110
1001
0000
,
0010
1000
0200
0300
,
0010
0001
1000
1001
,
1000
1000
0001
0001
,
0110
1001
0110
0000
,
0010
1000
0100
0100
,
1000
0010
0001
0000
,
0010
0010
0100
0100
,
0110
0110
0110
0000
,
0001
0100
2000
3000
,
0010
1000
0001
1001
,
0100
0100
0010
0010
,
1001
1001
1001
0000
,
1000
0010
1000
0001
,
0010
0100
1000
0000
,
1000
0110
0001
0110
,
1000
0010
1000
0001
,
1000
0110
0001
0110
,
0100
0010
0100
0000
,
0010
1001
0100
1001
,
1000
0100
0010
0001
,
0100
1001
0010
1001
,
1000
0001
0010
0000
,
0002
0003
2000
3000
,
0010
1000
0100
0000
,
1000
1000
1000
0000
,
0001
0001
0001
0000
,
0200
0300
0020
0030
,
1000
0001
0100
0000
,
0100
0100
0100
0000
,
0010
0010
0010
0000
,
1000
0100
1000
0100
,
1000
0100
1000
0000
,
0001
0100
0010
0000
,
1000
1000
0001
0100
,
0001
0010
0001
0010
,
0001
0010
0001
0000
,
1001
1001
1001
0000
,
0110
0110
0110
0000
,
0001
0100
1000
0010
,
0110
1001
0110
1001
;

//---------------dance-single - ----------------
#NOTES:
     dance-single:
     :
     Medium:
     10:
     :
0000
0000
0000
0000
,
0000
0000
0000
0000
,
0000
0000
0000
0000
,
0000
0000
0000
0000
,
0000
0000
0000
0000
,
0001
0001
1000
1000
,
0001
0100
1000
0100
0001
0000
1000
0000
,
0010
0010
0100
0100
,
0010
1000
0100
1000
0010
0000
0000
0000
,
1001
0110
1001
1001
,
0010
0001
1000
0001
0010
0000
0100
0000
,
1100
0011
1100
1100
,
0001
0100
1000
0100
0001
0000
0000
0000
,
0101
1010
0101
0101
,
0100
0010
1000
0001
0010
0000
0100
0000
,
0110
1001
0110
0110
,
1000
0010
0001
0010
1000
0000
0000
0000
,
1100
0000
0001
1000
0000
1000
0001
0100
,
0010
0000
1000
0001
0000
0001
1000
0100
,
1000
0000
0010
0100
0000
0100
0010
1000
,
0002
0000
0003
0011
,
1010
0000
0100
1000
0000
1000
0100
0010
,
0001
0100
0001
0100
0000
0010
0100
0010
,
1000
0000
0100
0010
0000
0010
0100
1000
,
0002
0003
0011
0011
,
1001
0000
1000
0010
0000
0010
1000
0100
,
0010
0000
0001
0100
0000
0100
0001
1000
,
0010
0000
1000
0001
0000
0001
0010
0100
,
2000
0000
3000
1100
,
0101
0000
0010
0001
0000
0010
0001
0010
,
0100
0000
1000
0001
0000
0001
1000
0100
,
1000
0010
0100
0001
0000
0001
1000
0000
,
0020
0000
0000
0000
0030
0000
0100
0010
,
1000
0100
0001
0100
1000
0000
1010
0000
,
0001
0100
1000
0100
0001
0000
0011
0000
,
1000
0001
0100
0000
0001
1000
0100
0000
,
0020
0000
0031
1000
0000
0000
0000
0100
,
1000
0010
0001
0010
1000
0000
1100
0000
,
0001
0010
1000
0010
0001
0000
0101
0000
,
0110
0000
1000
0010
0000
0100
0001
0000
,
0011
0110
1100
1100
,
0002
0023
0230
2300
,
3010
0100
0010
0100
0010
0000
0000
0000
,
1010
0000
0001
0100
2000
0000
3000
0000
,
0001
0100
0001
1000
0001
0000
1100
0000
,
2000
3200
0320
0032
,
0103
0010
0100
0010
0100
0000
0000
0000
,
0101
0000
0101
0000
0010
0001
0010
0000
,
1000
0100
0001
0100
1000
0000
0000
0000
,
1100
1100
0101
0101
,
0010
0001
0010
0100
1000
0000
0000
0000
,
1001
0000
0010
1000
0200
0000
0300
0000
,
1000
0001
1000
0100
0010
0000
0110
0000
,
0011
0011
1010
1010
,
0100
1000
0001
1000
0100
0000
0000
0000
,
0110
0000
0110
0000
1000
0100
1000
0000
,
0001
0010
0100
0010
0001
0000
0000
0000
,
1100
0011
1100
0011
,
0100
1000
0100
0001
0100
0000
0010
0000
,
1010
0101
1010
0101
,
1000
0001
0010
0001
0100
0000
0000
0000
,
0110
0110
1001
1001
,
1000
0100
0001
0100
0010
0000
0010
0000
,
0011
0101
1010
1100
,
0100
0010
0100
1000
0001
0000
0000
0000
,
0010
0010
0100
0100
,
1000
0010
0002
0003
,
0010
0001
0200
0300
,
0010
1000
0100
0110
,
0001
0001
1000
1000
,
0100
1000
0020
0030
,
0100
0001
0010
0001
,
0100
0010
1000
0000
,
0002
2003
3020
0230
,
0302
0000
1003
0100
0020
0000
0030
0000
,
0001
0100
0001
0100
0002
0000
0003
0000
,
1000
0010
1000
0010
2000
0000
3002
0000
,
0023
0230
2300
3002
,
0103
0010
0100
0010
0200
0000
0300
0000
,
0110
0000
0110
0000
0001
1000
0000
0000
,
0110
0000
0110
0000
1000
0001
0000
0000
,
0010
0000
0010
0000
0001
0100
1000
0000
,
1100
0101
1100
1001
;

//---------------dance-single - ----------------
#NOTES:
     dance-single:
     :
     Hard:
     13:
     :
0000
0000
0000
0000
,
0000
0000
0000
0000
,
0000
0000
0000
0000
,
0000
0000
0000
0000
,
0000
0000
0000
0000
,
0001
0100
0001
0100
1000
0100
1000
0100
,
0001
0010
1000
0010
0001
0010
1000
0010
,
0001
0100
0010
1000
0001
0010
0100
1000
,
0010
0010
0100
0010
0010
0000
0000
0000
,
1001
0000
0000
1000
0010
0000
0000
0010
0100
0000
0000
0100
0001
0000
0000
0000
,
0010
0001
0010
1000
0010
0001
0100
0000
,
0110
0000
0000
0100
0010
0000
0000
0010
1000
0000
0000
1000
0001
0000
0000
0000
,
1000
0100
0001
0100
1000
0010
0010
0000
,
1000
0000
0000
0001
0100
0000
0010
0000
0010
0000
0000
1000
0001
0000
0100
0000
,
0100
0000
0001
0000
0010
0000
1000
0000
0010
0000
0000
0001
0000
0000
0100
0000
,
0100
0000
0000
0010
1000
0000
0001
0000
0001
0000
0000
0010
0100
0000
1000
0000
,
1000
0000
0001
0000
0010
0000
0001
0000
0100
0000
0000
0010
0000
0000
1000
0000
,
1100
0000
0001
0001
0000
1000
0010
0001
,
0101
0000
0010
0010
0000
0001
0100
1000
,
1010
0000
0100
0100
0000
0010
0001
1000
,
0010
0000
0000
0010
0000
0000
0010
0000
1000
0000
0000
0001
1000
0000
0100
0000
,
0120
0000
0031
0100
0000
0010
0010
0100
,
0001
0001
1000
0001
0000
0010
0100
1000
,
1010
0000
0000
1000
0001
0000
0010
0000
0000
0000
0001
0000
0100
0000
1000
0000
,
0001
0000
0100
0010
0000
0000
1000
0000
1100
0000
0000
0000
0011
0000
1000
0001
,
1000
0000
0010
0010
0000
0100
0001
1000
,
0101
0000
0000
0010
1000
0000
1000
0000
0000
0000
0001
0000
0010
0000
0001
0000
,
0011
0000
0000
0100
0010
0000
1000
0000
0000
0000
0001
0000
0001
0000
0010
0000
,
0100
0000
0000
1000
0010
0000
0100
0000
0100
0000
0000
0001
1000
0000
0000
0000
,
1001
0000
0010
0010
0000
1000
0100
0001
,
0010
0010
0001
0100
0000
0010
1000
0100
,
1000
0001
0100
0100
0000
0010
2000
0000
,
3001
0000
0010
0100
0000
0000
1000
0000
1100
0000
0000
0000
1001
0000
0100
0000
,
0100
0001
0010
1000
0010
0001
0100
0010
,
1000
0100
0001
0100
0010
0100
0001
0100
,
0010
1000
0010
0001
0100
0010
0100
0001
,
2000
0000
3001
0110
0000
0010
0010
0001
,
0100
0010
0100
1000
0100
0001
0100
1000
,
0100
0010
1000
0001
0010
1000
0010
0001
,
0100
0010
0100
0002
0000
1003
0001
0000
,
0011
0000
0000
0001
1000
0000
0000
1000
0001
0000
0000
0001
0100
0000
0000
0100
,
0020
2030
3002
0203
,
0301
0010
1000
0010
0001
0000
0100
0010
,
2000
0000
3100
1000
0020
0000
0130
0001
,
0010
1000
0010
0100
0010
0001
0100
0000
,
1010
1010
0101
0101
,
1000
0100
0001
0100
1000
0000
0000
0010
,
0100
0000
0100
0001
0010
1000
0010
0001
,
0100
1000
0100
0001
0100
0000
0000
0000
,
0110
0110
1001
1001
,
0001
0100
1000
0100
0001
0000
0000
0010
,
0002
0000
1003
0001
0200
0000
0310
1000
,
0100
0001
0100
0010
0100
1000
0001
0000
,
0011
0011
1100
1100
,
1000
0010
0001
0010
1000
0000
0000
0100
,
1000
0000
1000
0001
0010
0100
0010
0001
,
0100
0000
1000
0000
0100
0000
0001
0000
0010
0000
0001
1000
0001
0000
0100
0000
,
0110
0000
0000
0010
1000
0000
0000
1000
0001
0000
0000
0001
0100
0000
0000
0000
,
0001
0010
1000
0010
0001
0100
0010
0000
,
1010
0000
0000
1000
0100
0000
0000
0100
0010
0000
0000
0010
0001
0000
0000
0000
,
0100
1000
0100
0001
0100
0010
0010
0000
,
1000
0000
0000
0001
0010
0000
0100
0000
0100
0000
0000
1000
0001
0000
0010
0000
,
0010
0000
0001
0000
0100
0000
0001
0000
1000
0000
0000
0100
1000
0000
0010
0000
,
0010
0000
0000
0100
0001
0000
1000
0000
1000
0000
0000
0100
0010
0000
0001
0000
,
0001
0000
0100
0000
1000
0000
0100
0000
0001
0000
0010
0100
0000
0010
0100
0000
,
2000
3002
2003
3002
,
0013
0001
0010
0001
0100
0000
0000
0010
,
1000
0100
1000
0100
0020
0000
0030
0001
,
0100
0001
0100
0001
0100
0000
0020
0000
,
2030
3002
2003
3002
,
0013
0001
0010
0001
0100
0000
0000
0010
,
1000
0000
1000
0001
0010
0001
0010
0100
,
1000
0000
0010
0000
1000
0000
0001
0000
0010
0000
0100
1000
0100
0000
0010
0000
,
0001
0001
1000
1000
,
0010
0100
0001
0100
0010
0000
0000
1000
,
0100
1000
0001
0100
0002
0000
0003
0010
,
0001
0010
0100
1000
0001
0000
0200
0000
,
0310
0010
0100
0100
,
0001
0010
0100
0010
0001
0000
0000
0000
,
1001
0000
1000
0010
1000
0010
0100
0001
,
0110
0000
1000
0010
1000
0010
0100
0001
,
0011
0000
1000
0010
1000
0010
0100
0001
,
0010
1000
0010
0001
0100
0000
1001
0000
;

//---------------dance-single - ----------------
#NOTES:
     dance-single:
     :
     Challenge:
     16:
     :
0000
0000
0000
0000
,
0000
0000
0000
0000
,
0000
0000
0000
0000
,
0000
0000
0000
0000
,
0000
0000
0000
0000
,
0001
0001
0010
0010
0100
0100
1000
1000
,
0010
0010
1000
1000
0001
0001
0100
0100
,
1000
1000
0001
0001
0100
0100
0010
0010
,
1000
0100
1000
0100
0010
0001
0010
0001
0100
0000
0001
0010
0001
0000
1000
0100
,
1000
0000
0000
0010
0100
0000
0000
0001
1000
0000
0000
0010
0100
0000
0000
0001
,
1000
1000
0001
0001
0010
0001
0100
0000
,
0010
0000
0000
1000
0001
0000
0000
0100
0010
0000
0000
1000
0001
0000
0000
0100
,
0001
0001
0010
1000
1000
0110
0110
0000
,
0010
0000
0001
0100
0000
0001
0100
0000
0010
0000
1000
0100
0000
1000
0100
0000
,
0010
0000
0010
0000
0001
0000
1000
0000
1000
0000
0010
0100
0000
0100
0001
0000
,
0010
0000
0001
1000
0000
0001
1000
0000
0100
0000
0010
0001
0000
0010
0001
0000
,
0100
0001
0100
0001
1000
0100
1000
0100
0010
0000
0001
1000
0001
0000
0010
0100
,
1000
0000
0010
0100
0001
0000
0010
0000
0001
0000
0100
0000
0010
0000
1000
0000
,
0100
0000
1000
0001
0010
0000
0001
0000
0100
0000
0010
0000
1000
0000
0100
0000
,
0010
0000
0100
0010
0001
0000
0100
0000
1000
0000
0100
0000
0001
0000
1000
0000
,
0010
0000
1000
0001
0100
0000
0010
0000
1000
0000
0100
0010
0001
0000
0000
0000
,
0100
0000
0010
1000
0100
0000
0010
0000
0001
0000
0100
0000
0001
0000
1000
0000
,
0100
0000
0010
0001
1000
0000
0001
0000
0010
0000
0100
0000
1000
0000
0010
0000
,
1000
0000
0100
1000
0001
0000
0010
0000
0100
0000
0001
0000
0100
0000
1000
0000
,
0001
0000
0100
0000
0010
0000
1000
0000
1100
0000
0001
0000
0101
0000
0010
0100
,
1000
0000
0001
0000
0010
0000
0001
0000
0100
0000
0010
1000
0010
0100
0001
0000
,
0010
0000
0001
1000
0001
0000
0010
0000
0100
0000
1000
0001
1000
0010
0100
0000
,
0001
0000
0010
0100
1000
0000
0010
0000
1000
0000
0100
1000
0001
0000
0010
0000
,
0001
0000
0100
0010
0000
1000
0010
0000
0100
0000
0001
1000
0100
0000
0010
0000
,
0001
0000
0100
0010
0100
0000
0001
0000
1000
0000
0100
0010
0100
0000
1000
0000
,
0001
0000
1000
0001
0010
0000
0100
0000
1000
0000
0001
1000
0010
0000
0100
0000
,
0001
0001
1000
0010
1000
0100
0100
0010
,
0001
0000
0100
0000
0010
0000
1000
0000
0001
0000
0010
0001
0100
0000
0010
1000
,
0100
0001
0100
0010
1000
0010
0001
0100
,
0010
0001
0010
1000
0010
0001
0010
0100
,
1000
0100
0010
0001
0010
1000
0001
0010
,
0110
0000
0100
0000
1100
0000
1100
0000
0001
0000
0100
0010
1000
0000
0100
0010
,
0001
0100
0010
0001
0010
0100
1000
0100
,
0001
1000
0100
0001
0100
0010
1000
0010
,
0001
0000
0100
0010
1000
0000
0100
0000
0010
0000
0100
1000
0001
0000
0100
0000
,
0010
1000
0100
1000
0010
0100
0001
0010
0100
0000
1000
0001
1000
0000
0001
0010
,
0100
0000
0000
0100
1000
0000
0000
1000
0001
0000
0000
0001
0100
0000
0000
0000
,
0101
0100
0110
0010
1010
1000
1000
0001
,
0010
0000
0001
0100
0001
0000
1000
0100
2000
0000
0010
0000
3010
0000
0100
0000
,
0001
0000
0010
0000
1000
0000
0010
0000
0001
0000
0100
0010
2000
0000
0000
0000
,
3001
0000
0000
0001
1000
0000
0000
1000
0010
0000
0000
0010
0100
0000
0000
0000
,
0110
0000
0010
0000
1010
0000
1000
0000
1100
0000
0001
0100
0001
0000
0010
0000
,
0100
1000
0001
0000
0100
0000
0010
0000
0001
0000
0010
0000
1000
0000
0100
0000
,
1100
0000
0001
0000
1001
0000
0010
0000
1010
0000
0100
0000
1000
0001
1000
0001
,
0010
0000
0000
0010
0001
0000
0000
0001
1000
0000
0000
1000
0001
0000
0000
0000
,
0011
0000
0001
0000
1001
0000
1000
0000
1010
0000
0100
0010
0100
0000
1000
0000
,
0001
0010
1000
0010
0002
0100
0103
0010
,
1000
0000
0100
0010
0001
0000
1000
0001
0100
0000
0010
0000
0102
0000
0000
0000
,
0013
0000
0000
0010
0100
0000
0000
0100
1000
0000
0000
1000
0001
0000
0000
0000
,
1001
0000
0010
0000
1010
0000
1000
0000
1100
0000
0001
0010
0001
0000
0100
0000
,
1000
0000
0010
0000
1000
0000
0001
0000
0010
0100
1000
0000
0010
0000
0100
0000
,
0101
0000
0001
0000
0011
0000
0010
0000
0110
0000
1000
0100
1000
0000
0001
0100
,
0001
0000
0000
0010
0100
0000
0000
1000
0010
0000
0000
0100
0001
0000
0000
1000
,
0100
0100
0010
0010
0001
0100
1000
0001
,
0001
0000
1000
0010
1000
0000
0100
0000
0010
0000
0001
1000
0001
0000
0100
0000
,
0010
0000
0010
0000
0010
0000
0010
0000
0010
0000
1000
0001
0000
1000
0001
0000
,
0010
0001
0100
1000
0100
0010
0100
0001
,
0010
0000
1000
0000
0010
0000
0100
0000
0010
0000
0001
0100
0001
0000
1000
0000
,
0010
0000
1000
0100
1000
0000
0001
0100
0001
0000
1000
0010
1000
0000
0001
0010
,
0001
0100
0010
0100
0001
0010
0100
0010
0001
0000
1000
0100
1000
0000
0001
1000
,
0020
0230
0302
2003
,
3001
0010
1000
0010
0001
0000
0000
0100
,
0100
0001
0010
0100
1000
0010
1000
0001
,
0100
0010
0100
0001
1000
0000
0200
0000
,
0320
0032
2003
3200
,
1300
0010
1000
0100
1000
0000
0000
0001
,
0001
0100
1000
0100
0010
0100
1000
0100
,
0001
0000
0010
0000
1000
0000
0100
0000
0010
0000
0001
1000
0001
0000
1000
0001
,
1000
0000
0000
1000
0100
0000
0000
0100
0001
0000
0000
0001
0010
0000
0000
0000
,
0011
0000
0110
0000
1100
0000
0110
0000
0011
0000
1000
0010
0100
0000
0001
0000
,
0010
0000
0001
1000
0001
0000
0100
0000
0010
0000
1000
0100
1000
0000
0001
0000
,
1001
0000
1010
0000
1100
0000
1010
0000
1001
0000
0100
0010
2000
0000
0000
0000
,
3001
0000
0000
0001
0100
0000
0000
0100
0010
0000
0000
0010
1000
0000
0000
0000
,
1100
0000
1001
0000
0101
0000
1001
0000
1100
0000
0010
0100
0001
0000
1000
0000
,
0010
0100
0010
0100
0001
0001
1000
1000
,
0010
0100
0010
0100
0001
0001
1000
1000
,
0010
0100
0010
0100
0001
0001
1000
1000
,
0100
1000
0100
0010
0001
1000
0001
0010
0100
0000
1000
0001
0010
0000
1001
0000
;
