#TITLE:I'm Too Sexy;
#ARTIST:Right Said Fred;
#BANNER:I'm Too Sexy-bn.png;
#BACKGROUND:I'm Too Sexy-bg.png;
#JACKET:I'm Too Sexy-jacket.png;
#MUSIC:I'm Too Sexy.ogg;
#SAMPLESTART:86.514;
#SAMPLELENGTH:20;
#DISPLAYBPM:122;
#BPMS:0=122.09;
#BGCHANGES:;

//---------------dance-single - ----------------
#NOTES:
     dance-single:
     :
     Beginner:
     3:
     :
0000
0000
0000
0000
,
0000
0000
0000
0000
,
0000
0000
0000
0000
,
1000
1000
1000
1000
,
1000
0000
0000
0000
,
0001
0000
0000
0000
,
0100
0000
0000
0000
,
0010
0000
0000
0000
,
1000
0000
0000
0000
,
0100
0000
0000
0000
,
0010
0000
0000
0000
,
1000
1000
1000
1000
,
1000
0000
0010
0000
,
0100
0000
0001
0000
,
0010
0000
0100
0000
,
2000
0000
3000
0000
,
0010
0000
0100
0000
,
0001
0000
1000
0000
,
0010
0000
0100
0000
,
0002
0000
0003
0000
,
0200
0000
0000
0000
,
0300
0000
0000
0000
,
0020
0000
0030
0000
,
2000
0000
3000
0000
,
0001
0000
1000
0000
,
0001
0000
0010
0000
,
0001
0000
0100
0000
,
1000
1000
1000
1000
,
1000
0000
0010
0000
,
0100
0100
0100
0000
,
0001
0000
0010
0000
,
0001
0001
0000
0000
,
1001
0000
0000
0010
,
0010
0000
0100
0000
,
0001
0001
0001
0000
,
1000
1000
1000
1000
,
2000
0000
0000
0000
,
3000
0000
0001
0000
,
0200
0000
0000
0000
,
0300
0000
0000
0000
,
0110
0000
1000
0000
,
1001
0000
0001
0000
,
0110
0000
0100
0000
,
0020
0000
0030
0000
,
0100
0000
0010
0000
,
1000
1000
1000
0000
,
0100
0000
1000
0000
,
0001
0001
0000
0000
,
1001
0000
0000
0100
,
0100
0000
0010
0000
,
1000
1000
1000
0000
,
0110
0000
0000
0000
,
1000
1000
1000
1000
,
1000
0000
0001
0000
,
0100
0000
0010
0000
,
1000
1000
1000
0000
,
0010
0010
0010
0000
,
0110
0000
0001
0000
,
1001
0000
0100
0000
,
0010
0010
0010
0000
,
1000
1000
1000
1000
,
1000
0000
0110
0000
,
1001
0000
0000
0000
;

//---------------dance-single - ----------------
#NOTES:
     dance-single:
     :
     Easy:
     8:
     :
0000
0000
0000
0000
,
0000
0000
0000
0000
,
0000
0000
0000
0000
,
1000
0000
1000
0000
1000
0000
1000
0001
,
1000
0010
0100
0001
,
0010
0001
0100
1000
,
0010
0100
0010
1000
,
0100
0010
0001
0100
,
1001
0010
1000
0100
,
1000
0010
0101
0010
,
1100
0001
0010
0100
,
1000
0000
1000
0000
1000
0000
1000
0001
,
1000
0000
0000
0000
0010
0100
0001
0000
,
0001
0000
0000
0000
0010
0100
1000
0000
,
1000
0001
0100
0010
,
1100
0101
0000
0000
,
0010
0000
0000
0000
1000
0001
0100
0000
,
0100
0000
0000
0000
0001
1000
0010
0000
,
0010
1000
0100
0001
,
0011
1010
0000
0000
,
0110
0001
0010
0100
,
1000
0010
0001
0100
,
1010
0001
1000
0100
,
0011
0100
0010
1000
,
0001
0000
0000
0000
1000
0010
0100
0000
,
0001
0000
0000
0000
0010
0100
1000
0000
,
0001
0000
0000
0000
0100
1000
0010
0000
,
1000
0000
1000
0000
1000
0000
1000
0001
,
1000
0000
0010
0000
0000
0100
0001
0000
,
0010
0000
0100
0000
0000
1000
0001
0000
,
1000
0010
0001
0100
,
1000
0001
0000
0000
0000
0100
0010
0000
,
1000
0100
0000
0000
0000
0010
0001
0000
,
1000
0010
0000
0110
0000
1001
0000
0110
,
0000
0000
1000
0010
0000
0100
0000
0001
,
1000
0000
1000
0000
1000
0000
1000
0001
,
2000
0010
0100
0010
,
0100
0001
0010
0010
,
3002
0010
1000
0100
,
0010
0100
1000
1003
,
1001
0000
0010
0100
,
0110
0000
0001
1000
,
1001
0000
0010
0100
,
0110
0000
0001
0000
1000
0010
0100
0000
,
0001
0000
0010
0000
0001
1000
0100
0000
,
1000
0000
0010
0000
0100
0001
1000
0000
,
0010
1000
0100
0001
,
0010
0100
0000
0000
0000
1000
0001
0000
,
0100
0010
0000
0000
0000
1000
0001
0000
,
0010
0001
0000
0011
0000
0110
0000
1100
,
0000
0000
0010
1000
0000
0001
0000
0100
,
0010
1000
0000
0000
0000
0001
0100
0000
,
1000
0000
1000
0000
1000
0000
1000
0001
,
1000
0000
0000
0000
0001
0010
0100
0000
,
1000
0000
0000
0000
0001
0100
0010
0000
,
0110
1001
1001
0000
,
0000
1000
0001
1000
0001
0000
0000
0000
,
0010
0000
0000
0000
0001
1000
0100
0000
,
0010
0000
0000
0000
1000
0001
0100
0000
,
0101
0000
1100
0000
0001
0100
0010
0000
,
1000
0000
1000
0000
1000
0000
1000
0001
,
1000
0000
0000
0000
0001
0100
0010
0000
,
1001
0000
0000
0000
;

//---------------dance-single - ----------------
#NOTES:
     dance-single:
     :
     Medium:
     10:
     :
0000
0000
0000
0000
,
0000
0000
0000
0000
,
0000
0000
0000
0000
,
1000
0000
0000
0000
1000
0000
0000
0000
1000
0000
0000
0000
1000
0001
1000
0001
,
1000
0000
0010
0000
0000
0000
0000
0000
0100
0000
0000
0001
0000
0000
1000
0000
,
0000
0000
0100
0000
0000
0000
0000
0000
0010
0000
0000
0001
0000
0000
1000
0000
,
0000
0000
0001
0000
0000
0000
0000
0000
1000
0000
0000
0010
0000
0000
0100
0000
,
0000
0000
0010
0000
0000
0000
0000
0000
1000
0000
0000
0100
0000
0000
0001
0000
,
1000
0000
0001
0000
0000
0000
0000
0000
0010
0000
0000
0001
0000
0000
0100
0000
,
0000
0000
0010
0000
0000
0000
0000
0000
1000
0000
0000
0001
0000
0000
0100
0000
,
0010
0000
1000
0000
0000
0000
0000
0000
0100
0000
0000
0010
0000
0000
0001
0000
,
1000
0000
0000
0000
1000
0000
0000
0000
1000
0000
0000
0000
1000
0001
1000
0001
,
1000
0000
0000
0010
0100
0010
1000
0001
,
0100
0000
0000
0001
0010
0001
1000
0010
,
0200
0000
0000
0000
0302
0000
0000
0000
1003
0000
0000
0001
0000
0000
2000
0000
,
0000
0000
0020
0000
0000
0000
0000
0000
0000
0000
0000
0000
3030
0000
0000
1000
,
0001
0000
0000
0010
0001
1000
0010
1000
,
0100
0000
0000
0010
0100
1000
0010
1000
,
0002
0000
0000
0000
2003
0000
0000
0000
3001
0000
0000
0100
0000
0000
0020
0000
,
0000
0200
0000
0000
0000
0000
0330
0000
,
0102
0010
1000
0100
,
1003
0001
1000
0000
0010
0001
0100
0000
,
2010
0001
0100
0010
,
3001
0000
1000
0000
0010
0000
0000
0000
1000
0000
0001
0000
0100
0000
0000
0001
,
1000
0000
0000
0010
1000
0100
0010
0100
,
1000
0001
0000
0010
0001
0010
0100
1000
,
0010
0100
0000
0001
1000
0100
1000
0010
,
1000
0000
0000
0000
1000
0000
0000
0000
1000
0000
0000
0000
1000
0001
1000
0001
,
1000
0010
0000
0101
0000
1100
0000
0010
,
1000
0100
1000
0001
0000
0010
0001
0100
,
0000
0010
1000
0200
0000
0320
0000
0031
,
0100
0010
0000
0000
0000
1000
0001
1000
,
0010
0100
0000
0000
0000
0002
0000
1003
,
0001
0100
0000
0110
0000
1001
0000
0110
,
0000
0010
1000
0001
0000
0201
0000
0310
,
1000
0000
0000
0000
1000
0000
0000
0000
1000
0000
0000
0000
1000
0001
1000
0001
,
2000
0010
0000
0000
3001
0100
0100
0000
,
0010
0000
0001
0000
0000
0000
0000
0000
1000
0000
0000
0010
0000
0000
0100
0000
,
0002
0010
0000
0000
1003
0100
0100
0000
,
1000
0000
0001
0000
0000
0100
0000
0000
0001
0000
0010
0000
0010
0000
0000
0000
,
0011
0000
0000
1000
0010
0100
0001
0000
,
1100
0000
0000
0001
0100
0010
1000
0000
,
0101
0000
0000
0010
1000
0001
0100
0000
,
1010
0000
0001
0100
0010
1000
0100
0000
,
1000
0001
0000
0011
0000
1100
0000
0010
,
1000
0100
1000
0001
0000
0010
0001
0100
,
0000
0001
0010
0200
0000
2300
0000
3010
,
1000
0001
0000
0000
0000
0100
0010
1000
,
0001
1000
0000
0000
0000
0010
1000
0100
,
1000
0001
0000
0110
0000
1001
0000
0110
,
0000
1000
0001
0100
0000
1010
0000
0001
,
1000
0100
0000
0000
0000
0010
0010
0000
,
1000
0000
0000
0000
1000
0000
0000
0000
1000
0000
0000
0000
1000
0001
1000
0001
,
1000
0000
0000
0010
1000
0100
0010
0001
,
0100
0000
0000
0001
1000
0001
0010
0100
,
1000
0000
1001
0000
1001
0100
0010
0000
,
0000
1000
0001
0200
0020
0000
0330
0000
,
0110
0000
0000
0001
0010
0001
1000
0100
,
0010
0000
0000
0001
1000
0001
0100
0010
,
2000
0000
3002
0000
0013
0100
1000
0001
,
1000
0000
0000
0000
1000
0000
0000
0000
1000
0000
0000
0000
1000
0001
1000
0001
,
1000
0000
0000
0010
1000
0100
1000
0001
,
1001
0000
0000
0000
;

//---------------dance-single - ----------------
#NOTES:
     dance-single:
     :
     Hard:
     12:
     :
0000
0000
0000
0000
,
0000
0000
0000
0000
,
0000
0000
0000
0000
,
1000
0001
0000
0000
1000
0001
0000
0000
1000
0001
0000
0000
1000
0001
1000
0001
,
1000
0000
0010
0000
0000
0100
0000
0000
0010
0000
0000
1000
0000
0000
0001
0000
,
0010
0000
0100
0000
0000
1000
0000
0000
0010
0000
0000
1000
0000
0000
0001
0000
,
0010
0000
0001
0000
0000
1000
0000
0000
0001
0000
0000
0100
0000
0000
0010
0000
,
1000
0000
0100
0000
0000
1000
0000
0000
0001
0000
0000
0100
0000
0000
0010
0000
,
1000
0000
0001
0000
0000
0010
0000
0000
0001
0000
0000
0100
0000
0000
0010
0000
,
1000
0000
0100
0000
0000
1000
0000
0000
0001
0000
0000
0010
0000
0000
0001
0000
,
0010
0000
0100
0000
0000
0010
0000
0000
0001
0000
0000
1000
0000
0000
0100
0000
,
1000
0001
0000
0000
1000
0001
0000
0000
1000
0001
0000
0000
1000
0001
1000
0001
,
1000
0001
0000
0010
0010
0100
0001
1000
,
0100
0010
0000
0001
0001
1000
0010
0100
,
0001
0000
0100
0000
0010
0000
0000
0000
1010
0000
0000
1100
0000
0000
0011
0000
,
0000
0000
0101
0000
1000
0000
0000
0001
0100
0000
0000
0010
1000
0000
0000
0001
,
0100
0010
0000
1000
1000
0001
0010
0100
,
1000
0010
0000
0001
0001
1000
0010
0100
,
0010
0000
1000
0000
0001
0000
0000
0000
0011
0000
0000
0110
0000
0000
1100
0000
,
0000
0000
1010
0000
0001
0000
0000
0000
1000
0010
1000
0010
1000
0000
0001
0000
,
0100
0010
1000
0010
0100
0010
1000
0010
,
0100
0010
1000
0100
0001
0100
1000
0000
,
0010
0100
0001
0100
0010
0100
0001
0100
,
0010
0000
0100
0000
0001
0000
0010
0000
1000
0000
0010
0000
0001
0000
0000
1000
,
0001
0100
0000
0010
0010
1000
0100
1000
,
0001
0001
0000
0010
0010
0100
1000
0010
,
0100
0100
0000
0001
0010
0100
1000
0010
,
1000
0001
0000
0000
1000
0001
0000
0000
1000
0001
0000
0000
1000
0001
1000
0001
,
1000
0010
0100
0002
0000
0010
0013
0001
,
0100
0010
1000
0001
0000
0100
0100
0020
,
0000
0000
1030
0000
0001
0100
0002
0000
0000
0000
0010
0000
0013
0000
0100
0000
,
1000
0010
0100
1000
0100
0001
0001
1000
,
0010
0100
0010
2000
0000
0001
3001
0100
,
0010
1000
0100
0110
0000
1001
0000
0110
,
0001
0000
1000
0000
0100
0010
0100
0000
1000
0000
0010
0000
0001
0000
0010
0000
,
1000
0001
0000
0000
1000
0001
0000
0000
1000
0001
0000
0000
1000
0001
1000
0001
,
2000
0000
0010
0000
0000
0100
0000
0000
0010
0000
0000
0100
0000
0000
0001
0000
,
0000
0000
0001
0000
0000
0100
0000
0000
3001
0000
0000
1000
0000
0000
0010
0000
,
0200
0000
0001
0000
0000
0010
0000
0000
0001
0000
0000
1000
0000
0000
0001
0000
,
0000
0000
1000
0000
0000
0010
0000
0000
0301
0000
0100
0000
0100
0000
0000
0000
,
0110
0001
0000
1000
0010
0100
0010
1000
,
0100
0010
0000
0001
1000
0010
0100
0010
,
1000
0001
0000
0010
0100
0010
0001
1000
,
0010
0000
0000
1000
0000
0001
0000
1000
0001
0000
0100
0000
0010
0000
0000
0000
,
1000
0001
0010
0200
0000
1000
1300
0001
,
1000
0010
0100
0001
0000
0010
0010
0002
,
0000
0000
0103
0000
0010
1000
0020
0000
0000
0000
0100
0000
0130
0000
0001
0000
,
0100
0001
0010
0001
0000
1000
1000
0100
,
1000
0010
0100
0002
0000
1000
1003
0100
,
0010
0001
0100
1010
0000
0101
0000
1010
,
0000
0000
0001
0000
0010
0100
0010
0000
0001
0000
0100
0000
1000
0000
0100
0000
,
0001
1000
0001
0100
0000
0010
0010
0000
,
1000
0001
0000
0000
1000
0001
0000
0000
1000
0001
0000
0000
1000
0001
1000
0001
,
1000
0010
0000
1000
1000
0100
0010
0001
,
0100
0010
0000
1000
1000
0001
0010
0100
,
1000
0010
1001
0000
1001
0100
0010
0000
,
1000
0001
0001
1000
1000
0010
0100
0000
,
0100
0001
0000
0010
0010
0001
1000
0100
,
1000
0010
0000
0001
0001
0010
0100
1000
,
0010
0100
1000
0100
0001
1000
0001
0010
,
1000
0001
0000
0000
1000
0001
0000
0000
1000
0001
0000
0000
1000
0001
1000
0001
,
1000
0010
0000
0100
0100
0010
1000
0001
,
1001
0000
0000
0000
;

//---------------dance-single - ----------------
#NOTES:
     dance-single:
     :
     Challenge:
     14:
     :
0000
0000
0000
0000
,
0000
0000
0000
0000
,
0000
0000
0000
0000
,
1000
0000
0001
0000
0000
0001
1000
0000
0001
0000
0000
0001
1000
0000
0001
0000
0000
0001
1000
0000
0001
1000
0000
0001
,
1000
0000
0010
0000
1000
0100
0000
0100
0010
0000
0010
0001
0000
0001
1000
0000
,
0010
0000
0100
0000
0001
1000
0000
1000
0010
0000
0010
0100
0000
0100
0001
0000
,
0010
0000
0100
0000
0010
0001
0000
0001
1000
0000
1000
0010
0000
0010
0100
0000
,
0001
0000
1000
0000
0100
1000
0000
1000
0010
0000
0010
0100
0000
0100
0001
0000
,
0010
0000
0001
0000
1000
0100
0000
0100
0010
0000
0010
0001
0000
0001
1000
0000
,
0100
0000
1000
0000
0100
0010
0000
0010
0001
0000
0001
1000
0000
1000
0010
0000
,
1000
0000
0100
0000
0001
1000
0000
1000
0001
0000
0001
0010
0000
0010
0100
0000
,
1000
0000
0001
0000
0000
0001
1000
0000
0001
0000
0000
0001
1000
0000
0001
0000
0000
0001
1000
0000
0001
1000
0000
0001
,
1000
0010
0100
0001
0001
0010
0100
1000
,
1010
0010
0100
0001
0001
1000
0010
0100
,
0101
0000
0010
0000
1100
0000
0010
0000
0001
1000
0000
0010
1000
0000
1100
0000
,
0000
0000
0011
0000
0001
1000
0000
0001
1000
0010
0100
0010
1000
0001
0100
0001
,
0010
0100
1000
0010
0010
1000
0001
0100
,
1001
0010
1000
0100
0100
0010
0001
1000
,
1010
0000
0100
0000
0011
0000
0100
0000
1000
0010
0000
0100
0001
0000
0011
0000
,
0000
0000
1100
0000
0001
1000
0000
0001
1000
0100
0010
0100
1000
0001
0010
0001
,
0100
0000
0010
0000
1000
0000
0001
0100
0010
0100
0001
0000
1000
0000
0100
0010
,
0001
0000
1000
0000
0100
0000
0010
0001
1000
0001
0010
0000
0100
0000
1000
0001
,
1000
0000
0001
0000
0100
0000
0010
1000
0100
1000
0010
0000
0100
0000
0001
0010
,
0001
0000
1000
0000
0100
0000
0010
0001
1000
0010
0100
0000
0001
0000
1000
0010
,
0100
0001
0010
1000
1000
0001
1000
0100
,
0110
1001
0100
0010
0010
1000
0001
0100
,
1010
0101
0010
0001
1000
0001
0100
0010
,
1000
0000
0001
0000
0000
0001
1000
0000
0001
0000
0000
0001
1000
0000
0001
0000
0000
0001
1000
0000
0001
1000
0000
0001
,
1000
0010
1000
0100
0010
0011
0011
0001
,
0100
0010
1000
0001
0100
1010
1010
0100
,
0001
0000
0010
0000
0001
0100
1000
0000
0010
0000
0101
0000
0101
0000
1000
0000
,
0010
0100
0001
0010
1000
1100
1100
0010
,
1001
0100
0010
1000
0001
0011
0011
0100
,
1001
0010
1000
0110
0000
1001
1001
0110
,
0001
0000
1000
0000
0001
0010
1000
0000
0100
0000
0110
0000
0110
0000
0001
0000
,
1000
0000
0001
0000
0000
0001
1000
0000
0001
0000
0000
0001
1000
0000
0001
0000
0000
0001
1000
0000
0001
1000
0000
0001
,
1000
0000
0010
0000
1000
0100
0000
0100
0010
0000
0010
0001
0000
0001
0100
0000
,
0001
0000
0010
0000
0001
1000
0000
1000
0100
0000
0100
0010
0000
0010
0001
0000
,
1000
0000
0010
0000
1000
0100
0000
0100
0001
0000
0001
0010
0000
0010
0100
0000
,
1000
0000
0010
0000
0100
0001
0000
1000
0100
0000
1001
0000
1001
0000
0010
0000
,
1010
0000
0101
0000
0000
0000
0010
0000
0001
1000
0001
0000
0100
0000
0010
0000
,
0110
0000
1001
0000
0000
0000
0001
0000
1000
0100
1000
0000
0010
0000
0100
0000
,
0011
0000
1100
0000
0000
0000
0010
0000
0100
0001
0100
0000
0010
0000
1000
0000
,
0001
0100
0000
0110
0000
0110
0000
0010
1000
0000
0002
0000
0203
0000
0000
0000
,
0310
1000
0100
0001
0010
1100
1100
0001
,
1000
0010
0100
0001
0010
0101
0101
1000
,
0010
0000
0100
0000
0001
0010
1000
0000
0100
0000
1010
0000
1010
0000
0001
0000
,
0100
0010
0100
0001
0010
0011
0011
1000
,
1001
0010
0100
0001
0010
1100
1100
0001
,
1001
0100
0010
0110
0000
1001
1001
0110
,
0001
0000
0010
0000
1000
0100
0001
0000
0010
0000
0110
0000
0110
0000
0001
0000
,
0100
0010
1000
0001
0100
1001
1001
0000
,
1000
0000
0001
0000
0000
0001
1000
0000
0001
0000
0000
0001
1000
0000
0001
0000
0000
0001
1000
0000
0001
1000
0000
0001
,
1000
0010
0100
0001
0010
0011
0011
1000
,
0010
0100
0001
1000
0100
1100
1100
0010
,
1000
0001
1001
0010
1001
0100
0010
1000
,
0001
0101
1100
0101
1100
0010
0010
0000
,
0110
0001
0010
0100
1000
1010
1010
0001
,
0100
0010
1000
0001
0010
0101
0101
0010
,
1100
0010
0101
0010
1000
0001
1000
0100
,
1000
0000
0001
0000
0000
0001
1000
0000
0001
0000
0000
0001
1000
0000
0001
0000
0000
0001
1000
0000
0001
1000
0000
0001
,
1000
0010
0100
0001
0001
1000
1000
0100
,
1001
0000
0000
0000
;
