#VERSION:0.83;
#TITLE:I Wanna Dance with Somebody;
#SUBTITLE:;
#ARTIST:Whitney Houston;
#TITLETRANSLIT:;
#SUBTITLETRANSLIT:;
#ARTISTTRANSLIT:;
#GENRE:;
#ORIGIN:;
#TAGS:;
#CREDIT:;
#BANNER:I Wanna Dance with Somebody-bn.png;
#BACKGROUND:I Wanna Dance with Somebody-bg.png;
#PREVIEWVID:;
#JACKET:I Wanna Dance with Somebody-jacket.png;
#CDIMAGE:;
#DISCIMAGE:;
#LYRICSPATH:;
#CDTITLE:;
#MUSIC:I Wanna Dance with Somebody.ogg;
#OFFSET:0.000000;
#SAMPLESTART:82.780998;
#SAMPLELENGTH:20.000000;
#SELECTABLE:YES;
#DISPLAYBPM:119.000000;
#BPMS:0.000000=118.840027,
115.500000=128.839996,
116.000000=118.839996;
#STOPS:;
#DELAYS:;
#WARPS:;
#TIMESIGNATURES:0.000000=4=4;
#TICKCOUNTS:0.000000=4;
#COMBOS:0.000000=1;
#SPEEDS:0.000000=1.000000=0.000000=0;
#SCROLLS:0.000000=1.000000;
#FAKES:;
#LABELS:0.000000=Song Start;
#BGCHANGES:;
#KEYSOUNDS:;
#ATTACKS:
;

//---------------dance-single - ----------------
#NOTEDATA:;
#CHARTNAME:;
#CHARTHASH:0:
#STEPSTYPE:dance-single;
#BANNER:;
#DESCRIPTION:;
#CHARTSTYLE:;
#DIFFICULTY:Hard;
#METER:11;
#METERF:0.000000;
#RADARVALUES:0.449524,0.461894,0.407902,0.407902,0.171173,432.000000,376.000000,56.000000,56.000000,0.000000,0.000000,0.000000,0.000000,0.000000,0.449524,0.461894,0.407902,0.407902,0.171173,432.000000,376.000000,56.000000,56.000000,0.000000,0.000000,0.000000,0.000000,0.000000;
#CREDIT:;
#DISPLAYBPM:119.000000;
#NOTES:
0000
0000
0000
0000
,
0000
0000
0000
0000
,
0000
0000
0000
0000
,
0000
0000
0000
0000
,
0010
0000
0000
0000
0101
0000
0000
0000
0000
0000
0000
0000
1000
0001
0000
1000
,
0001
0100
0010
1000
0100
0001
0100
1000
,
0010
0000
0000
0000
1100
0000
0000
0000
0000
0000
0000
0000
0000
0000
1000
0001
,
1000
0010
0100
0002
0000
0013
0012
0000
,
1003
0000
0000
0000
1010
0000
0000
0000
0010
0000
0000
0000
0100
0000
0000
0001
,
1000
0010
0100
0110
0000
0000
1001
1000
,
0001
0000
0011
0000
1100
0000
0010
0100
,
0002
0000
1003
0010
0100
0000
0010
1000
,
0101
0000
1000
0002
0000
0023
0000
0230
,
0000
0301
0100
1000
0010
0001
0010
1000
,
0000
0000
0110
0010
1000
0001
0000
0100
,
0020
0000
1030
0001
0100
0000
0010
1000
,
1001
0000
1000
0020
0000
0230
0000
0302
,
1000
0000
0003
0100
0000
0000
0010
0000
0001
0000
0100
0000
0010
0000
1000
0000
,
1010
1000
0100
0010
0001
0100
0010
1000
,
0000
1100
0000
0101
0000
0001
0100
1000
,
0120
0000
0130
0002
0000
2003
0000
3020
,
0000
0130
0000
1010
0001
1000
0100
0010
,
0012
0000
1003
0001
0000
0100
1002
0000
,
0000
0000
0000
0000
1003
0000
0001
0000
1000
0000
0000
0010
0000
0000
0100
0000
,
0001
0000
0010
0000
0001
0000
1000
0000
0000
0000
0010
0100
0010
0100
0010
0100
,
0010
0000
0000
1000
0002
0000
0010
0000
0000
0000
0103
0000
0001
0010
0002
0000
,
0000
0103
0010
2000
0000
3001
0100
0010
,
1010
0000
0000
1010
0000
0000
0100
0000
0001
1000
0001
0000
0010
0000
0200
0000
,
0000
0301
0100
1000
0010
0100
0001
1000
,
1100
0000
0000
1000
0002
0000
0010
0000
0000
0000
0103
0000
0010
1000
0020
0000
,
0000
0130
0001
0020
0000
0130
1000
0000
,
0011
0000
0000
1100
0000
0000
0000
0000
1001
0000
0000
0000
1001
0000
0000
1000
,
0010
0100
0001
2000
0000
3100
0010
0110
,
0000
0000
1000
0010
0000
0100
0002
0000
1000
0000
0000
0103
0000
0000
1100
0000
,
0000
0000
0001
0010
0000
0100
2000
0000
0010
0000
0000
3100
0000
0000
0001
0000
,
1000
0000
0010
0210
0000
0301
1000
0020
,
0000
1030
0100
0010
0001
0000
1000
0101
,
0000
0000
0010
0001
0000
1000
0200
0000
0001
0000
0000
0310
0000
0000
0011
0000
,
0000
0000
1000
0001
0000
0100
0020
0000
1000
0000
0000
0031
0000
0000
0100
0000
,
0010
0000
1000
1002
0000
0013
0100
2000
,
0000
3020
0000
0130
0001
0010
0100
1000
,
1010
0010
0100
0001
1000
0100
0010
0001
,
0000
0101
0000
1100
0000
0010
1000
0002
,
0000
0023
0000
0230
0000
1300
0010
0110
,
0000
1001
0000
0001
1000
0100
0010
0001
,
0012
0000
0103
0010
0000
1000
0201
0000
,
0000
0000
0000
0000
0301
0000
1000
0000
0010
0000
0000
1000
0000
0000
0001
0000
,
0100
0000
0010
0000
1000
0000
0001
0000
0000
0000
0100
0010
0100
0010
0100
0010
,
0100
0000
0000
0001
2000
0000
0010
0000
0000
0000
3001
0000
1000
0100
2000
0000
,
0000
3010
0100
0002
0000
1003
0100
0000
,
0011
0000
0000
0011
0000
0000
0001
0000
1000
0010
1000
0000
0100
0000
0020
0000
,
0000
0031
1000
0010
1000
0100
0001
0000
,
0110
0000
0000
0010
2000
0000
0001
0000
0000
0000
3100
0000
0010
0001
0020
0000
,
0000
1030
0010
0002
0000
0103
0010
0000
,
1010
0000
0000
0101
0000
0000
0000
0000
1001
0000
0000
0000
1001
0000
0000
0000
,
1000
0100
0010
0002
0000
0103
0110
0000
,
1001
0000
0000
1000
0020
0000
0100
0000
0000
0000
1030
0000
0001
0010
0002
0000
,
0000
0103
0010
2000
0000
3100
0010
0000
,
0110
0000
0000
0110
0000
0000
0001
0000
1000
0010
1000
0000
0100
0000
0020
0000
,
0000
0031
0100
0010
0001
0010
1000
0000
,
1100
0000
0000
0001
0200
0000
1000
0000
0000
0000
0310
0000
1000
0001
2000
0000
,
0000
3100
0010
0002
0000
0103
0010
0000
,
1010
0000
0000
0011
0000
0000
0000
0000
1001
0000
0000
0000
1001
0000
0000
0000
,
1000
0010
0100
0102
0000
1003
0010
0100
,
2002
0000
0000
0000
,
0000
0000
0000
0000
,
0000
0000
0000
3003
;

//---------------dance-single - ----------------
#NOTEDATA:;
#CHARTNAME:;
#CHARTHASH:0:
#STEPSTYPE:dance-single;
#BANNER:;
#DESCRIPTION:;
#CHARTSTYLE:;
#DIFFICULTY:Medium;
#METER:9;
#METERF:0.000000;
#RADARVALUES:0.343387,0.388963,0.218519,0.568149,0.047346,330.000000,300.000000,30.000000,78.000000,0.000000,0.000000,0.000000,0.000000,0.000000,0.343387,0.388963,0.218519,0.568149,0.047346,330.000000,300.000000,30.000000,78.000000,0.000000,0.000000,0.000000,0.000000,0.000000;
#CREDIT:;
#DISPLAYBPM:119.000000;
#NOTES:
0000
0000
0000
0000
,
0000
0000
0000
0000
,
0000
0000
0000
0000
,
0000
0000
0000
0000
,
0010
0000
0101
0000
0000
0000
1000
0001
,
1000
0100
0010
0000
0001
0000
0100
0010
,
1000
0000
1100
0000
0000
0000
0000
0010
,
1000
0001
0100
0020
0000
1030
0200
0000
,
0310
0000
0000
0000
0110
0000
0000
0000
0000
0000
0000
0000
0000
0000
0000
0001
,
1000
0010
0100
0001
0000
0000
0010
0100
,
0000
0000
0011
0000
1010
0000
0000
0001
,
2000
0000
3010
0100
0000
0000
0001
1000
,
0002
0000
0103
0020
0000
2030
0000
3002
,
0000
0013
0100
0000
1000
0000
0001
1000
,
0000
0000
0010
0100
0010
1000
0000
0001
,
2000
0000
3001
0010
0000
0000
0001
0100
,
0020
0000
1030
0002
0000
0103
0000
1001
,
0000
0000
0000
0000
0001
0010
0100
1000
,
0010
1000
0001
0100
0002
0000
0000
0013
,
0000
1100
0000
0011
0000
0000
0100
0010
,
2000
0000
3001
2000
0000
3020
0000
0230
,
0000
0302
0000
1003
0100
0010
0001
1000
,
0010
0000
1000
0001
0000
2002
0000
0000
,
0000
0000
0000
0000
0003
0000
0001
0000
3001
0000
0000
0010
0000
0000
0100
0000
,
1000
0010
0100
0001
0000
0100
0010
0100
,
0010
0000
2020
0000
3030
1000
0001
0200
,
0000
0310
1000
0002
0000
0013
0100
0000
,
1000
0000
0000
1000
0000
0000
0001
0000
0010
0000
0100
0000
1000
0000
0010
0000
,
0000
1000
0001
0200
0000
0310
0200
0000
,
0301
0000
0202
0000
0303
0100
0010
2000
,
0000
3100
0010
0002
0000
1003
0001
0000
,
0100
0000
0000
0100
0000
0000
0000
0000
0010
0000
0000
0000
1001
0000
0000
0000
,
1000
0010
0100
0002
0000
0000
0013
0200
,
0000
0000
1300
0001
0000
0000
0022
0000
0000
0000
0000
0000
0033
0000
2000
0000
,
0000
0000
3010
0100
0000
0000
0220
0000
0000
0000
0000
0000
0330
0000
0000
0000
,
0001
0000
1000
0200
0000
1300
0010
0200
,
0000
0000
0301
1000
0020
0000
0130
0020
,
0000
0000
0130
0001
0000
0000
2002
0000
0000
0000
0000
0000
3003
0000
0002
0000
,
0000
0000
1003
0010
0000
0000
2200
0000
0000
0000
0000
0000
3300
0000
0000
0000
,
0010
0000
1000
0002
0000
0000
0013
0200
,
0000
0000
1300
0001
1000
0010
0100
0001
,
0010
0100
1000
0001
0200
0000
0310
1000
,
0000
1010
0000
0101
0000
0010
1000
0002
,
0000
0023
0000
0230
0000
1300
0001
0200
,
0000
0320
0000
1030
0001
0010
0100
1000
,
0010
0000
1000
0001
0000
2002
0000
0000
,
0000
0000
0000
0000
3000
0000
1000
0000
1003
0000
0000
0100
0000
0000
0010
0000
,
0001
1000
0001
0010
0000
0100
0010
0100
,
0010
0000
2200
0000
3300
0001
1000
0200
,
0000
1300
0010
0200
0000
0301
1000
0000
,
0010
0000
0000
0010
0000
0000
0100
0000
0001
0000
1000
0000
0001
0000
0200
0000
,
0000
0301
0010
0200
0000
1300
0001
0000
,
0100
0000
0202
0000
0303
0001
1000
0200
,
0000
0310
0001
2000
0000
3010
0100
0000
,
0001
0000
0000
0001
0000
0000
0000
0000
1000
0000
0000
0000
0110
0000
0000
0000
,
1000
0001
0010
0200
0000
0000
1300
0000
,
0010
0000
2020
0000
3030
0100
0001
2000
,
0000
3100
0010
0002
0000
1003
0010
0000
,
1010
0000
0000
0101
0000
0000
0001
0000
0010
0000
0100
0000
1000
0000
0002
0000
,
0000
0013
0001
0200
0000
0310
1000
0000
,
0001
0000
0022
0000
0033
0010
0100
2000
,
0000
3100
1000
0002
0000
0013
0100
0000
,
1100
0000
0000
0011
0000
0000
0000
0000
0100
0000
0000
0000
0110
0000
0000
0000
,
0001
1000
0010
0200
0000
0000
0301
0000
,
2002
0000
0000
0000
,
0000
0000
0000
0000
,
0000
0000
0000
3003
;

//---------------dance-single - ----------------
#NOTEDATA:;
#CHARTNAME:;
#CHARTHASH:0:
#STEPSTYPE:dance-single;
#BANNER:;
#DESCRIPTION:;
#CHARTSTYLE:;
#DIFFICULTY:Easy;
#METER:7;
#METERF:0.000000;
#RADARVALUES:0.262222,0.291723,0.189383,0.269506,0.000000,252.000000,226.000000,26.000000,37.000000,0.000000,0.000000,0.000000,0.000000,0.000000,0.262222,0.291723,0.189383,0.269506,0.000000,252.000000,226.000000,26.000000,37.000000,0.000000,0.000000,0.000000,0.000000,0.000000;
#CREDIT:;
#DISPLAYBPM:119.000000;
#NOTES:
0000
0000
0000
0000
,
0000
0000
0000
0000
,
0000
0000
0000
0000
,
0000
0000
0000
0000
,
0010
0101
0000
1000
,
0001
0010
0001
0100
,
1000
1100
0000
0000
,
0010
0100
0010
0100
0000
0000
0110
0000
,
0001
1001
0000
0000
,
1000
0001
1000
0001
0000
0000
0100
0000
,
0000
0011
1010
0100
,
0001
1000
0100
0010
,
0001
0100
0010
1000
,
0100
0010
0001
1000
,
0100
1100
0011
0100
,
0001
0010
0001
0100
,
1000
0010
0100
0001
,
0020
0030
0001
1000
,
0110
0000
1000
0000
0002
0000
0000
0013
,
0000
0100
0000
1000
0000
0000
0001
0000
,
0101
0100
0010
1000
,
0100
0001
2020
3030
,
0100
0000
1000
0001
0000
2002
0000
0000
,
0000
3003
0010
0010
,
1000
0001
1000
0001
0000
0000
0010
0000
,
0010
2000
0001
3100
,
0001
0010
0001
0100
,
2000
3001
1000
0100
,
0010
0001
1000
0010
,
0100
0002
0010
1003
,
0010
0100
0010
1000
,
0002
0103
1001
1001
,
1000
0010
0200
0301
,
0010
0100
2200
3300
,
0001
1000
0202
0303
,
0001
0001
1000
0010
,
2000
0002
0000
3003
,
0100
0010
0220
0330
,
1000
0001
0022
0033
,
0100
0010
2000
3001
,
0020
0130
1000
0001
,
0110
0010
1000
0001
,
1000
0100
0010
0001
,
0100
0010
1010
0100
,
1000
0001
1000
0100
,
0010
0000
0001
1000
0000
2002
0000
0000
,
0000
3003
0100
0100
,
0010
0100
0010
0100
0000
0000
0001
0000
,
1000
0020
0100
0031
,
0010
1000
0100
0010
,
0002
0103
0010
1000
,
0100
1000
0010
0100
,
0001
0020
1000
0130
,
0010
0100
1000
0001
,
0200
0310
0101
0101
,
1000
0001
0020
0130
,
1000
0002
0100
0013
,
1000
0010
0100
0001
,
0020
0130
1000
0001
,
0010
0001
0100
1000
,
0010
0200
1000
0301
,
1000
0001
0010
0100
,
2000
3010
1100
1100
,
0010
1000
0002
0103
,
2002
0000
0000
0000
,
0000
0000
0000
0000
,
0000
0000
0000
3003
;

//---------------dance-single - ----------------
#NOTEDATA:;
#CHARTNAME:;
#CHARTHASH:0:
#STEPSTYPE:dance-single;
#BANNER:;
#DESCRIPTION:;
#CHARTSTYLE:;
#DIFFICULTY:Beginner;
#METER:3;
#METERF:0.000000;
#RADARVALUES:0.143598,0.194482,0.101975,0.021852,0.000000,138.000000,124.000000,14.000000,3.000000,0.000000,0.000000,0.000000,0.000000,0.000000,0.143598,0.194482,0.101975,0.021852,0.000000,138.000000,124.000000,14.000000,3.000000,0.000000,0.000000,0.000000,0.000000,0.000000;
#CREDIT:;
#DISPLAYBPM:119.000000;
#NOTES:
// measure 0
0000
0000
0000
0000
,  // measure 1
0000
0000
0000
0000
,  // measure 2
0000
0000
0000
0000
,  // measure 3
0000
0000
0000
0000
,  // measure 4
0010
0010
0000
1000
,  // measure 5
1000
0000
0001
0000
,  // measure 6
0100
0100
0000
0000
,  // measure 7
0001
0001
0000
0100
,  // measure 8
0000
0110
0000
0000
,  // measure 9
1000
1000
0000
1001
,  // measure 10
0000
0001
0001
0000
,  // measure 11
0010
0000
0100
0000
,  // measure 12
1000
0000
0010
0000
,  // measure 13
0200
0000
0000
0300
,  // measure 14
0000
0100
0100
0000
,  // measure 15
0010
0000
1000
0000
,  // measure 16
0001
0000
0010
0000
,  // measure 17
0100
0000
1000
0000
,  // measure 18
0010
0000
0001
0000
,  // measure 19
0010
0000
0100
0000
,  // measure 20
1000
0000
0001
0000
,  // measure 21
0100
0000
0010
0000
,  // measure 22
0110
0000
0000
1001
,  // measure 23
0000
0000
0001
0000
,  // measure 24
0010
0010
0000
0110
,  // measure 25
0000
1001
0000
0000
,  // measure 26
1000
0000
0001
0000
,  // measure 27
0100
0000
0010
0000
,  // measure 28
0010
0000
1000
0000
,  // measure 29
0001
0001
0000
0000
,  // measure 30
1000
0000
0100
0000
,  // measure 31
0010
0000
0001
0001
,  // measure 32
0001
0000
0100
0000
,  // measure 33
1000
1000
1000
0000
,  // measure 34
0010
0010
0010
0000
,  // measure 35
0000
0000
0110
0000
,  // measure 36
1001
0000
0000
0000
,  // measure 37
0100
0100
0100
0000
,  // measure 38
0001
0001
0001
0000
,  // measure 39
0000
0000
0010
0000
,  // measure 40
0001
0000
1000
0000
,  // measure 41
0010
0000
0100
0000
,  // measure 42
0001
0000
1000
0000
,  // measure 43
0100
0000
0010
0000
,  // measure 44
0001
0000
0100
0000
,  // measure 45
0110
0000
0000
1001
,  // measure 46
0000
0000
1000
0000
,  // measure 47
0100
0100
0000
0110
,  // measure 48
0000
1001
0000
0000
,  // measure 49
0001
0000
0100
0000
,  // measure 50
1000
0000
0010
0000
,  // measure 51
1000
0000
0100
0000
,  // measure 52
0010
0010
0000
0000
,  // measure 53
0001
0000
0100
0000
,  // measure 54
1000
0000
0100
0100
,  // measure 55
0100
0000
0010
0000
,  // measure 56
0001
0001
0000
0000
,  // measure 57
0100
0000
0001
0000
,  // measure 58
1000
0000
0100
0000
,  // measure 59
0010
0000
0001
0000
,  // measure 60
1000
1000
0000
0000
,  // measure 61
0010
0000
0100
0000
,  // measure 62
0110
0000
0001
0001
,  // measure 63
0001
0000
1000
0000
,  // measure 64
2002
0000
0000
0000
,  // measure 65
0000
0000
0000
0000
,  // measure 66
0000
0000
0000
3003
;
