#TITLE:I WANT YOUR LOVE (Darwin remix);
#ARTIST:GAV;
#BANNER:I WANT YOUR LOVE (Darwin remix).png;
#BACKGROUND:I WANT YOUR LOVE (Darwin remix)-bg.png;
#JACKET:I WANT YOUR LOVE (Darwin remix)-jacket.png;
#MUSIC:I WANT YOUR LOVE (Darwin remix).ogg;
#SAMPLESTART:22.574;
#SAMPLELENGTH:20;
#DISPLAYBPM:170;
#BPMS:0=170;
#BGCHANGES:;

//---------------dance-single - ----------------
#NOTES:
     dance-single:
     :
     Beginner:
     2:
     :
0000
0000
0000
0000
,
0000
0000
0000
0000
,
0000
0000
0000
0000
,
0000
0000
0000
0000
,
0000
0000
0000
0000
,
0001
0000
0000
0000
,
0000
0000
0000
0000
,
1000
0000
0000
0000
,
0000
0000
0000
0000
,
0010
0000
0000
0000
,
0010
0000
0000
0000
,
1000
0000
0000
0000
,
0000
0000
0000
0000
,
0001
0000
0000
0000
,
0001
0000
0000
0000
,
0010
0000
0000
0000
,
0100
0000
0000
0000
,
1000
0000
0000
0000
,
0001
0000
0000
0000
,
1000
0000
0000
0000
,
0010
0000
0000
0000
,
0100
0000
0000
0000
,
0001
0000
0000
0000
,
0100
0000
0000
0000
,
0010
0000
0000
0000
,
0100
0000
0000
0000
,
1000
0000
0000
0000
,
0001
0000
0000
0000
,
1000
0000
0000
0000
,
0100
0000
0000
0000
,
1000
0000
0000
0000
,
0001
0000
0000
0000
,
0010
0000
0000
0000
,
0001
0000
0000
0000
,
0001
0000
0000
0000
,
1000
0000
0000
0000
,
0100
0000
0000
0000
,
1000
0000
0000
0000
,
0001
0000
0000
0000
,
0010
0000
0000
0000
,
0001
0000
0000
0000
,
1000
0000
0000
0000
,
0010
0000
0000
0000
,
1000
0000
0000
0000
,
0001
0000
0000
0000
,
0100
0000
0000
0000
,
0010
0000
0000
0000
,
0100
0000
0000
0000
,
0110
0000
0000
0000
,
1000
0000
0000
0000
,
1000
0000
0000
0000
,
0010
0000
0000
0000
,
0010
0000
0000
0000
,
0100
0000
0000
0000
,
0100
0000
0000
0000
,
0001
0000
0000
0000
,
0001
0000
0000
0000
,
1000
0000
0000
0000
,
0010
0000
0000
0000
,
1000
0000
0000
0000
,
0001
0000
0000
0000
,
0100
0000
0000
0000
,
0100
0000
0000
0000
,
0010
0000
0000
0000
,
0010
0000
0000
0000
,
0110
0000
0000
0000
;

//---------------dance-single - ----------------
#NOTES:
     dance-single:
     :
     Easy:
     4:
     :
0000
0000
0000
0000
,
0000
0000
0000
0000
,
0000
0000
0000
0000
,
0000
0000
0000
0000
,
0000
0000
0000
0000
,
0010
0000
0000
0000
,
1000
0000
0001
0000
,
1000
0000
0000
0000
,
1001
0000
0000
0000
,
0001
0000
0001
0000
,
0100
0000
0100
0000
,
0010
0000
0000
0000
,
1000
0000
1000
0000
,
0100
0000
0000
0000
,
1000
0000
0001
0000
,
0100
0000
0000
0000
,
0010
0000
0000
0000
,
1000
0000
1000
0000
,
0001
1000
0001
0000
,
0001
0000
0001
0000
,
0010
0100
0010
0000
,
0100
0000
0100
0000
,
1000
0001
1000
0000
,
0010
0000
0010
0000
,
0100
0010
0100
0000
,
0001
0000
0100
0000
,
0001
0010
0001
0000
,
1000
0000
0100
0000
,
1000
0010
1000
0000
,
0001
0000
0010
0000
,
0100
1000
0100
0000
,
1000
0000
0010
0000
,
0110
0000
0000
0000
,
1000
0000
0001
0000
,
1000
0000
0010
0000
,
0100
0000
0000
0000
,
0001
0000
0100
0000
,
0010
0000
0000
0000
,
0100
0000
0100
0000
,
0001
0000
0000
0000
,
1000
0000
0000
0000
,
0001
0000
0100
0000
,
0001
0000
1000
0000
,
0100
0000
0000
0000
,
1000
0000
0010
0000
,
0100
0000
0000
0000
,
0001
0000
0010
0000
,
0001
0000
0000
0000
,
1001
0000
0000
0000
,
0001
0000
1000
0000
,
0001
0000
0000
0000
,
0100
0000
0010
0000
,
0100
0000
0000
0000
,
0001
0000
0010
0000
,
0001
0000
0000
0000
,
1000
0000
0010
0000
,
1000
0000
0000
0000
,
0100
0000
0100
0000
,
1000
0000
1000
0000
,
0001
0000
0001
0000
,
0010
0000
0010
0000
,
0001
0001
0001
0000
,
1000
1000
1000
0000
,
0100
0100
0100
0000
,
0010
0000
0000
0000
,
0110
0000
0000
0000
;

//---------------dance-single - ----------------
#NOTES:
     dance-single:
     :
     Medium:
     9:
     :
0000
0000
0000
0000
,
0000
0000
0000
0000
,
0000
0000
0000
0000
,
0000
0000
0000
0000
,
0000
0000
0000
0000
,
1000
1000
0001
0001
,
0100
0010
1000
0001
,
0200
0000
0000
0000
0000
0310
1000
0000
,
0001
0010
0100
1000
,
0010
1000
0010
1000
,
0001
0010
0001
0010
,
0100
0000
1000
0000
0010
0000
0100
0010
,
0100
0100
0001
0001
,
1001
0000
0000
0000
,
0000
0001
1000
0100
,
0010
0010
0100
1000
,
0001
0100
0001
0000
1000
0100
1000
0000
,
0010
0000
0100
0000
0001
0100
0001
0100
,
0000
0001
0000
0010
0000
0100
0000
1000
,
0100
0000
1000
0000
0010
0100
0010
0100
,
0000
0010
0000
1000
0000
0100
0000
0010
,
0001
0000
1000
0000
0100
0010
0100
0010
,
0000
0001
0000
0100
0000
0010
0000
1000
,
0010
0000
0100
0000
0001
0100
0001
0100
,
0000
0001
0000
1000
0000
0100
0000
0010
,
0100
0000
1000
0000
0010
0100
0010
1000
,
0000
0001
0000
0010
0000
0100
0000
1000
,
0010
0000
0100
0000
0001
1000
0001
0100
,
0000
0010
0000
1000
0000
0001
0000
0010
,
0100
0000
1000
0000
0001
0010
0001
0100
,
0000
0010
0000
0100
0000
0001
0000
1000
,
0001
0000
0100
0000
0010
0100
0010
0100
,
0001
0100
1000
0100
,
0010
1000
0100
1000
,
0001
0010
0100
0010
,
0001
0000
0001
0000
1000
0000
0100
1000
,
0100
0010
0001
1000
,
0010
0010
0100
0100
,
0110
2000
3002
0203
,
0320
0000
1000
0000
1030
0000
0001
0010
,
0001
1000
0010
1000
,
0001
0010
0100
0010
,
0001
0000
1000
0000
0010
0000
1000
0010
,
1000
0000
0001
0000
0100
0000
0010
0100
,
0010
1000
0001
0100
,
0002
0010
1000
1003
,
2000
0100
0001
3001
,
1000
0100
1000
0000
0010
1000
0010
0000
,
2000
0000
0000
3002
0000
0000
0013
0000
,
0110
0000
1000
0000
0001
0100
0010
0000
,
1000
0000
0100
0000
0010
0100
1000
0000
,
0001
0001
0100
0100
,
0010
1000
0100
0000
0010
0001
0100
0000
,
0110
0000
0001
0000
1000
0100
0010
0000
,
0001
0000
0100
0000
0010
0100
0001
0000
,
1000
1000
0100
0100
,
0010
0001
0100
0000
0010
1000
0100
0000
,
1000
0010
1000
0010
,
0100
0001
0100
0001
,
1000
0100
0010
0001
,
1000
0100
0010
0001
,
1000
0100
1000
0000
0010
0100
0010
0000
,
0100
0001
0100
0000
0001
0010
0001
0000
,
1000
0010
1000
0000
0001
0100
0001
0000
,
0010
0100
0010
0100
1000
0001
0010
0100
,
1000
0000
0000
0000
;

//---------------dance-single - ----------------
#NOTES:
     dance-single:
     :
     Hard:
     13:
     :
0000
0000
0000
0000
,
0000
0000
0000
0000
,
0000
0000
0000
0000
,
0000
0000
0000
0000
,
0000
0000
0000
0000
,
0001
0001
1000
1000
,
0110
0000
0001
0010
0100
0000
1000
0000
,
0010
0000
0100
0000
0010
1000
0100
0000
,
0010
0100
0010
0001
,
1000
0000
0010
1000
0100
0010
0100
0000
,
0010
0000
0001
0100
0010
0100
0001
0000
,
1000
0100
0001
0100
1000
0000
0010
0100
,
0001
0001
1000
1000
,
0001
1000
0010
0100
0010
1000
0100
0000
,
0010
0001
1000
0100
0001
0100
1000
0000
,
0010
1000
0100
0000
0010
0001
0100
0000
,
0010
1000
0010
0100
0001
1000
0100
0000
,
0110
0000
1001
0000
0001
0100
0001
0010
,
0100
0110
0000
1100
0001
0010
0100
1000
,
1100
0000
0101
0000
1000
0100
0010
0001
,
0100
0110
0000
1010
0001
1000
0010
0100
,
0101
0000
1010
0000
0001
1000
0100
0010
,
0001
0011
0000
0110
1000
0010
0100
0001
,
0101
0000
1100
0000
0001
0010
0100
1000
,
0010
1000
0100
0001
1000
0010
0001
0100
,
0110
0000
1010
0000
1000
0100
1000
0010
,
0100
0110
0000
0101
1000
0010
0100
0001
,
0011
0000
0110
0000
0001
0100
0010
1000
,
0100
0110
0000
0011
1000
0001
0100
0010
,
1010
0000
0101
0000
1000
0001
0010
0100
,
1000
1100
0000
0110
0001
0100
0010
1000
,
1010
0000
0011
0000
1000
0100
0010
0001
,
0100
0001
0100
1000
0001
0010
1000
0100
,
0110
0000
1001
0000
0001
0100
0001
1000
,
0010
1000
0100
0001
0100
1000
0010
0000
,
0110
0000
0101
0000
1010
0000
1000
0001
,
0100
0001
0010
1000
0010
0001
0010
0100
,
1100
0000
1001
0000
0001
0100
0010
0100
,
0001
1000
0010
0001
0010
1000
0001
0000
,
0010
0100
1000
0010
0001
1000
0100
0001
,
1000
0100
0010
0001
0010
0001
0100
0000
,
0110
0000
1001
0000
1000
0100
1000
0001
,
0010
0001
0100
1000
0100
0001
0010
0000
,
0110
0000
1100
0000
0011
0000
0001
1000
,
0100
1000
0010
0001
0010
1000
0010
0100
,
0101
0000
1001
0000
1000
0100
0010
0100
,
1000
0001
0010
1000
0010
0001
1000
0000
,
0010
0100
0001
0010
1000
0001
0100
1000
,
1100
0000
0010
0110
0000
0100
0101
0000
,
0001
0000
0010
0001
0010
0000
0001
0000
0100
0000
0010
0000
1000
0000
0010
0000
,
1000
0100
1000
0010
0100
0001
0010
0001
,
1000
0100
0001
0100
1000
0100
0001
0100
,
1000
0010
0100
0001
1000
0100
0010
0001
,
1000
0000
0010
1000
0010
0000
1000
0000
0100
0000
0010
0000
0001
0000
0010
0000
,
0001
0100
0001
0010
0100
1000
0010
1000
,
0001
0100
1000
0100
0001
0100
1000
0100
,
0001
0010
0100
0010
1000
0010
0001
0000
,
1000
0000
0100
0010
0001
0000
1000
0000
0010
0000
0100
0000
0110
0000
0000
0000
,
0001
0000
0010
0100
1000
0000
0001
0000
0100
0000
0010
0000
0110
0000
0000
0000
,
1000
0000
0010
0100
0001
0000
1000
0000
0100
0000
0010
0000
0001
0000
1000
0000
,
0010
0000
0000
0100
0001
0000
0000
1000
0001
0000
0000
0010
0100
0000
0000
1000
,
0100
0010
0100
0010
0001
0010
0001
0010
,
0100
1000
0100
1000
0010
0100
0010
0100
,
0001
1000
0100
0010
0001
1000
0100
0010
,
0001
0000
0100
0000
0000
0110
0000
0010
1000
0000
0001
0000
0000
0011
0000
0001
,
0100
0000
0000
0000
;

//---------------dance-single - ----------------
#NOTES:
     dance-single:
     :
     Challenge:
     15:
     :
0000
0000
0000
0000
,
0000
0000
0000
0000
,
0000
0000
0000
0000
,
0000
0000
0000
0000
,
0000
0000
0000
0000
,
0010
0000
0000
0010
1000
0000
0000
1000
0100
0000
0000
0100
0001
0000
0000
0001
,
1000
0000
0000
1000
0001
0000
0000
0001
0010
0000
0000
0010
0100
0000
0000
0100
,
0001
0000
0000
0001
0100
0000
0000
0100
0010
0000
0000
0010
1000
0000
0000
1000
,
0100
0000
0000
0100
0001
0000
0000
0001
1000
0000
0000
1000
0010
0000
0000
0010
,
1000
0000
0001
0100
0001
0000
0000
0000
0011
0000
0000
0000
1100
0000
0000
0000
,
0010
0000
1000
0001
1000
0000
0000
0000
0101
0000
0000
0000
1010
0000
0000
0000
,
0100
0000
1000
0001
1000
0000
0000
0000
0010
0000
0100
0001
0100
0000
0010
0000
,
1000
0000
0000
1000
0010
0000
0000
0010
0100
0000
0000
0100
0001
0000
0000
0001
,
0010
0000
0001
0100
0001
0000
0000
1000
0010
0000
0000
0100
0001
0000
0000
0010
,
0100
0000
1000
0001
1000
0000
0000
0001
0010
0000
0000
0001
0100
0000
0000
0010
,
1000
1000
0100
0100
0010
0010
0001
0001
,
1000
0010
1000
0010
1000
0100
1000
0100
0010
0001
0010
0001
0100
0001
0100
0001
,
1000
0000
0010
0100
0001
0000
0010
0100
1000
0000
0001
0000
1000
0000
0010
0000
,
1000
0100
1000
0000
0100
0010
0100
0000
0010
0001
0010
0000
0001
1000
0001
0000
,
0100
0000
0001
0010
0100
0000
1000
0001
0100
0000
0010
0000
1000
0000
0001
0000
,
0010
0001
0010
0000
0001
0100
0001
0000
1000
0100
1000
0000
0010
1000
0100
0000
,
0010
0000
0001
1000
0100
0000
1000
0001
0100
0000
0010
0000
0100
0000
1000
0000
,
0100
0001
0010
0000
0100
1000
0010
0000
1000
0001
0100
0000
0010
1000
0001
0000
,
0100
0000
0001
0010
0100
0000
1000
0001
0010
0000
0001
0000
1000
0000
0100
0000
,
1000
0000
0010
0100
0001
0000
0010
0100
1000
0000
0001
0100
0010
0000
1000
0100
,
1000
0000
0001
0010
0100
0000
1000
0001
1000
0000
0010
0000
0100
0000
0001
0000
,
1000
0010
1000
0000
0001
0010
0001
0000
0100
0010
0100
0000
0001
1000
0100
0000
,
0010
0000
0001
1000
0100
0000
1000
0010
0100
0000
0001
0000
0010
0000
0001
0000
,
1000
0100
0010
0000
0100
0010
0001
0000
0010
0001
1000
0000
0001
1000
0100
0000
,
0010
0000
0001
1000
0010
0000
1000
0100
1000
0000
0001
0000
0010
0000
0100
0000
,
1000
0010
1000
0000
0001
0010
0001
0000
1000
0100
1000
0000
0001
0100
0001
0000
,
0010
0000
0100
1000
0100
0000
0010
0001
0010
0000
0001
0000
0100
0000
1000
0000
,
0000
1001
0000
0110
0000
1000
0100
0001
,
0010
1000
0100
1000
0100
0001
0001
0010
,
0001
0010
0001
1000
1000
0100
0100
0010
,
1000
0010
1000
0010
0100
0100
0001
0001
,
1000
1000
0001
0010
0010
0100
0100
0001
,
0001
1000
1000
0100
0100
0010
0010
0001
,
1000
0010
1000
0001
0100
0001
0100
0010
,
0100
0010
1000
0001
1000
0100
0010
0001
,
0100
0000
0010
0000
1000
0000
0010
0000
0100
0000
0001
1000
0001
0000
0000
0000
,
0010
0000
0000
0010
0001
0000
0000
0001
1000
0000
0000
1000
0100
0000
0000
0100
,
1000
0000
0000
1000
0001
0000
0000
0001
0100
0000
0000
0100
0010
0000
0000
0010
,
0100
0000
0000
0100
0010
0000
0000
0010
1000
0000
0000
0001
1000
0000
0001
0000
,
1000
0100
1000
0000
0010
0100
0010
0000
1000
0001
1000
0000
0001
0010
0001
0000
,
0100
0001
1000
0001
0010
0010
1000
0100
,
1000
0100
0010
1000
0010
0001
0100
0001
,
0010
0000
0010
0001
1000
0000
0001
1000
0100
0000
0100
0010
1000
0000
0010
0100
,
0002
0000
0000
0023
0000
0000
0031
0100
,
1010
0000
0000
0010
0000
0100
0000
0001
0010
0000
0000
0000
0001
0000
0100
0000
,
0101
1010
1100
0011
,
1001
0000
0000
0010
0000
1000
0000
0001
0100
0000
0000
0000
0001
0000
0010
0000
,
0011
0110
1100
1001
,
0011
0000
0000
1000
0000
0001
0000
1000
0100
0000
0000
0000
0010
0000
0001
0000
,
1100
0011
1010
0110
,
0101
0000
0000
0010
0000
0001
0000
0100
0010
0000
0000
1000
0000
0100
0000
1000
,
0002
0000
0000
0203
0000
0000
0310
1000
,
0001
0000
0010
0100
0000
0010
0000
0001
0100
0000
0010
1000
0000
0001
0000
1000
,
0001
0000
0100
0010
0000
1000
0000
0100
1000
0000
0001
0010
0000
0001
0000
0100
,
0010
0000
1000
0100
1000
0000
0001
0100
0001
0000
1000
0010
1000
0000
0001
0010
,
0001
0000
1000
0001
0000
0010
0000
0001
0100
0000
0010
1000
0000
0100
0000
0010
,
0001
0000
0010
0100
1000
0000
0010
1000
0001
0000
1000
0100
0010
0000
0001
0100
,
0001
0000
0010
0001
1000
0000
0100
0010
0100
0000
1000
0001
1000
0000
0010
0100
,
0001
0000
0010
0001
0000
0100
0000
0010
1000
0000
0001
0010
0000
0100
0000
1000
,
0010
0000
0100
0001
0000
0001
0000
0001
0010
0000
0100
1000
0000
1000
0000
2000
,
0002
0000
0000
0000
,
0000
0000
0000
0000
,
3003
0000
0000
0000
;

//---------------dance-double - ----------------
#NOTES:
     dance-double:
     :
     Easy:
     4:
     :
00000000
00000000
00000000
00000000
,
00000000
00000000
00000000
00000000
,
00000000
00000000
00000000
00000000
,
00000000
00000000
00000000
00000000
,
00000000
00000000
00000000
00000000
,
00001000
00000000
00000000
00000000
,
00010000
00000000
00000100
00000000
,
00001000
00000000
00000000
00000000
,
00000001
00000000
00000000
00000000
,
00000100
00000000
00000100
00000000
,
00000010
00000000
00000010
00000000
,
00001000
00000000
00000000
00000000
,
00000100
00000000
00000100
00000000
,
00010000
00000000
00000000
00000000
,
00001000
00000000
00100000
00000000
,
00010000
00000000
00000000
00000000
,
10000000
00000000
00000000
00000000
,
00100000
00000000
00100000
00000000
,
01000000
00010000
01000000
00000000
,
00001000
00000000
00001000
00000000
,
00010000
00000100
00010000
00000000
,
00000010
00000000
00000010
00000000
,
00001000
00000001
00001000
00000000
,
00000001
00000000
00000001
00000000
,
00000100
00000010
00000100
00000000
,
00000010
00000000
00001000
00000000
,
00000100
00010000
00001000
00000000
,
00010000
00000000
00001000
00000000
,
00100000
00010000
10000000
00000000
,
00010000
00000000
00100000
00000000
,
00001000
00010000
00000010
00000000
,
00001000
00000000
00000001
00000000
,
00001001
00000000
00000000
00000000
,
00001000
00000000
00000100
00000000
,
00010000
00000000
00001000
00000000
,
01000000
00000000
00000000
00000000
,
00010000
00000000
10000000
00000000
,
01000000
00000000
00000000
00000000
,
00100000
00000000
00100000
00000000
,
00001000
00000000
00000000
00000000
,
00010000
00000000
00000000
00000000
,
00000100
00000000
00001000
00000000
,
00000001
00000000
00001000
00000000
,
00000100
00000000
00000000
00000000
,
00010000
00000000
00001000
00000000
,
00100000
00000000
00000000
00000000
,
00010000
00000000
10000000
00000000
,
00010000
00000000
00000000
00000000
,
00011000
00000000
00000000
00000000
,
00001000
00000000
00010000
00000000
,
00000010
00000000
00000000
00000000
,
00001000
00000000
00000100
00000000
,
00010000
00000000
00000000
00000000
,
00001000
00000000
00100000
00000000
,
00010000
00000000
00000000
00000000
,
10000000
00000000
00010000
00000000
,
00100000
00000000
00000000
00000000
,
00001000
00000000
00001000
00000000
,
00010000
00000000
00010000
00000000
,
00000010
00000000
00000010
00000000
,
00001000
00000000
00001000
00000000
,
00000001
00000001
00000001
00000000
,
00000100
00000100
00000100
00000000
,
00001000
00001000
00001000
00000000
,
00010000
00000000
00000000
00000000
,
00011000
00000000
00000000
00000000
;

//---------------dance-double - ----------------
#NOTES:
     dance-double:
     :
     Medium:
     9:
     :
00000000
00000000
00000000
00000000
,
00000000
00000000
00000000
00000000
,
00000000
00000000
00000000
00000000
,
00000000
00000000
00000000
00000000
,
00000000
00000000
00000000
00000000
,
10000000
10000000
00010000
00010000
,
00100000
00001000
00010000
00000010
,
00002000
00000000
00000000
00000000
00000000
00003001
00000010
00000000
,
00000001
00000100
00000010
00001000
,
00000100
00010000
00001000
00010000
,
00001000
00100000
00010000
10000000
,
01000000
00000000
00010000
00000000
00001000
00000000
00010000
00001000
,
00010000
00010000
00000100
00000100
,
00001001
00000000
00000000
00000000
,
00000000
00000001
00000100
00001000
,
00010000
00010000
00001000
01000000
,
00010000
00100000
00010000
00000000
10000000
01000000
10000000
00000000
,
00010000
00000000
00100000
00000000
00001000
00010000
00001000
00010000
,
00000000
00000100
00000000
00001000
00000000
00000001
00000000
00000010
,
00000001
00000000
00001000
00000000
00000100
00010000
00000100
00010000
,
00000000
00001000
00000000
01000000
00000000
00010000
00000000
10000000
,
00100000
00000000
10000000
00000000
00010000
01000000
00010000
01000000
,
00000000
00001000
00000000
00010000
00000000
00000010
00000000
00001000
,
00000100
00000000
00000010
00000000
00000001
00000100
00000001
00000100
,
00000000
00000010
00000000
00001000
00000000
00000100
00000000
00010000
,
00001000
00000000
00100000
00000000
00010000
01000000
00010000
10000000
,
00000000
01000000
00000000
00010000
00000000
00001000
00000000
00010000
,
00001000
00000000
00000010
00000000
00000001
00000010
00000001
00001000
,
00000000
00000001
00000000
00000100
00000000
00001000
00000000
00010000
,
00001000
00000000
00100000
00000000
00010000
10000000
00010000
01000000
,
00000000
00100000
00000000
10000000
00000000
00010000
00000000
00100000
,
00001000
00000000
00010000
00000000
00000010
00001000
00000010
00001000
,
00000001
00000100
00001000
00000100
,
00000010
00010000
00001000
00010000
,
00001000
00100000
00010000
10000000
,
00100000
00000000
00100000
00000000
01000000
00000000
00010000
00100000
,
00010000
01000000
00001000
00010000
,
00000100
00000100
00001000
00001000
,
00001001
00000002
00000203
00000320
,
00020030
00000000
00001000
00000000
00031000
00000000
01000000
00010000
,
01000000
00100000
10000000
00010000
,
10000000
00100000
00010000
00001000
,
00010000
00000000
00001000
00000000
00000100
00000000
00000001
00000100
,
00000001
00000000
00001000
00000000
00000010
00000000
00010000
00001000
,
00010000
00001000
01000000
00010000
,
20000000
01000000
00010000
30010000
,
00200000
00010000
00001000
00301000
,
00010000
00000100
00010000
00000000
00000010
00001000
00000010
00000000
,
00000200
00000000
00000000
00000302
00000000
00000000
00001003
00000000
,
00000101
00000000
00001000
00000000
00000100
00010000
00001000
00000000
,
00100000
00000000
00001000
00000000
00100000
00010000
10000000
00000000
,
00100000
00100000
00010000
00010000
,
00001000
00010000
00000010
00000000
00001000
00000001
00000100
00000000
,
00000001
00000000
00001000
00000000
00000010
00010000
00001000
00000000
,
01000000
00000000
00010000
00000000
10000000
01000000
00100000
00000000
,
00010000
00010000
00100000
00100000
,
00001000
00010000
00000100
00000000
00001000
00000010
00000100
00000000
,
00000001
00000010
00000001
00000010
,
00000100
00001000
00000100
00010000
,
00001000
00100000
00010000
10000000
,
01000000
00100000
00010000
00100000
,
00001000
00010000
00001000
00000000
00010000
00000100
00010000
00000000
,
00000010
00001000
00000010
00000000
00001000
00000001
00001000
00000000
,
00000001
00000100
00001000
00000000
00010000
00100000
10000000
00000000
,
00010000
00100000
00001000
00010000
00000010
00001000
00000001
00000010
,
00000100
00000000
00000000
00000000
;

//---------------dance-double - ----------------
#NOTES:
     dance-double:
     :
     Hard:
     13:
     :
00000000
00000000
00000000
00000000
,
00000000
00000000
00000000
00000000
,
00000000
00000000
00000000
00000000
,
00000000
00000000
00000000
00000000
,
00000000
00000000
00000000
00000000
,
00000001
00000001
00001000
00001000
,
00000110
00000000
00001000
00000100
00010000
00000000
00001000
00000000
,
00010000
00000000
00001000
00000000
00100000
00010000
01000000
00000000
,
00100000
10000000
00010000
10000000
,
00010000
00000000
00100000
00001000
00010000
00001000
00010000
00000000
,
00000010
00000000
00001000
00000100
00001000
00000100
00000010
00000000
,
00000001
00000100
00001000
00000100
00000001
00000000
00001000
00000100
,
00010000
00010000
00001000
00001000
,
00100000
00010000
10000000
00100000
10000000
00100000
01000000
00000000
,
00010000
00100000
00001000
00010000
00001000
00000100
00000010
00000000
,
00001000
00000001
00000100
00000000
00000001
00000010
00000100
00000000
,
00001000
00000001
00000010
00001000
00010000
01000000
10000000
00000000
,
10100000
00000000
01010000
00000000
00001000
00010000
00000010
00001000
,
00000001
00001000
00000000
00000100
00010000
00001000
01000000
00010000
,
10010000
00000000
11000000
00000000
00010000
00100000
01000000
10000000
,
00010000
00100000
00000000
00001000
00010000
00000100
00001000
00000001
,
00001001
00000000
00000011
00000000
00001000
00000100
00000010
00000001
,
00001000
00000100
00000000
00010000
00001000
00100000
00010000
01000000
,
01100000
00000000
10100000
00000000
10000000
01000000
00100000
00010000
,
10000000
00100000
00010000
00001000
00010000
00000100
00001000
00000010
,
00001010
00000000
00000101
00000000
00001000
00000100
00001000
00000001
,
00000010
00000100
00000000
00010000
00001000
01000000
00010000
00100000
,
00110000
00000000
11000000
00000000
00010000
00100000
00001000
00010000
,
00000100
00010000
00000000
00000010
00001000
00000001
00001000
00000100
,
00001100
00000000
00000101
00000000
00001000
00000001
00000100
00001000
,
00010000
00001000
00000000
01000000
00010000
00100000
10000000
00100000
,
01100000
00000000
11000000
00000000
00010000
10000000
01000000
00010000
,
00001000
00000010
00001000
00010000
00000100
00001000
00000001
00000100
,
00000110
00000000
00001001
00000000
00001000
00000100
00001000
00000100
,
00010000
00001000
00100000
00010000
10000000
01000000
00010000
00000000
,
00011000
00000000
00001010
00000000
00000011
00000000
00001000
00000010
,
00000100
00000001
00000100
00001000
00010000
00001000
01000000
00010000
,
10000000
00000000
10000000
00000000
00010000
00000000
00010000
00100000
,
00010000
00000000
10000000
00100000
01000000
00010000
01000000
00000000
,
00001000
00010000
00001000
00000100
00000010
00010000
00001000
00000010
,
00000001
00000100
00000001
00000100
00000010
00001000
00000001
00000000
,
00001001
00000000
00001100
00000000
00000001
00000010
00000001
00001000
,
00000100
00010000
00001000
00010000
00001000
00100000
00010000
00000000
,
01010000
00000000
11000000
00000000
01100000
00000000
00010000
10000000
,
01000000
10000000
00010000
00100000
00001000
00010000
00000100
00001000
,
00000001
00000000
00000001
00000000
00001000
00000000
00001000
00000100
,
00001000
00000000
00000001
00000100
00000010
00001000
00000010
00000000
,
00010000
00001000
00010000
00100000
01000000
00001000
00010000
00100000
,
01000000
00000000
00010000
00010000
00000000
10000000
10000000
00000000
,
00100000
01000000
00010000
10000000
01000000
00100000
00010000
00100000
,
00001000
00010000
00000100
00000010
00001000
00000010
00000001
00000010
,
00000001
00000100
00001000
00010000
00001000
01000000
00100000
00010000
,
00100000
10000000
00100000
01000000
00010000
10000000
01000000
00000000
,
10000000
00100000
10000000
00010000
01000000
00001000
01000000
00001000
,
00010000
00001000
00000100
00000001
00000100
00001000
00010000
01000000
,
10000000
00100000
10000000
00100000
01000000
00010000
01000000
00001000
,
00010000
00000010
00000100
00001000
00000100
00000010
00001000
00000000
,
00000001
00000000
00000100
00000010
00001000
00000000
00000010
00000000
00010000
00000000
00001000
00000000
00012000
00000000
00000000
00000000
,
01003000
00000000
00010000
10000000
01000000
00000000
10000000
00000000
00100000
00000000
01000000
00000000
01100000
00000000
00000000
00000000
,
00010000
00000000
00100000
00001000
00010000
00000000
00001000
00000000
00010000
00000000
00000100
00000000
00001000
00000000
00000000
00000000
,
00000001
00000000
00000000
00000100
00000010
00000000
00000000
00001000
00000100
00000000
00000000
00010000
00001000
00000000
00000000
00100000
,
00010000
10000000
00010000
10000000
00100000
01000000
00010000
00100000
,
00001000
00010000
00001000
00010000
00000010
00001000
00000001
00000100
,
00000001
00000010
00000100
00001000
00000100
00010000
00001000
01000000
,
00010000
00000000
10000000
00000000
00000000
10010000
00000000
00010000
00100000
00000000
00001000
00000000
00000000
00011000
00000000
00010000
,
00000010
00000000
00000000
00000000
;

//---------------dance-double - ----------------
#NOTES:
     dance-double:
     :
     Challenge:
     15:
     :
00000000
00000000
00000000
00000000
,
00000000
00000000
00000000
00000000
,
00000000
00000000
00000000
00000000
,
00000000
00000000
00000000
00000000
,
00000000
00000000
00000000
00000000
,
00100000
00000000
00000000
00100000
00001000
00000000
00000000
00001000
00010000
00000000
00000000
00010000
00000100
00000000
00000000
00000100
,
00000010
00000000
00000000
00000010
00000001
00000000
00000000
00000001
00000100
00000000
00000000
00000100
00001000
00000000
00000000
00001000
,
01000000
00000000
00000000
01000000
00100000
00000000
00000000
00100000
10000000
00000000
00000000
10000000
00010000
00000000
00000000
00010000
,
00000100
00000000
00000000
00000100
00000001
00000000
00000000
00000001
00001000
00000000
00000000
00001000
00000010
00000000
00000000
00000010
,
00010000
00000000
00001000
01000000
00001000
00000000
00000000
00000000
00110000
00000000
00000000
00000000
11000000
00000000
00000000
00000000
,
00100000
00000000
10000000
00010000
10000000
00000000
00000000
00000000
10100000
00000000
00000000
00000000
01010000
00000000
00000000
00000000
,
00001000
00000000
00010000
00000100
00010000
00000000
00000000
00000000
00000010
00000000
00000100
00000001
00000100
00000000
00000010
00000000
,
00000001
00000000
00000000
00000001
00000100
00000000
00000000
00000100
00000010
00000000
00000000
00000010
00001000
00000000
00000000
00001000
,
00000100
00000000
00000010
00000001
00000010
00000000
00000100
00000000
00010000
00000000
00001000
00000000
01000000
00000000
00100000
00000000
,
00001000
00000000
00100000
01000000
00100000
00000000
10000000
00000000
01000000
00000000
00010000
00000000
01000000
00000000
00100000
00000000
,
00001000
00001000
00010000
00010000
01000000
01000000
00100000
00100000
,
00001000
00010000
00001000
00010000
00000010
00000100
00000010
00000100
00000001
00001000
00000001
00001000
00000100
00000010
00000100
00000010
,
00000001
00000000
00001000
00000010
00000100
00000000
00000010
00001000
00000100
00000000
00000001
00000000
00000100
00000000
00000010
00000000
,
00000001
00001000
00000001
00000000
00001000
00000100
00001000
00000000
00000100
00000010
00000100
00000000
00000010
00000001
00000010
00000000
,
00000100
00000000
00000001
00000100
00000010
00000000
00000001
00001000
00000100
00000000
00010000
00000000
01000000
00000000
00100000
00000000
,
00010000
01000000
00010000
00000000
10000000
01000000
10000000
00000000
00010000
00100000
00010000
00000000
10000000
00100000
10000000
00000000
,
01000000
00000000
00100000
00001000
00010000
00000000
00001000
00000100
00000001
00000000
00000010
00000000
00000001
00000000
00000100
00000000
,
00000010
00001000
00000100
00000000
00000010
00000001
00000100
00000000
00000010
00001000
00000001
00000000
00001000
00010000
01000000
00000000
,
00100000
00000000
00001000
01000000
00010000
00000000
10000000
00100000
10000000
00000000
01000000
00000000
00100000
00000000
00010000
00000000
,
01000000
00000000
00100000
10000000
00100000
00000000
01000000
00010000
01000000
00000000
00010000
00100000
00010000
00000000
00001000
00000100
,
00001000
00000000
00000100
00000010
00000100
00000000
00001000
00000001
00001000
00000000
00000010
00000000
00000100
00000000
00000001
00000000
,
00000010
00000100
00001000
00000000
00000001
00001000
00000010
00000000
00000100
00000001
00001000
00000000
00000010
00010000
00000100
00000000
,
00001000
00000000
00100000
01000000
00100000
00000000
01000000
00010000
10000000
00000000
00100000
00000000
10000000
00000000
01000000
00000000
,
00100000
00010000
10000000
00000000
00100000
10000000
01000000
00000000
10000000
00010000
01000000
00000000
00010000
00100000
01000000
00000000
,
00100000
00000000
00001000
00010000
00000010
00000000
00000100
00000010
00010000
00000000
00001000
00000000
00000100
00000000
00000001
00000000
,
00000010
00000100
00000010
00000000
00000001
00001000
00000001
00000000
00000100
00000010
00000100
00000000
00001000
00010000
00001000
00000000
,
01000000
00000000
10000000
00100000
10000000
00000000
00010000
00100000
00010000
00000000
01000000
00000000
00100000
00000000
10000000
00000000
,
00000000
10010000
00000000
01100000
00000000
10000000
01000000
00010000
,
00100000
10000000
00100000
01000000
00100000
00001000
01000000
00100000
,
00010000
00100000
01000000
00001000
00010000
00000010
00000100
00001000
,
00000100
00000001
00000010
00000100
00000001
00000100
00001000
00000010
,
00010000
00000100
00001000
00000010
00000001
00000010
00010000
01000000
,
00100000
00001000
00100000
00010000
01000000
10000000
01000000
00100000
,
10000000
01000000
00010000
01000000
00001000
01000000
00100000
00010000
,
00000100
00000001
00000010
00001000
00000010
00000100
00001000
00000010
,
00000100
00000000
00000001
00000000
00000010
00000000
00000100
00000000
00001000
00000000
00000001
00001000
00000010
00000000
00000000
00000000
,
00001000
00000000
00000000
00001000
00000100
00000000
00000000
00000100
00010000
00000000
00000000
00010000
00100000
00000000
00000000
00100000
,
10000000
00000000
00000000
10000000
00010000
00000000
00000000
00010000
00100000
00000000
00000000
00100000
01000000
00000000
00000000
01000000
,
10000000
00000000
00000000
00100000
01000000
00000000
00000000
00010000
00100000
00000000
00000000
01000000
10000000
00000000
00010000
00000000
,
01000000
00100000
01000000
00000000
00001000
00010000
00001000
00000000
00010000
00000010
00010000
00000000
00000100
00001000
00000100
00000000
,
00000010
00000001
00000100
00000010
00000001
00000010
00001000
00000100
,
00000001
00000100
00000010
00000100
00000001
00000100
00001000
00000010
,
00000100
00000100
00000010
00000010
00010000
00010000
00001000
00001000
,
02000000
00000000
00000000
03200000
00000000
00000000
00310000
00001000
,
00011000
00000000
00000000
00001000
00000000
01000000
00000000
00100000
10000000
00000000
00000000
00000000
01000000
00000000
00100000
00000000
,
00010000
01000000
10000000
01000000
00010000
00100000
01000000
00000000
,
00101000
00000000
00000000
00010000
00000000
00000100
00000000
00000010
00000001
00000000
00000000
00000000
00001000
00000000
00000010
00000000
,
00000001
00000010
00000100
00001000
00000100
00000001
00000010
00000000
,
00010100
00000000
00000000
00000010
00000000
00000100
00000000
00000001
00001000
00000000
00000000
00000000
00000100
00000000
00010000
00000000
,
00001000
00100000
10000000
00100000
00010000
01000000
00100000
00000000
,
01001000
00000000
00000000
01000000
00000000
00100000
00000000
10000000
00010000
00000000
00000000
10000000
00000000
01000000
00000000
00100000
,
00002000
00000000
00000000
00023000
00000000
00000000
00030010
00000100
,
00000001
00000000
00000010
00000100
00000000
00000010
00000000
00000001
00001000
00000000
00000010
00000100
00000000
00000010
00000000
00001000
,
00000100
00000001
00000100
00000010
00000001
00000100
00000010
00010000
,
00001000
00000000
01000000
00010000
00100000
00000000
01000000
10000000
00010000
00000000
10000000
00100000
01000000
00000000
00010000
10000000
,
00010000
01000000
00100000
00001000
00100000
01000000
00010000
00100000
,
00001000
00000000
00010000
00000010
00000000
00000100
00000000
00000001
00000010
00000000
00000100
00001000
00000000
00000001
00000000
00000100
,
00000010
00000001
00000010
00001000
00000100
00000010
00001000
00000010
,
00000001
00000000
00000100
00000010
00000000
00001000
00000000
00000100
00010000
00000000
01000000
00100000
00000000
00001000
00000000
00010000
,
01000000
00000000
10000000
00100000
00000000
00100000
00000000
00100000
01000000
00000000
00010000
00100000
00000000
00100000
00000000
00200000
,
00020000
00000000
00000000
00000000
,
00000000
00000000
00000000
00000000
,
00330000
00000000
00000000
00000000
;
