#TITLE:I Need to Know;
#ARTIST:Marc Anthony;
#BANNER:I Need to Know-bn.png;
#BACKGROUND:I Need to Know-bg.png;
#JACKET:I Need to Know-jacket.png;
#MUSIC:I Need to Know.ogg;
#SAMPLESTART:49.796;
#SAMPLELENGTH:20;
#DISPLAYBPM:115;
#BPMS:0=115.07;
#BGCHANGES:;

//---------------dance-single - ----------------
#NOTES:
     dance-single:
     :
     Beginner:
     3:
     :
0000
0000
0000
0000
,
0000
0000
0000
0000
,
0000
0000
0000
0000
,
0000
0000
0000
0000
,
1000
0000
1000
0000
,
0001
0000
0001
0000
,
0100
0000
0100
0000
,
0010
0000
0010
0000
,
0020
0000
0030
0000
,
2000
0000
3000
0000
,
0002
0000
0003
0000
,
0200
0000
0300
0000
,
0002
0000
0003
0000
,
2000
0000
3000
0000
,
0020
0000
0030
0000
,
0100
0000
0010
0000
,
0000
1000
1000
0000
,
0000
0001
0001
0000
,
0000
0010
0010
0000
,
0000
0100
0100
0000
,
0000
1000
1000
0000
,
0000
0010
0010
0000
,
0000
0001
0001
0000
,
0100
0100
0000
0000
,
0010
0000
1000
0000
,
0100
0000
1000
0000
,
0001
0000
0100
0000
,
0001
0000
0010
0000
,
0001
0000
1000
0000
,
0010
0000
0100
0000
,
0010
0000
1000
0000
,
0100
0000
0001
0000
,
2000
0000
3000
0000
,
0020
0000
0030
0000
,
0200
0000
0300
0000
,
0001
0001
0001
0000
,
2000
0000
3000
0000
,
0200
0000
0300
0000
,
0002
0000
0003
0000
,
0010
0010
0010
0000
,
0002
0000
0003
0000
,
2000
0000
3000
0000
,
0020
0000
0030
0000
,
0001
0001
0001
0000
,
0010
0000
0001
0000
,
0010
0000
0100
0000
,
1000
0000
0001
0000
,
1000
0000
0100
0000
,
1000
0000
0010
0000
,
0100
0000
0001
0000
,
1000
0000
0100
0000
,
0010
0000
0001
0000
,
0110
0000
0000
0000
,
1001
0000
0000
0000
,
0001
0000
0010
0000
,
0100
0000
1000
0000
,
1001
0000
0000
0000
,
0110
0000
0000
0000
,
0010
0000
1000
0000
,
0001
0000
0100
0000
;

//---------------dance-single - ----------------
#NOTES:
     dance-single:
     :
     Easy:
     6:
     :
0000
0000
0000
0000
,
0000
0000
0000
0000
,
0000
0000
0000
0000
,
0000
0000
0000
0000
,
2000
0000
3020
0000
,
0230
0000
0302
0000
,
0023
0000
0230
0000
,
2300
0000
3002
0000
,
0203
0000
0320
0000
,
2030
0000
3002
0000
,
2003
0000
3200
0000
,
0320
0000
0032
0000
,
2003
0000
3020
0000
,
2030
0000
3002
0000
,
0203
0000
0320
0000
,
0230
0000
0302
0000
,
1003
0010
0001
0100
,
0010
1000
0100
0000
,
0010
0001
0010
0100
,
1000
0010
1000
0000
,
0100
0010
0001
0100
,
0001
0010
1000
0000
,
0010
1000
0010
0100
,
0001
0010
1000
0001
,
1000
1001
0010
0100
,
0001
0001
0001
0000
,
0110
0001
0010
0100
,
1000
1000
1000
0000
,
0010
1001
0100
1001
,
0010
1000
0001
0000
,
0001
0110
1000
0110
,
0001
0010
0001
0100
,
2000
0000
3020
0100
,
0032
0000
0023
0000
,
1030
0100
1000
0001
,
0200
0320
2030
3002
,
0203
0000
0302
1000
,
0023
0000
0230
0000
,
0310
0001
0100
1000
,
0010
0100
0001
1000
,
0002
0100
2003
0010
,
3200
0001
2300
0000
,
3010
0010
1000
1000
,
0001
0100
0001
0000
,
0010
1001
0010
0001
,
0100
1000
1000
0000
,
0110
0001
0010
0001
,
0100
1000
1000
0000
,
1001
0010
0100
0001
,
1000
0100
0001
0000
,
0110
0010
0100
0001
,
1000
1000
0001
0001
,
0020
0000
0031
0100
,
2000
0000
3010
0100
,
0001
0010
0100
1000
,
0010
1000
0100
0001
,
0020
0000
0031
1000
,
0200
0000
0000
0300
,
1000
0010
0001
0100
,
1000
0001
0100
0000
;

//---------------dance-single - ----------------
#NOTES:
     dance-single:
     :
     Medium:
     10:
     :
0000
0000
0000
0000
,
0000
0000
0000
0000
,
0000
0000
0000
0000
,
0000
0000
0000
0000
,
1000
0100
0001
0000
0020
0000
0030
0000
,
0001
0100
0010
1000
0002
0000
0003
0000
,
1000
0001
0010
0000
0200
0000
0300
0000
,
1001
1001
1001
0000
0000
1001
1001
0000
,
1000
0020
0000
0000
0000
0000
0130
0001
,
1000
0002
0000
0000
0000
0000
0103
0010
,
1000
0200
0000
0000
0000
0000
0310
0001
,
0100
0020
0000
0000
2030
0000
3001
0100
,
0010
2000
0000
0000
0000
0000
3001
0100
,
0001
0020
0000
0000
0032
0000
1003
0100
,
0010
0200
0000
0000
0000
0000
1300
0001
,
1001
1001
1001
0000
0000
1001
1001
0000
,
0001
0010
0001
0100
1000
0000
0000
0020
,
0000
0030
0000
0010
1000
0000
0001
0000
0100
0000
0000
0000
0000
0000
0002
0000
,
0000
1003
0001
1000
0100
0000
0000
0010
,
0001
1000
0010
1000
0001
0000
0000
0200
,
0000
0301
1000
0100
0010
0001
0100
0002
,
0000
0013
0001
1000
0100
0000
0000
2000
,
0000
3010
1000
0100
1000
0010
0100
0000
,
0110
0110
0110
0000
0000
0110
0110
0000
,
0001
0100
1000
0000
0010
1000
0100
0000
,
1010
0000
0101
0000
1010
0000
0000
0002
,
0000
1003
0001
0000
0010
0100
1000
0000
,
1100
0000
0011
0000
1100
0000
0000
0002
,
0000
0013
0001
0000
0100
0010
1000
0000
,
0101
0000
1100
0000
0101
0000
0000
0020
,
0000
0130
0001
0000
1000
0100
0001
0000
,
0110
0110
0110
0000
0000
0110
0110
0000
,
0001
2000
0000
0000
3020
0000
1030
0001
,
0100
0020
0000
0000
2030
0000
3001
0100
,
0001
0020
0000
0000
0032
0000
1003
0100
,
1000
0010
0200
0000
0302
0000
2003
0000
,
3010
2000
0100
0000
3002
0000
0013
0001
,
1000
0020
0000
0000
0130
0010
1000
0001
,
0010
0002
0000
0000
0203
0000
0310
1000
,
0002
0000
0203
0000
0320
0000
1030
0100
,
1000
0002
0010
0000
0203
0000
0310
1000
,
0100
0020
0000
0000
0032
0000
1003
0002
,
0000
0013
0001
0100
0001
0000
1000
0000
,
1001
1001
1001
0000
0000
1001
1001
0000
,
0001
0010
1000
0000
0100
1000
0001
0000
,
1100
0000
0110
0000
0011
0000
0000
0200
,
0000
0310
1000
0000
0001
1000
0010
0000
,
0101
1001
1010
0000
,
0001
0010
1000
0100
1000
0010
0001
0000
,
1010
0000
1001
0000
0011
0000
0000
0200
,
0000
0301
0010
0000
0001
0100
1000
0000
,
0110
0110
0110
0000
0000
0110
0110
0000
,
1000
0010
0000
0100
0001
0000
1000
0100
,
0010
0001
0000
0100
0010
0000
1000
0001
,
0000
0010
0001
0100
0001
0000
1000
0010
,
2000
0000
3002
0000
0203
0000
0301
0010
,
0100
1000
0000
0010
0100
0000
0001
1000
,
0100
0010
0000
0000
0000
0000
0000
0001
,
0000
1000
0010
1000
0001
0000
0100
0010
,
2000
3002
0203
0300
;

//---------------dance-single - ----------------
#NOTES:
     dance-single:
     :
     Hard:
     12:
     :
0000
0000
0000
0000
,
0000
0000
0000
0000
,
0000
0000
0000
0000
,
0000
0000
0000
0000
,
1000
0100
0001
0000
0000
0010
0000
0001
,
0100
0010
1000
0010
0001
0000
0000
1000
,
0100
0010
0001
0000
0000
1000
0000
0001
,
1001
1001
1001
0100
0010
1001
1001
0000
,
1000
0020
0100
0000
0001
0000
1030
0010
,
1000
0200
0001
0000
1000
0000
0310
0100
,
0010
0002
0100
0000
0010
0000
1003
0001
,
1000
0100
0001
0100
1000
0010
0100
0001
,
0010
0200
0001
0000
1000
0000
0310
0100
,
1000
0010
0100
0010
1000
0001
0100
0001
,
1000
0002
0010
0000
0100
0000
0013
0001
,
0110
0110
0110
0001
1000
0110
0110
0001
,
1000
0000
0010
0000
0100
0000
0001
1000
0000
0000
0010
0100
0000
0001
2000
0000
,
0000
0000
0000
3100
1000
0000
0001
0000
0001
0000
0100
0000
0010
0000
1000
0000
,
0100
0001
0100
1000
0010
0001
0010
1000
,
0100
0100
0100
0010
0001
0000
1000
0010
,
0000
0100
0010
1000
0001
1000
0100
0010
,
0001
0100
1000
0100
0001
1000
1000
0010
,
0000
0100
0010
0100
0001
0010
0001
1000
,
1001
1001
1001
0010
0100
1001
1001
0010
,
1000
0100
0002
0000
0013
0001
0010
0100
,
1100
0000
0101
0000
1100
0010
0001
2000
,
0000
0100
3100
1000
0010
0100
0001
1000
,
0100
1000
1100
0000
0011
0100
0010
2000
,
0001
0001
3001
0100
0010
1000
0001
1000
,
1010
0000
0101
0000
1010
0001
0010
0200
,
0000
1000
1300
0010
1000
0001
0100
0010
,
0110
0110
0110
1000
0001
0110
0110
0001
,
1000
0200
0001
0000
0010
0000
1300
0001
,
0100
0020
1000
0000
0031
0010
1000
0001
,
1000
0100
0001
0100
1000
0010
0100
0001
,
0011
0000
0110
0000
1100
0000
0010
1000
,
0100
0020
1000
0000
0100
0000
0031
1000
,
0010
2000
0100
0000
3001
1000
0010
0100
,
0001
0010
0001
0100
1000
0010
1000
0100
,
1010
0000
1100
0000
1010
0001
0100
0001
,
0010
0002
1000
0000
0010
0000
1003
0100
,
0001
0200
1000
0000
0310
0100
1000
0001
,
0100
0010
0100
0001
0100
0010
1000
0001
,
0101
0101
0101
0010
1000
0101
0101
0010
,
1000
0100
0002
0000
0013
0001
0100
0010
,
0110
0000
1010
0000
0101
0000
0010
0001
,
0100
0010
0100
0001
0100
1000
0100
0001
,
0011
0000
1001
0000
1010
0000
1000
0200
,
0000
0010
0310
0100
1000
0001
1000
0100
,
1000
0001
0011
0000
1100
0010
0100
0002
,
0000
1003
0010
0100
0010
1000
0001
0100
,
1001
1001
1001
0010
0100
1001
1001
0010
,
1000
0100
0002
0000
0000
0000
0013
0001
,
0100
2000
0000
0000
0000
0000
0000
3020
,
0000
0130
0010
1000
0001
0010
0001
0100
,
0110
0000
1001
0000
0110
0000
1000
0001
,
0010
0200
0000
0000
0000
0000
1300
0010
,
0100
0002
0000
0000
0000
0000
0000
2003
,
0000
3100
1000
0001
0200
0000
0310
1000
,
0101
1100
0101
0000
;

//---------------dance-single - ----------------
#NOTES:
     dance-single:
     :
     Challenge:
     13:
     :
0000
0000
0000
0000
,
0000
0000
0000
0000
,
0000
0000
0000
0000
,
0000
0000
0000
0000
,
1000
0100
0001
0000
0010
0001
0000
0100
,
0001
0010
1000
0100
0002
0000
0003
0010
,
0001
1000
0010
0000
1000
0100
0000
0001
,
1001
1001
1001
0010
0100
1001
1001
0100
,
0001
0020
1000
0000
0100
0000
0031
0100
,
0010
0200
1000
0000
0301
0100
0100
0010
,
1000
0100
0002
0000
0013
0001
0001
0100
,
1000
0010
0100
0001
0110
0001
1000
0100
,
1000
0002
0010
0000
1003
0001
0100
0010
,
1000
0020
0001
0100
0130
0010
1000
0001
,
0010
0200
0001
1000
1300
0100
0010
0001
,
1001
1001
1001
0010
0100
1001
1001
0010
,
0100
0001
0010
0001
0100
0010
1000
0100
,
0010
0000
0000
0001
0100
0000
0010
0000
1000
0000
0100
0000
0100
0000
1000
0000
,
0001
0010
1000
0010
0100
0010
0001
0100
,
1000
1000
1000
0010
0100
0001
0001
0010
,
0100
1000
1000
0001
0001
0100
0010
0100
,
0001
0010
1000
0100
0010
0001
0001
0100
,
0001
0010
1000
0010
0001
0100
1000
0100
,
1001
0110
1001
0010
0100
0110
1001
0010
,
1000
0100
0011
0000
0101
0100
0010
1000
,
0100
1000
0000
0000
0100
0001
0000
0000
0100
1000
0000
0000
0010
0000
0100
0000
,
0001
0010
1000
0010
0100
0010
0001
0100
,
0010
1000
0000
0000
0010
0001
0000
0000
0010
1000
0000
0000
0001
0000
0100
0000
,
0010
1000
1000
0100
1000
0001
0100
0010
,
1000
0001
0000
0000
0100
0010
0000
0000
1000
0001
0000
0000
0100
0000
0010
0000
,
1000
0100
0100
0010
0010
0001
0001
1000
,
1001
0110
1001
0100
0010
1001
0110
0001
,
1010
0001
0100
0010
1000
0100
0001
0100
,
0010
1000
0010
0001
0100
1000
0100
0001
,
0010
0010
0001
0001
0100
0100
1000
1000
,
0001
0100
0101
0000
1100
0000
0101
0000
,
1100
0001
0100
0010
0001
0010
1000
0100
,
0010
1000
0010
0001
0200
0010
0310
1000
,
0001
0010
1000
0010
0001
0100
1000
0100
,
0001
0010
1000
1000
1000
0100
1000
0001
,
0011
0200
1000
0000
0301
0100
1000
0010
,
0101
0020
1000
0000
0031
0010
0100
0001
,
0010
1000
0010
0001
0100
0010
0100
0001
,
0011
0110
1100
0010
1000
1001
0110
0001
,
0010
0100
1100
0000
0101
0010
1000
0001
,
1000
0010
0000
0000
0100
0001
0000
0000
0010
0100
0000
0000
1000
0000
0001
0000
,
0100
0010
0010
0100
0001
0001
1000
1000
,
0010
0100
0000
0000
0100
0001
0000
0000
0001
1000
0000
0000
1100
0000
0010
0000
,
1000
0100
1000
0010
1000
0100
0010
0001
,
0100
0001
0000
0000
1000
0100
0000
0000
1000
0001
0000
0000
0100
0000
0010
0000
,
0001
0010
1000
0010
0001
0010
1000
0100
,
1001
1001
1001
0010
0100
1001
0110
0001
,
1000
0100
0001
0010
0001
0010
0001
0010
,
1000
0000
0100
0000
0001
0000
0010
0000
0001
0000
0010
0000
0001
1000
0002
0000
,
0000
0103
0010
0100
0010
1000
0100
0010
,
0001
0000
0001
0000
0002
0100
0103
0010
,
1000
0000
0100
0000
0001
0000
1000
0000
0010
0000
1000
0000
0010
1000
0010
0000
,
1000
0100
0001
0000
0000
0000
0000
0010
,
1000
0100
0001
0100
1000
0000
0010
0100
,
0101
1100
0101
0000
;
