#TITLE:I Need You;
#SUBTITLE:(True Platinum Mix);
#ARTIST:Sho-T;
#BANNER:I Need You (True Platinum Mix).png;
#BACKGROUND:I Need You (True Platinum Mix)-bg.png;
#JACKET:I Need You (True Platinum Mix)-jacket.png;
#MUSIC:I Need You (True Platinum Mix).ogg;
#SAMPLESTART:60.9;
#SAMPLELENGTH:20;
#DISPLAYBPM:130;
#BPMS:0=130;
#BGCHANGES:;

//---------------dance-single - ----------------
#NOTES:
     dance-single:
     :
     Beginner:
     3:
     :
0000
0000
0000
0000
,
0000
0000
0000
0000
,
0000
0000
0000
0000
,
0000
0000
0000
0000
,
0000
0000
0000
0000
,
0100
0000
0000
0000
,
0001
0000
0000
0000
,
1000
0000
0000
0000
,
0010
0000
0000
0000
,
0001
0000
0000
0000
,
0100
0000
0000
0000
,
0010
0000
0000
0000
,
1000
0000
0000
0000
,
0002
0003
0001
0000
,
2000
3000
1000
0000
,
0020
0030
0010
0000
,
0200
0300
0100
0000
,
0001
0001
0000
0000
,
1000
0000
0001
0000
,
0010
0010
0000
0000
,
0100
0000
0010
0000
,
1000
1000
0000
0000
,
0001
0000
1000
0000
,
0100
0100
0000
0000
,
0010
0000
0100
0000
,
0001
0001
0001
0000
,
1000
0000
1000
0000
,
0010
0000
0010
0000
,
0100
0000
0100
0000
,
0001
0000
0010
0000
,
0100
0000
1000
0000
,
0100
0000
0001
0000
,
0010
0000
1000
0000
,
0010
0010
0010
0000
,
0100
0000
0100
0000
,
1000
0000
1000
0000
,
0001
0000
0001
0000
,
0100
0000
0001
0000
,
1000
0000
0010
0000
,
0001
0000
0010
0000
,
1000
0000
0100
0000
,
0010
0010
0010
0010
,
0010
0010
0000
0000
,
1000
1000
1000
1000
,
1000
1000
0000
0000
,
0001
0001
0001
0001
,
0001
0001
0000
0000
,
0100
0100
0100
0100
,
0100
0100
0000
0000
;

//---------------dance-single - ----------------
#NOTES:
     dance-single:
     :
     Easy:
     6:
     :
0000
0000
0000
0000
,
0000
0000
0000
0000
,
0000
0000
0000
0000
,
0001
0000
0100
0000
,
0100
0000
1000
0001
,
1000
0000
0010
0000
,
0010
0000
0001
0000
,
1000
0000
0100
0000
,
0100
0100
0100
0100
,
1000
0002
0000
0103
,
1000
0100
0001
0000
,
1000
0100
0100
0001
,
0001
0100
0100
1000
,
0001
2000
0000
3100
,
0001
0100
1000
0000
,
0001
0100
0100
1000
,
0010
0010
0010
0010
,
1001
0000
0001
0100
,
1000
1000
0001
0010
,
0100
0000
0100
0000
,
0010
0010
1000
0001
,
1000
0000
1000
0100
,
0001
0001
1000
0010
,
0010
0000
0010
0000
,
1000
0001
0100
0000
,
0200
0000
0300
0100
,
0001
0100
1000
0010
,
0002
0003
0200
0300
,
1000
0010
0001
0100
,
1000
0001
0100
0000
,
0001
0100
0100
1000
,
0001
1000
0001
1000
,
0020
0000
0130
0110
,
0200
0000
0300
0100
,
1000
0100
0001
0010
,
2000
3000
0200
0300
,
0001
0010
1000
0100
,
0001
1000
0100
0000
,
1000
0100
0100
0001
,
1000
0001
1000
0001
,
0200
0000
0310
0110
,
0020
0000
0000
0000
,
0200
0000
0330
0110
,
1000
0100
0001
0000
,
1000
0010
0100
0000
,
0200
0000
0000
0000
,
0020
0000
0330
0110
,
0001
0100
1000
0000
,
0001
0010
0100
0000
;

//---------------dance-single - ----------------
#NOTES:
     dance-single:
     :
     Medium:
     8:
     :
0000
0000
0000
0000
,
0000
0000
0000
0000
,
0000
0000
0000
0000
,
0001
0100
1000
0100
,
0001
1000
0001
0000
0010
1000
0200
0000
,
1300
0100
0001
0010
,
1000
0001
1000
0000
0001
1000
0001
0100
,
0010
1000
0100
0001
,
1000
0001
0010
1001
,
1000
0100
0000
0110
,
0001
0100
0000
1001
,
1000
0100
0001
0100
,
1000
0001
1000
0000
0010
0001
0100
0000
,
0001
0100
1000
0010
,
0001
1000
0001
0000
1000
0001
1000
0100
,
0010
1001
0100
1001
,
0001
0000
1000
0000
0010
0001
1001
0000
,
1001
0000
0000
0000
0010
0100
0010
0000
,
0001
0000
0100
0000
1000
0010
0100
0000
,
0010
0000
0011
0000
0100
0010
1000
0000
,
0100
0000
0010
0000
0011
0000
0001
0100
,
1000
0000
0000
0000
0010
0100
0010
0000
,
1000
0000
0100
0000
0001
0010
0100
0000
,
1000
0100
0001
0110
,
0001
0100
1001
0000
,
0020
0000
0030
0110
,
1000
0000
0100
0010
0001
0000
0100
0000
,
1000
1100
0001
0101
,
1000
0000
0100
0000
0010
0000
0001
1000
,
0200
0300
0100
0110
,
0001
0100
0010
0000
1000
0000
1100
0000
,
0001
0010
0100
0000
1000
0100
0010
0000
,
1001
0010
1001
0100
,
0020
0000
0030
0110
,
0001
0000
0100
0010
1000
0000
0100
0000
,
0001
0101
1000
1100
,
0001
0000
0100
0000
0010
0000
1000
0001
,
0200
0300
0100
0110
,
1000
0100
0010
0000
0001
0000
0101
0000
,
1000
0010
0100
0000
0001
0100
0010
0000
,
1001
0010
1001
0100
,
2000
3000
0002
0003
,
0010
0001
0100
1000
,
0001
0001
1000
0100
,
0010
0001
1000
0100
,
0002
0003
2000
3000
,
0010
1000
0100
0001
,
1000
1000
0001
0100
,
0010
1000
0001
0100
;

//---------------dance-single - ----------------
#NOTES:
     dance-single:
     :
     Hard:
     9:
     :
0000
0000
0000
0000
,
0000
0000
0000
0000
,
0000
0000
0000
0000
,
0010
0001
0000
1001
0000
0001
0100
0001
,
1000
0010
0100
0010
0000
0010
1000
0001
,
0100
0001
0000
1010
0000
1000
0010
1000
,
0001
0100
0010
0100
0000
0100
0001
1000
,
0010
1000
0000
0101
0000
1000
0100
1000
,
0001
0110
0110
1001
,
0101
0000
0100
0001
0000
0001
0100
0000
,
1010
0000
0010
0100
0000
0100
0010
1000
,
0001
0100
0001
0020
0000
0030
0100
0000
,
1000
0000
0001
0000
0001
0010
0100
0000
,
1100
0000
0100
1000
0000
1000
0100
0000
,
0011
0000
0010
0100
0000
0100
0010
0001
,
1000
0100
1000
0000
0010
0000
1010
0000
,
0100
0101
0010
1001
,
0100
0000
1001
0000
0001
0010
0100
0000
,
0001
0010
0001
2000
0000
3001
0010
0100
,
1000
0000
0010
0000
0010
0100
1000
0000
,
0100
0010
0100
2000
0000
3000
0001
0100
,
0010
0000
1001
0000
1000
0010
0100
0000
,
1000
0010
1000
0002
0000
1003
0010
0100
,
0001
1000
0001
0000
0010
0000
1001
0000
,
1000
0100
0002
0103
,
0200
0000
0301
0110
,
0001
0000
0010
0100
0010
0000
1000
0001
,
1000
0100
1000
0000
0010
0001
0010
0000
,
2000
0000
3100
0000
0010
0001
0001
0010
,
0100
0000
1000
0000
0001
0010
0100
0000
,
0010
0100
0010
0000
1000
0000
0100
0000
,
0001
0010
0100
0000
1001
0000
0010
0000
,
1001
0000
0100
0000
0010
0100
0010
1000
,
0200
0000
1300
0110
,
1000
0000
0010
0100
0010
0000
0001
1000
,
0001
0100
0001
0000
0010
1000
0010
0000
,
0002
0000
0103
0000
0010
1000
1000
0010
,
0100
0000
0001
0000
1000
0010
0100
0000
,
0010
0100
0010
0000
0001
0000
0100
0000
,
1000
0010
0100
0000
1001
0000
0010
0000
,
1001
0000
0100
0000
0010
0100
0020
0000
,
2030
0001
0000
0010
,
0000
0100
3000
1000
,
0001
0110
1000
0110
,
0001
0010
1000
0100
,
0010
1002
0000
0010
,
0000
0100
0003
0001
,
1000
0110
0001
0110
,
1000
0010
0001
0100
;

//---------------dance-single - ----------------
#NOTES:
     dance-single:
     :
     Challenge:
     12:
     :
0000
0000
0000
0000
,
0000
0000
0000
0000
,
0000
0000
0000
0000
,
0010
0001
0010
0001
0010
0000
2200
0000
0000
0000
0000
0000
3000
0000
0000
0000
,
0310
0000
0100
0000
1000
0000
0202
0000
0000
0003
0000
0301
0100
0001
0000
0100
,
0001
1000
0010
2020
0000
0000
0030
0000
,
3100
0000
0010
0000
0001
0000
0022
0000
0000
0000
0030
0000
1003
0001
1000
0001
,
1000
0100
0001
0220
0000
0000
0030
0000
,
1300
0000
0010
0000
0100
0000
0001
0000
1001
0000
0000
1000
0001
0000
0010
0100
,
0010
0000
0000
0000
0001
0000
0100
0000
1000
0000
0100
0000
0001
0000
1000
0010
,
1000
0100
0010
0001
0000
0100
0010
1000
,
0100
0000
1000
0000
0001
0000
2020
0000
0030
0000
3001
0000
0100
0000
0000
0010
,
1000
0000
0100
0000
0001
0000
0100
0000
1000
0010
0000
1000
0010
0000
0100
0000
,
0001
0010
1000
0202
0000
0003
0310
0200
,
0001
0000
1300
0200
0010
0000
0301
1000
,
0100
0000
0010
0000
0001
0000
2200
0000
0000
0000
0300
0000
3001
0100
0001
0100
,
0001
0010
0001
0100
0000
1000
0010
1000
,
1001
0000
0010
0100
1000
0100
0001
0011
,
0000
0110
0000
1000
0001
0100
0100
0010
,
0100
0000
0001
0010
1000
0010
0001
0100
,
0010
0000
1000
0000
0001
0000
0100
0000
0010
0000
0000
0000
1000
0001
1000
0000
,
0100
0000
0010
1000
0010
0001
0100
0020
,
0000
0000
1000
0000
1030
0000
0002
0000
0000
0000
0013
0100
0010
0000
0001
0000
,
0100
0000
0010
0100
1000
0100
0001
1000
,
0010
0000
0100
0000
0001
0000
1000
0000
0100
0010
0100
0010
0100
0000
1000
0000
,
0001
0000
0100
0000
0010
0000
0100
0000
0010
0000
0100
0000
0001
1000
0001
0000
,
0010
0000
0100
0000
1000
0010
1000
0000
0000
0000
0001
0000
0001
0000
0100
0010
,
0100
1000
0100
0001
0100
1000
0100
0001
,
0010
0000
0001
0000
1000
0000
1000
0000
0001
0100
0000
0001
0100
0000
0010
0000
,
1000
0000
0100
0010
0100
0000
1000
0000
0001
0000
0000
0000
0101
0000
0010
0000
,
1000
0100
0001
0100
0010
0001
0000
1001
,
0100
0000
0010
0000
0100
0000
1000
0000
0100
0000
0001
0000
0100
0000
0010
1000
,
0010
0100
0001
1010
0000
1100
0001
1000
,
0010
0000
0100
0000
1000
0000
0100
0000
0001
0000
0010
0000
0001
1000
0001
0000
,
0100
0000
0010
0000
1000
0100
1000
0000
0001
0000
0010
0000
0100
0000
1000
0001
,
1000
0010
0001
0010
1000
0010
0001
0010
,
1000
0000
0100
0000
0001
0000
0001
0000
0010
0100
0000
0010
0100
0000
1000
0000
,
0001
0010
0001
0010
0001
0000
1000
0000
0010
0000
0100
0000
0001
1000
0001
0000
,
0010
0000
0100
0000
1000
0001
1000
0000
0010
0000
0100
0000
0000
0000
0110
0000
,
0001
0000
0010
0000
1000
0000
0010
0000
0001
0000
1000
0000
0100
0000
0010
0100
,
0010
0000
0001
0000
0100
0000
0010
0000
1000
0000
0100
0000
1000
0000
0001
0010
,
0001
0000
0010
0000
0001
0000
0100
0000
0001
0000
0010
0000
0001
1000
0001
0000
,
0010
0000
0100
0000
1000
0100
1000
0000
0010
0000
0100
0000
0001
0010
0001
0000
,
1000
0010
0100
0022
0030
1000
1003
0001
,
0010
0000
0001
0100
0002
0000
2000
0000
0000
0000
0000
0000
0003
0000
3010
0100
,
0020
0000
0000
0000
1030
0000
0220
0000
0000
0030
0000
0000
0301
0000
0100
0000
,
0010
0000
1000
0000
0001
0000
0200
0000
0010
0000
0000
0000
0301
1000
0001
0000
,
0010
0000
0100
0000
1000
0000
2002
0000
0000
0000
0000
0000
0000
0000
0000
0003
,
0000
0000
3001
0100
0002
0000
0020
0000
0000
0000
0000
0000
0003
0000
0031
1000
,
0001
0000
0000
0000
;

//---------------dance-double - ----------------
#NOTES:
     dance-double:
     :
     Easy:
     5:
     :
00000000
00000000
00000000
00000000
,
00000000
00000000
00000000
00000000
,
00000000
00000000
00000000
00000000
,
00000000
00000000
00000000
00000000
,
00000000
00000000
00000000
00000000
,
00000001
00000000
00000001
00000000
,
00001000
00000000
00001000
00000000
,
00010000
00000000
00010000
00000000
,
00100000
00000000
01100000
10010000
,
10000000
10000000
10000000
00000000
,
01000000
01000000
01000000
00000000
,
00010000
00010000
00010000
00000000
,
00001000
00001000
00000010
00000001
,
00000001
00000001
00000001
00000000
,
00000100
00000100
00000100
00000000
,
00001000
00001000
00001000
00000000
,
00010000
00100000
10000000
10000000
,
10010000
00000000
00010000
00000000
,
10000000
10000000
00010000
10000000
,
10000000
00000000
01000000
00000000
,
00010000
00001000
00001000
00011000
,
00000000
00001000
00000010
00000001
,
00000001
00000001
00000001
00000001
,
00000000
00001000
00000000
00001000
,
00000001
00000100
00001000
00010000
,
00022000
00000000
00000000
00033000
,
00001000
00000000
00010000
00000000
,
00010000
00010000
00100000
00100000
,
10000000
00010000
00100000
01000000
,
02200000
00000000
00000000
03300000
,
00100000
00000000
01000000
00000000
,
10000000
10000000
01000000
00010000
,
00001000
00001000
00001000
00010000
,
00022000
00000000
00000000
00033000
,
00010000
00000000
00001000
00000000
,
00001000
00001000
00000010
00000010
,
00000001
00001000
00000010
00000100
,
00000220
00000000
00000000
00000330
,
00000010
00000000
00000100
00000000
,
00000001
00000001
00000100
00001000
,
00010000
00010000
00010000
00100000
,
00200000
00000000
00000000
00300000
,
20000000
00000000
00000000
30000000
,
02000000
00000000
00000000
03000000
,
00020000
00000000
00000000
00030000
,
00000020
00000000
00000000
00000030
,
00000200
00000000
00000000
00000300
,
00000002
00000000
00000000
00000003
,
00002000
00000000
00000000
00003000
,
00001001
00000000
00000000
00000000
;

//---------------dance-double - ----------------
#NOTES:
     dance-double:
     :
     Medium:
     7:
     :
00000000
00000000
00000000
00000000
,
00000000
00000000
00000000
00000000
,
00000000
00000000
00000000
00000000
,
00000000
00000000
00000000
00000000
,
00000000
00000000
00000000
00000000
,
10000000
10000000
00010000
00010000
,
00100000
01000000
10000000
00100000
,
00010000
00010000
00001000
00001000
,
00000110
00000001
00000110
00001000
,
00001002
00000103
00002000
00003100
,
00000001
00000100
00001000
00010000
,
00020000
01030000
02000000
13000000
,
10000000
00100000
01000000
00010000
,
10000000
10000000
00010000
00010000
,
00100000
00000000
01000000
00000000
10000000
00100000
00010000
00000000
,
00010000
00010000
00001000
00001000
,
00000010
00000000
00000100
00000000
00001000
00000001
00001000
00000000
,
00000110
00000000
00001000
00000000
00001000
00000001
00001000
00000000
,
00000001
00000001
00001000
00010000
,
00010000
00100000
01000000
01000000
,
10000000
00010000
10000000
00000000
00100000
00000000
10000000
00010000
,
00000000
01000000
00001000
00001000
,
00010000
00001000
00010000
00000000
00000100
00000000
00000010
00000000
,
00000001
00000000
00001000
00000000
00000100
00000010
00000100
00000000
,
00001000
00011000
01000000
01100000
,
20010000
01000000
31000000
02000000
,
03010000
00020000
00031000
00001000
,
00000100
00000000
00000001
00000000
00001000
00000010
00001000
00000000
,
00000001
00000010
00000001
00000000
00000100
00000000
00001100
00000000
,
00012000
01000000
01003000
02000000
,
03100000
00200000
10000000
10300000
,
10000000
00000000
00010000
00000000
00100000
01000000
10000000
00000000
,
00100000
00010000
00001000
00000010
,
00001002
00000100
00000103
00000200
,
00001300
00002000
00013000
00010000
,
01000000
00000000
10000000
00000000
00010000
00100000
00010000
00000000
,
10000000
00100000
10000000
00000000
01000000
00000000
10010000
00000000
,
02100000
10000000
13000000
20000000
,
30100000
00200000
00310000
00010000
,
00001000
00000000
00000010
00000000
00000100
00001000
00000100
00000000
,
00000100
00000000
00000100
00000000
00000100
00000000
00000100
00000020
,
00000001
00000001
00000001
00000032
,
00000100
00000100
00000100
00000203
,
00001000
00001000
00001000
00002300
,
00010000
00010000
00010000
00013000
,
02100000
00100000
00100000
03200000
,
10000000
10000000
10000000
20300000
,
01000000
01000000
01000000
32000000
,
00010000
00010000
00010000
03010000
,
00011000
00000000
00000000
00000000
;

//---------------dance-double - ----------------
#NOTES:
     dance-double:
     :
     Hard:
     9:
     :
00000000
00000000
00000000
00000000
,
00000000
00000000
00000000
00000000
,
00000000
00000000
00000000
00000000
,
00000000
00000000
00000000
00000000
,
00000000
00000000
00000000
00000000
,
00001001
00001000
00000200
00000000
00000320
00000000
00000031
00000000
,
00001001
00000001
00000200
00000000
00000320
00000000
00001030
00000000
,
00000011
00000010
00000200
00000000
00020300
00000000
00031000
00000000
,
01001000
00100000
10010000
01100000
,
10010000
00010000
02000000
00000000
03200000
00000000
10300000
00000000
,
10010000
10000000
02000000
00000000
03200000
00000000
00310000
00000000
,
10100000
00100000
02000000
00000000
03002000
00000000
00013000
00000000
,
00001100
00000100
00000020
00000000
00000130
00001000
00000001
00000000
,
00000110
00000100
00001000
00000000
00000002
00000000
00000103
00000000
,
00000110
00000100
00000001
00000000
00002000
00000000
00003100
00000000
,
00011000
00001000
00010000
00000000
02000000
00000000
13000000
00000000
,
00010000
10000000
01000000
00100000
00010000
10000000
00010000
00000000
,
01100000
01000000
01000000
00000000
10000000
00000000
00010000
00000000
,
00100000
01000000
10000000
00000000
10000000
00100000
00010000
00000000
,
00001000
00000000
00000010
00000000
00000010
00000100
00001000
00000000
,
00001000
00000001
00000010
00000100
00000010
00000000
00000001
00001000
,
00000000
00000000
00001001
00000000
00000010
00000100
00001000
00000000
,
00000001
00000000
00000100
00000000
00001000
00010000
00000010
00000100
,
00000000
00000000
00000001
00000010
00001000
00000000
00010000
00000000
,
00100000
00000000
10000000
00010000
10000000
00100000
01000000
00000000
,
10020000
00000000
00100000
00000000
00130000
00000000
01000000
10000000
,
00100000
00000000
00100000
00010000
00001000
00000000
00001000
00000000
,
00000010
00000001
00000100
00000000
00000010
00001000
00000100
00000000
,
00000010
00000001
00001000
00000100
00010000
00001000
00010000
00000000
,
02001000
00000000
00100000
00000000
03100000
00000000
10000000
00010000
,
10000000
00000000
10000000
00100000
01000000
01000000
01000000
00000000
,
10010000
00000000
00100000
00000000
00010000
00001000
00000010
00000000
,
00000010
00000000
00000010
00000000
00000010
00000000
00000010
00000100
,
00002001
00000000
00000010
00000000
00003010
00000000
00000100
00000001
,
00000010
00000000
00000010
00001000
00010000
00000000
00010000
00000000
,
00100000
10000000
01000000
00000000
00100000
00010000
01000000
00000000
,
00100000
10000000
00010000
01000000
00001000
00010000
00001000
00000000
,
00010200
00000000
00000010
00000000
00000310
00000000
00000001
00001000
,
00000001
00000000
00000001
00000010
00000100
00000100
00000100
00000000
,
00001001
00000000
00000010
00000000
00001000
00010000
00100000
00000000
,
20000000
00000000
00010000
00000000
00010000
00000000
30010000
00200000
,
01000000
00000000
01000000
00000000
01000000
00000000
01300000
10000000
,
00020000
01000000
01000000
01030000
,
00100000
10000000
00100000
00000000
00010000
00001000
00010000
00000000
,
00000010
00000100
00000010
00001000
00000001
00000010
00000100
00000100
,
00000200
00000000
00001000
00000000
00001000
00000000
00001300
00000010
,
00000200
00000000
00000001
00000000
00000001
00000000
00000301
00000010
,
00000200
00000000
00001000
00000000
00001000
00000000
00001300
00001000
,
00002000
00000001
00000001
00003001
,
00000110
00000000
00000000
00000000
;
