#TITLE:I Know What You Did Last Summer;
#ARTIST:Shawn Mendes and Camila Cabello;
#BANNER:I Know What You Did Last Summer-bn.png;
#BACKGROUND:I Know What You Did Last Summer-bg.png;
#JACKET:I Know What You Did Last Summer-jacket.png;
#MUSIC:I Know What You Did Last Summer.ogg;
#OFFSET:2.1;
#SAMPLESTART:42.127;
#SAMPLELENGTH:20;
#LASTBEATHINT:2.075;
#DISPLAYBPM:114;
#BPMS:0=114,11.75=104,12=114,55.75=111.5,56=114,59.75=104,60=114,83=116.5,84=114,87.75=111.5,88=114,99.75=124,100=114,103.75=109,104=114,107=116.5,108=114;
#BGCHANGES:;

//---------------dance-single - ----------------
#NOTES:
     dance-single:
     :
     Beginner:
     4:
     :
0000
0000
0000
0000
,
0001
0000
0000
0000
,
1000
0000
0000
0010
,
0010
0000
0000
0000
,
1000
0000
0001
0000
,
1001
0000
0000
0010
,
0010
0000
1000
0000
,
0100
0000
0010
0000
,
0001
0000
1000
0000
,
1001
0000
0000
0100
,
0100
0000
0010
0000
,
1000
0000
0010
0000
,
0100
0000
0001
0000
,
0010
0000
0001
0001
,
0000
0000
1000
1000
,
0000
0000
0010
0000
,
1000
0000
0001
0000
,
0100
0000
0010
0010
,
0000
0000
1000
1000
,
0000
0001
0000
1000
,
0000
0010
0010
0000
,
1001
0000
0010
0010
,
0000
0000
0100
0100
,
0000
0000
0001
0001
,
0001
0000
1000
0000
,
1001
0000
1000
1000
,
0000
0000
0100
0100
,
0000
0000
0010
0010
,
0010
0000
0100
0000
,
0110
0000
0000
0000
,
0001
0000
0000
0000
,
1000
0000
0000
0000
,
0010
0000
0000
0000
,
0100
0000
0000
0000
,
0010
0000
1000
0000
,
0001
0000
0000
0000
,
0010
0000
0100
0000
,
0110
0000
0001
0000
,
1000
1000
1000
0000
,
0010
0000
0100
0000
,
0001
0001
0001
0000
,
0010
0000
0001
0000
,
0100
0100
0100
0000
,
0110
0000
1000
0000
,
0001
0000
0100
0000
,
0001
0000
1000
0000
,
0010
0010
0010
0000
,
0100
0000
0001
0000
,
0100
0100
0100
0000
,
0010
0010
0010
0000
,
1000
1000
1000
0000
,
0001
0001
0001
0000
,
0100
0100
0100
0000
,
1001
0000
0001
0100
,
0000
0000
0010
1000
,
0000
0000
0100
0010
,
0001
0000
1000
0000
,
1001
0000
1000
0100
,
0000
0000
0010
0001
,
0000
0000
1000
0001
,
0100
0000
0010
0000
,
0110
0000
0001
0000
,
1000
1000
1000
0000
,
1001
0000
0010
0000
,
0100
0100
0100
0000
,
1001
0000
0000
0000
;

//---------------dance-single - ----------------
#NOTES:
     dance-single:
     :
     Easy:
     8:
     :
0000
0000
0000
0000
,
0001
0000
1000
0000
0000
0000
0000
0100
,
0010
0000
0000
0002
,
1003
0000
0000
0000
0000
0000
0000
0010
,
0100
0000
0000
0001
1000
0000
0100
0000
,
1001
0000
0000
0110
,
1000
0010
1000
0100
,
0010
0001
0100
0010
,
1010
0100
0101
0010
,
1001
0000
0000
0110
,
1000
0010
0100
0001
,
0010
0001
0010
0100
,
1100
0001
0011
0100
,
0020
0000
1000
0130
,
2000
0000
0001
3010
,
0002
0000
0100
0013
,
0100
0010
1000
0001
,
0200
0000
1000
0301
,
2000
0000
0001
3100
,
0010
0010
0100
0100
,
0001
0000
1000
0000
0010
0100
0010
0000
,
1001
0000
1000
0000
0001
0100
0001
0000
,
0010
0000
0100
0000
1000
0010
1000
0000
,
0001
0000
0010
0000
0001
1000
0001
0000
,
2000
3001
0200
0310
,
0110
0000
0001
0000
1000
0100
1000
0000
,
0010
0000
1000
0000
0001
1000
0001
0000
,
0010
0000
0100
0000
0010
0001
0010
0000
,
0002
0103
0020
1030
,
1001
0010
1000
0100
,
1000
0010
0100
0000
,
0000
0001
0010
0001
,
0010
0100
1000
0000
,
0000
0001
1000
0100
,
1000
0010
0100
0001
,
0001
0010
0001
0100
,
0010
1000
0100
0010
,
0011
0000
0100
0000
1000
0001
1000
0000
,
0010
0000
1000
0001
0100
0000
1010
0000
,
0101
0000
0010
0000
0001
0100
0001
0000
,
1000
0000
0010
0100
0001
0000
0010
0100
,
1000
0000
0010
0000
1000
0001
0100
0000
,
0001
0000
0010
0100
0010
0000
1001
0000
,
0110
0000
1000
0010
1000
0000
1100
0000
,
0010
0001
0100
0000
0010
1000
0100
0000
,
1010
0000
0001
0000
0100
0010
1000
0000
,
0100
1000
0001
1000
0100
0000
1100
0000
,
0101
0000
0010
0100
0001
0100
0010
0000
,
1000
0000
0001
1000
0010
0200
0000
0000
,
0301
0000
0010
0000
0001
0100
1000
0000
,
0010
1000
0100
1000
0010
0000
1001
0000
,
0011
0000
1000
0000
0010
0100
0001
0000
,
1000
0001
1000
0001
0200
0000
0300
0000
,
1001
0000
0010
0000
1000
0100
0001
0000
,
0101
0000
0010
0000
0100
0001
1000
0000
,
1100
0000
0001
0000
1000
0010
0100
0000
,
0002
0013
0200
1300
,
0110
0000
0100
0000
1000
0010
0001
0000
,
0011
0000
1000
0000
0001
0100
0010
0000
,
1010
0000
0100
0000
0010
1000
0001
0000
,
2000
3100
0020
0031
,
1001
0000
0010
0000
1000
0000
0100
0010
,
0001
0100
0010
2000
,
3001
0000
0010
0000
0001
0000
1000
0100
,
0010
0000
0001
1000
0001
0000
0110
0000
,
1001
0000
0000
0000
;

//---------------dance-single - ----------------
#NOTES:
     dance-single:
     :
     Medium:
     11:
     :
0000
0000
0000
0000
,
0001
0000
0000
1000
0000
0010
0000
0100
,
0010
0000
0000
1000
0000
0001
0020
0000
,
0130
0000
0000
0010
0000
0001
0000
1000
,
0100
0000
0000
1000
0001
0000
0100
0000
,
1001
0000
1000
1000
0000
0000
0110
0000
,
0001
0000
0100
0010
1000
0000
0001
0010
,
0001
0000
0100
0010
1000
0000
0002
0000
,
0103
0000
0020
0000
1030
0100
0010
0000
,
1001
0000
0001
0001
0000
0000
0100
0010
,
0100
0000
0001
0010
0001
0000
1000
0100
,
1000
0000
0001
1000
0001
0000
0200
0000
,
0310
0000
2000
0000
3001
0000
1000
0010
,
0100
0000
0001
0000
2000
0000
0000
0000
3010
0000
0000
0010
0000
0000
0010
0000
,
0000
0000
0000
0000
0000
0000
0000
0000
0100
0000
0000
0100
0000
0000
0100
0000
,
0000
0000
0000
0000
0010
1000
0100
0010
,
0001
0000
0100
0001
0010
0000
0001
0100
,
0010
0000
0000
0000
0000
0000
0000
0000
1000
0000
0000
1000
0000
0000
1000
0000
,
0000
0000
0000
0000
0000
0000
0000
0000
0001
0000
0000
0001
0000
0000
0001
0000
,
0000
0000
0010
0001
0100
0000
0010
1000
,
0100
1000
1000
0001
0001
1000
0100
0000
,
1001
0000
1000
0000
0010
0000
1000
0000
0100
0000
0010
0000
0001
1000
0000
0000
,
0010
0000
1000
0000
0100
0000
1000
0000
0001
0000
0010
0000
0001
0100
0000
0000
,
0001
0000
0010
0000
0100
0000
0010
0000
0100
0000
1000
0000
0001
1000
0000
0000
,
1010
0000
0000
0000
0101
0000
0000
0000
1010
0000
0000
0000
0101
0000
0000
1100
,
0000
0000
0001
0000
0010
0000
0100
0000
1000
0000
0010
0000
1000
0001
0000
0000
,
0100
0000
0010
0000
0100
0000
0001
0000
1000
0000
0010
0000
1000
0001
0000
0000
,
1000
0000
0010
0000
0100
0000
0001
0000
1000
0000
0001
0000
0100
0010
0000
0000
,
0101
0000
0000
0000
1010
0000
0000
0000
0101
0000
0000
0000
1010
0000
0000
0011
,
0000
0000
0001
0100
0010
0100
0010
0100
,
0001
0100
0010
0100
0020
0000
0000
0000
,
0030
0000
1000
0010
0100
0010
0100
0010
,
1000
0010
0100
0010
0200
0000
0000
0000
,
0300
0000
0001
1000
0010
1000
0001
0000
,
0010
0001
0010
0100
1000
0000
0002
0000
,
0203
0000
0310
1000
0001
1000
0100
0000
,
1000
0000
0000
0010
0000
0000
0100
0000
0001
0000
1000
0000
0001
0000
0100
0000
,
0010
1000
0100
1000
0001
0100
0200
0000
,
0301
0010
0001
0100
0020
0000
1030
0100
,
1000
0000
0001
1000
0100
0010
0002
0000
,
1003
0001
1000
0100
0020
0000
0031
0100
,
0001
0010
1000
0000
1000
0100
0001
0000
,
0010
0001
0010
0100
1000
0000
0110
0000
,
1001
0000
1000
0001
0010
0001
0100
0000
,
0010
1000
0010
1000
0001
0100
0001
0100
,
0010
1000
0100
0010
0001
0100
0002
0000
,
1003
0001
1000
0010
0100
0001
0100
0010
,
0200
0000
0301
0010
1000
0010
0001
0000
,
1000
0000
0010
0000
0100
0000
0010
0000
1000
0000
0002
0000
0000
0203
0000
0000
,
0310
0000
0100
0001
0100
0001
1000
0000
,
0010
1000
0001
1000
0200
0000
0310
0001
,
2000
0000
3010
1000
0100
0010
0001
0000
,
0100
0010
1000
2000
0002
0000
3003
0000
,
1001
0000
0100
0000
0010
0000
0100
0000
0001
0000
1000
0000
0010
1000
0000
0000
,
0100
0000
0010
0000
0001
0000
0100
0000
0010
0000
1000
0000
0001
1000
0000
0000
,
0001
0000
1000
0000
0100
0000
1000
0000
0001
0000
0010
0000
0100
0010
0000
0000
,
0011
0000
0000
0000
1100
0000
0000
0000
0011
0000
0000
0000
1100
0000
0000
0101
,
0000
0000
1000
0000
0001
0000
0010
0000
0001
0000
0100
0000
0010
1000
0000
0000
,
0100
0000
0010
0000
0001
0000
0100
0000
1000
0000
0010
0000
1000
0001
0000
0000
,
0010
0000
0001
0000
1000
0000
0001
0000
0100
0000
0010
0000
1000
0100
0000
0000
,
1100
0000
0000
0000
0011
0000
0000
0000
1100
0000
0000
0000
0011
0000
0000
1010
,
0000
0000
0000
0000
0001
0000
0100
0000
0010
0000
0000
1000
0000
0000
0100
0000
,
1000
0010
1000
0001
0100
0000
0020
0000
,
1030
0000
0000
0000
0100
0000
0010
0000
0001
0000
0000
1000
0000
0000
0001
0000
,
0100
0000
0010
0000
1000
0000
0001
0000
0100
0000
0000
0000
0110
0000
0000
1001
;

//---------------dance-single - ----------------
#NOTES:
     dance-single:
     :
     Hard:
     14:
     :
0000
0000
0000
0000
,
0001
0000
1000
0001
0000
1000
0010
0100
,
0010
0000
1000
0100
0000
1000
0002
0000
,
0103
0000
0000
0000
0010
0000
1000
0000
0000
0001
0000
0000
0010
0000
0100
0000
,
1000
0000
0010
0100
0001
0000
0100
0000
,
1001
0000
1010
1000
0000
0000
0001
0100
,
0010
0100
1000
0100
0001
0000
0010
0100
,
0010
0000
0001
0000
0100
0000
0010
0000
1000
0000
0000
0000
2000
0000
0000
3001
,
0000
0000
0100
0000
0020
0000
0000
1030
0000
0001
0100
0001
0100
0000
0000
0000
,
1001
0000
0101
0001
0000
0010
0001
0100
,
1000
0100
0010
1000
0001
0000
0100
0001
,
0100
0000
1000
0000
0100
0000
0001
0000
0010
0000
0000
0000
0002
0000
0000
0013
,
0000
0000
0100
0000
2000
0000
0000
3010
0000
0000
0100
0000
0001
1000
0001
1000
,
0001
0000
0010
0000
0200
0000
0000
0000
1300
0000
0010
0100
0000
0010
0100
0000
,
0010
0000
0000
1000
0001
0000
0100
0000
0001
0000
1000
0010
0000
1000
0010
0000
,
0100
0000
0000
0010
1000
0000
0001
0000
0010
0000
0100
0000
1000
0000
0001
0000
,
0100
1000
0100
0010
1000
0100
0001
0100
,
1000
0010
1000
0000
0000
0000
0000
0100
0001
0000
0100
0010
0000
0100
0001
0000
,
0010
0000
0000
0001
1000
0000
0000
0000
0100
0000
1000
0000
0010
0000
0100
0000
,
0001
0000
0010
0001
0100
0000
0010
1000
,
0100
0000
1000
0010
1000
0000
0001
0010
0001
0000
0100
0010
0100
0000
0000
0000
,
1001
0000
0010
0000
0100
0000
0001
1000
0001
0000
0100
0000
0010
1000
0001
0000
,
0100
0000
0001
0000
0010
0000
0100
1000
0100
0000
0010
0000
0001
1000
0001
0000
,
0100
0000
0010
0000
1000
0000
0100
0010
0001
0000
1000
0000
0001
0010
0001
0000
,
0011
0000
0000
0000
0110
0000
0000
0000
1100
0000
0000
0000
1010
0000
0000
0101
,
0000
0000
0010
0000
0100
0000
0010
1000
0001
0000
1000
0000
0100
0010
0001
0000
,
0100
0000
0001
0000
0010
0000
0001
1000
0001
0000
0010
0000
0100
1000
0010
0000
,
0100
0000
0001
0000
1000
0000
0001
1000
0010
0000
0100
0000
0001
0100
0010
0000
,
1010
0000
0000
0000
1001
0000
0000
0000
0011
0000
0000
0000
0110
0000
0000
1100
,
0000
0000
0000
0000
0001
1000
0000
0001
1000
0000
0000
0010
0000
0000
0100
0000
,
0001
0010
0000
0010
0100
0000
0100
2000
0000
0000
0000
0000
0000
0000
0000
0000
,
3010
0000
0000
0000
1000
0100
0000
1000
0100
0000
0000
0010
0000
0000
0001
0000
,
0100
0010
0000
0010
1000
0000
1000
0002
0000
0000
0100
0000
0000
0100
0000
0000
,
1003
0000
0000
0000
0010
0000
0100
0001
1000
0000
0001
0000
0100
0000
0000
0000
,
0010
1000
0100
0010
0001
0000
0001
1000
,
0100
0000
1000
0010
1000
0001
0100
0000
,
0001
0000
0010
0000
0100
0000
0010
0000
0001
1000
0001
1000
0001
0000
0100
0000
,
0110
0000
0000
0000
1000
0010
1000
0010
1000
0000
0001
0000
0002
0000
0000
0000
,
0013
0100
0010
0100
0010
0000
0001
0000
0002
0000
0000
0000
1003
0000
0100
0000
,
0001
0000
0000
0000
0010
0001
0010
0001
0010
0000
0100
0000
0200
0000
0000
0000
,
1300
0010
1000
0010
1000
0000
0001
0000
0001
0000
0100
0000
0010
0000
1000
0000
,
0100
0000
1000
0000
0001
0100
0001
0100
0001
0000
0010
0000
0020
0000
0000
0000
,
0031
0000
0100
0010
1000
0000
0001
0000
0001
0000
1000
0100
1000
0000
0010
0000
,
0100
0000
0001
0000
0010
0100
0010
0100
1000
0000
0001
0000
0002
0000
0000
0000
,
1003
0100
0010
0100
1000
0000
0001
0000
0100
0001
0010
0001
0100
0000
0010
0000
,
1000
0000
0100
0000
0010
0001
0010
0001
1000
0000
0010
0000
0200
0000
0000
0000
,
0301
0100
0010
1000
0100
0000
0010
0000
0001
1000
0000
0001
0100
0000
0010
1000
,
0100
0000
0010
0000
0001
0100
0010
1000
0001
0000
1000
0000
2000
0000
0000
0000
,
3010
0100
0010
0100
0010
0000
1000
0000
0002
0000
1000
0000
1003
0000
0100
0000
,
0010
0000
0000
0000
0001
1000
0010
1000
0001
0000
0100
0000
0100
0000
0010
0000
,
1000
0100
1000
0100
0010
0000
0001
0000
0100
0000
0010
0000
1000
0000
0001
0000
,
0010
0000
0000
0000
0001
0100
0000
0100
0010
0000
1000
0001
1000
0000
0000
0000
,
0100
1000
0000
1000
0010
0000
0100
0000
0001
0000
0000
0000
0001
0000
0000
0000
,
1001
0000
0010
0000
1000
0000
0100
1000
0001
0000
0010
0000
0001
0100
0010
0000
,
1000
0000
0100
0000
0010
0000
0001
0100
0001
0000
0010
0000
0100
1000
0001
0000
,
1000
0000
0010
0000
0100
0000
0001
0010
0001
0000
1000
0000
0100
1000
0001
0000
,
0101
0000
0000
0000
1010
0000
0000
0000
1100
0000
0000
0000
1001
0000
0000
0110
,
0000
0000
0010
0000
1000
0000
0100
0010
0001
0000
0010
0000
0001
1000
0100
0000
,
0010
0000
0100
0000
1000
0000
0010
0100
0001
0000
0010
0000
0001
0100
1000
0000
,
0010
0000
1000
0000
0001
0000
0010
0001
0100
0000
0010
0000
1000
0100
1000
0000
,
1010
0000
0000
0000
0101
0000
0000
0000
0011
0000
0000
0000
1001
0000
0000
0110
,
0000
0000
1000
0010
0001
0010
1000
0010
,
0100
1000
0100
0001
0100
0000
0020
0000
,
1030
0000
0001
0010
1000
0010
0100
0010
,
1000
0000
0010
0000
0001
0000
0100
0000
0010
0000
0000
0000
0110
0000
0000
1001
;

//---------------dance-single - ----------------
#NOTES:
     dance-single:
     :
     Challenge:
     17:
     :
0000
0000
0000
0000
,
0001
0000
0000
0010
0100
0010
0100
0000
0000
1000
0010
1000
0100
0010
0001
0000
,
1001
0000
0010
1000
0100
0000
0110
0000
0000
0001
0000
1000
0010
0100
0010
0100
,
0010
0000
1000
0100
1000
0000
1100
0000
0000
0001
0010
0001
0100
0000
0010
1000
,
0001
0000
0010
0100
1000
0000
0110
0000
1001
0000
0010
0001
0100
0010
0000
1000
,
0001
0000
0000
0000
0011
0000
1100
0000
0000
0000
0000
0000
0010
0200
0000
0302
,
0000
0023
0000
0230
0000
2300
0000
3010
0100
0001
1000
0000
0100
0010
0000
0010
,
0001
0200
0000
0320
0000
2030
0000
3002
0000
0013
0001
0010
0200
1000
0000
1300
,
0001
0000
0010
0001
2000
0010
0000
3010
0000
0100
0100
0100
0100
0001
1000
0100
,
0010
0000
0001
0100
0001
0000
1010
0000
0000
0000
0010
1000
0100
2000
0000
3020
,
0000
2030
0000
3200
0000
0320
0000
0031
1000
0001
0100
0000
0010
2000
0000
3002
,
0000
0023
0000
0032
0000
2003
0000
3200
0000
1300
0001
0000
0010
0001
0010
0100
,
1000
0000
0010
0100
0001
0010
0001
1000
0100
1000
0001
0000
0100
0010
1000
0001
,
0010
1000
0010
0001
0100
0000
0000
0010
1000
0000
1000
0001
0000
0100
0001
0100
,
0010
0000
1000
0001
1000
0000
0100
0000
0010
0000
0001
0100
0000
0010
0000
1000
,
0100
0000
1000
0010
1000
0001
0010
0100
1000
0001
0000
0100
0000
0001
0000
0010
,
0100
0000
1000
0010
0100
0001
0100
0010
0000
0010
1000
0001
0000
1000
0000
0001
,
0010
0100
1000
0010
0100
0000
0001
1000
0001
0000
0010
0100
0000
1000
0001
0000
,
0100
0000
0010
1000
0001
1000
0100
0010
0001
0100
0000
0001
0000
1000
0000
0010
,
0100
0000
0000
0000
0001
0010
0001
0010
0100
0000
0000
0000
1000
0010
1000
0010
,
0100
0010
1000
0001
0100
0010
1000
0001
0010
0000
0001
0100
1000
0000
0000
0000
,
1001
0000
1100
0000
0101
0000
0010
0001
0100
0010
1000
0010
1000
0001
0100
0000
,
0110
0000
1010
0000
0101
0000
0010
0001
1000
0001
0010
0100
1000
0010
1000
0100
,
0010
0000
1001
0000
0110
0000
0001
0100
0010
1000
0100
1000
0010
0100
0001
0000
,
0010
0000
0001
1000
0001
0000
0100
0010
0100
0000
0001
1000
0010
1000
0010
0100
,
0001
0000
0011
0000
0101
0000
1000
0001
0010
0100
0010
0100
1000
0001
1000
0000
,
1100
0000
0110
0000
0011
0000
0100
0001
0010
0001
1000
0010
1000
0001
0100
0010
,
1000
0000
0110
0000
1100
0000
0010
0100
0010
0001
1000
0100
1000
0001
0010
0001
,
0100
0000
0001
0010
0001
0000
1000
0010
1000
0000
0100
0010
0100
1000
0001
1000
,
0010
0100
0001
0000
1000
0100
0000
0100
0010
0000
0010
0001
0000
0001
0100
0000
,
0100
0010
0000
0010
1000
0000
1000
0001
0100
0000
0010
0000
0010
0000
0010
0000
,
2000
0000
0000
0000
3010
1000
0000
1000
0001
0000
0001
0010
0000
0010
0100
0000
,
0100
0010
0000
0010
0001
0000
0001
1000
0000
0000
1010
0000
0000
1100
0000
0000
,
1010
0000
0000
0000
0010
0100
0001
0100
0010
1000
0001
1000
0200
0000
0000
0000
,
0310
0001
0000
0001
1000
0000
1000
0010
0001
0010
1000
0000
1100
0000
0100
0000
,
0110
0000
0000
0010
0001
0100
0001
0010
0100
1000
0001
1000
0200
0000
0000
0000
,
0301
0100
1000
0010
0100
0001
0000
1000
0010
0100
0010
0100
0001
1000
0010
0100
,
0010
1000
0001
0000
1000
0100
0001
0100
1000
0000
1001
0000
0201
0000
0000
0000
,
0310
0001
0010
1000
0100
0000
1010
0000
0011
0000
1000
0000
1000
0001
0100
0010
,
1000
0100
0010
0000
0001
0100
1000
0100
0001
1000
0010
0000
0100
0001
1000
0000
,
0010
0100
0010
0100
0010
0000
1000
0001
0010
0100
1000
0010
1000
0001
1000
0001
,
0010
0100
1000
0100
0010
0001
1000
0100
0010
0001
1000
0001
0100
0000
0000
0010
,
1000
1000
0000
0100
0010
0001
0100
0001
0010
0100
1000
0010
1000
0001
0100
0010
,
1000
0001
0010
0100
0010
0001
0100
1000
0100
0001
0010
0100
1000
0000
0000
0100
,
1000
0010
0100
0010
1000
0001
0100
0000
0001
0010
0001
1000
0001
0100
0010
1000
,
0100
1000
0001
1000
0010
0100
0010
0001
0010
1000
0100
0010
0001
0000
0100
0001
,
1000
0010
0100
0010
1000
0100
0010
0001
0100
0010
0000
0010
1000
0001
1000
0100
,
0010
0001
0010
0001
1000
0100
1000
0100
0001
0000
0010
0001
0100
0000
0010
1000
,
0001
0010
0001
1000
0001
1000
0100
0010
0001
0100
0020
0000
1030
0100
0020
0000
,
0031
0100
0001
0100
0010
1000
0010
1000
0001
0100
1000
0100
0001
0000
0000
0010
,
0100
0000
0000
1000
0000
0000
0100
0000
0000
1000
0000
0000
0010
0000
0000
0100
0000
0000
0010
0000
0000
1000
0000
0000
0100
0000
0000
0010
0000
0000
0001
0000
0000
0000
0000
0000
1000
0000
0000
0000
0001
0000
0000
0000
0100
0000
0000
0000
,
0010
0000
1000
0001
1000
0100
0000
0100
0010
0000
0010
0001
1000
0001
0100
0000
,
0001
0010
0100
0010
0001
0000
0101
0000
1010
0000
0000
0000
0100
0000
0000
0000
,
1001
0000
0011
0000
1100
0000
0010
1000
0100
0010
0100
1000
0001
0010
0001
1000
,
0001
0000
0110
0000
1010
0000
0100
1000
0010
1000
0100
0010
0001
1000
0001
0010
,
0100
0000
1001
0000
0011
0000
1000
0001
1000
0010
0100
0010
0100
0001
0010
0100
,
1000
0010
1000
0000
0001
0010
0001
0000
1000
0100
1000
0000
0001
0100
0010
1000
,
0001
0000
0011
0000
1100
0000
0010
1000
0010
0100
0010
1000
0100
0010
0001
1000
,
0001
0000
1100
0000
1001
0000
0010
0100
0010
1000
0001
1000
0100
1000
0001
0010
,
0001
0000
1010
0000
1100
0000
0100
0010
0001
1000
0010
1000
0100
0010
0001
1000
,
0001
0100
0001
0000
1000
0010
1000
0000
0001
0010
0001
0000
1000
0100
0010
0001
,
0100
0000
0010
1000
0010
0100
0000
0100
0001
0000
0001
0010
0000
0010
0100
0000
,
0100
1000
0000
1000
0010
0000
0010
0100
0001
1000
0001
0000
0010
0001
0010
0100
,
1000
0000
0000
0000
0001
0010
0000
0010
0100
0000
0100
0010
0000
0010
0001
0000
,
0001
1000
0000
1000
0010
0000
0010
1000
0100
0010
0001
0000
1000
0001
1000
0001
,
1001
0000
0000
0000
;
