#TITLE:Hydrasound;
#ARTIST:GEOMANCER;
#BANNER:Hydrasound.png;
#BACKGROUND:Hydrasound-bg.png;
#JACKET:Hydrasound-jacket.png;
#MUSIC:Hydrasound.ogg;
#SAMPLESTART:44.959;
#SAMPLELENGTH:20;
#DISPLAYBPM:144;
#BPMS:0=144;
#BGCHANGES:;

//---------------dance-single - ----------------
#NOTES:
     dance-single:
     :
     Beginner:
     3:
     :
0000
0000
0000
0000
,
0000
0000
0000
0000
,
0000
0000
0000
0000
,
0000
0000
0000
0000
,
0000
0000
0000
0000
,
1000
0000
0000
0000
,
0100
0000
0000
0000
,
0001
0000
0000
0000
,
0010
0000
0100
0000
,
0010
0000
0000
0000
,
0001
0000
0000
0000
,
0100
0000
0000
0000
,
1000
0000
0010
0000
,
1000
0000
0000
0000
,
0100
0000
0000
0000
,
0001
0000
0000
0000
,
0010
0000
0100
0000
,
0010
0000
0100
0000
,
0010
0000
0100
0000
,
1000
0000
0001
0000
,
1000
0000
0001
0000
,
0100
0000
0010
0000
,
0100
0000
0010
0000
,
2000
0000
3000
0000
,
1000
0000
1000
0000
,
1001
0000
0000
0000
,
0000
0000
0000
0000
,
0100
0000
1000
0000
,
0100
0000
1000
0000
,
0001
0000
0010
0000
,
0001
0000
0010
0000
,
0001
0000
0100
0000
,
0001
0000
0100
0000
,
0000
0010
0000
1000
,
0000
0100
0000
0000
,
0000
0010
0000
0001
,
0000
0100
0000
0001
,
0000
0010
0000
0100
,
0000
1000
0000
0000
,
0000
0010
0000
0100
,
0000
0001
0000
0000
,
2000
0000
3000
0000
,
1000
0000
1000
0000
,
0002
0000
0003
0000
,
0001
0000
0001
0000
,
0200
0000
0300
0000
,
0100
0000
0100
0000
,
0020
0000
0030
0000
,
0110
0000
0000
0000
,
0000
1000
0000
0010
,
0000
0100
0000
0000
,
0000
0001
0000
0010
,
0000
0100
0000
0100
,
0000
0010
0000
0001
,
0000
1000
0000
0000
,
0000
0010
0000
1000
,
0000
0001
0000
1000
,
1000
0000
0000
0000
;

//---------------dance-single - ----------------
#NOTES:
     dance-single:
     :
     Easy:
     5:
     :
0000
0000
0000
0000
,
0000
0000
0000
0000
,
0000
0000
0000
0000
,
0000
0000
0000
0000
,
0000
0000
0000
0000
,
0000
1000
0000
0100
,
0000
0010
0000
0001
,
0000
1000
0000
0001
,
1001
0000
0000
0000
,
1000
2000
0000
3000
,
0001
0002
0000
0003
,
0100
0000
0010
0000
,
1000
0001
1000
0000
,
0100
0200
0000
0300
,
0010
0020
0000
0030
,
0001
0000
1000
0000
,
0010
0100
0010
0000
,
0000
1000
0000
0001
,
0100
0010
0000
1000
,
0000
0010
0000
0100
,
0001
0100
0000
0010
,
0000
1000
0000
0100
,
0010
0001
0000
0010
,
0000
0100
0000
1000
,
0100
1000
0000
0010
,
0220
0000
0000
0000
,
0330
0000
0000
0000
,
1000
0000
0100
0000
,
1000
0000
0010
0000
,
1000
0000
0100
0000
,
0010
0000
0001
0000
,
0100
0000
0001
0000
,
0010
0000
0002
0003
,
1000
0000
0010
0000
,
0100
0000
0100
0000
,
0001
0000
0010
0000
,
0100
0000
0100
0000
,
0000
1000
0000
0010
,
0000
0100
0000
0100
,
0000
0001
0000
0010
,
0000
0100
0000
0100
,
1000
0010
0000
0001
,
0000
0010
0000
1000
,
0001
0010
0000
1000
,
0000
0010
0000
0001
,
1000
0100
0000
0001
,
0000
0100
0000
1000
,
0001
0100
0000
1000
,
0000
0200
0000
0300
,
0010
1000
0000
0000
,
0001
0100
0000
0000
,
0010
0000
1000
0000
,
0100
0000
0100
0000
,
1000
0000
1000
0000
,
0001
0000
0001
0000
,
0100
0000
0100
0000
,
0010
0100
0001
1000
,
1001
0000
0000
0000
;

//---------------dance-single - ----------------
#NOTES:
     dance-single:
     :
     Medium:
     9:
     :
0000
0000
0000
0000
,
0000
0000
0000
0000
,
0000
0000
0000
0000
,
0000
0000
0000
0000
,
0000
0000
0000
0000
,
0010
0001
1000
0000
,
0001
0000
1000
0000
,
0010
1000
0001
0000
,
0110
0000
0220
0330
,
0110
1000
0001
1000
,
0010
0000
1000
0000
0001
0100
0001
0000
,
0010
0001
1000
0001
,
0010
0000
0001
0000
1000
0100
1000
0000
,
0001
0010
0100
0010
,
0001
0000
0010
0000
0100
1000
0100
0000
,
1000
0010
0100
0010
,
1000
0000
0001
0000
0100
0001
0100
0000
,
0010
1000
0001
0000
0010
0000
0010
0000
,
1000
0001
1000
0000
1001
0000
0000
0000
,
0010
0001
1000
0000
0010
0000
0010
0000
,
0001
1000
0001
0000
1001
0000
0000
0000
,
1000
0010
0100
0000
0001
0000
0001
0000
,
0010
0100
0010
0000
0110
0000
0000
0000
,
0001
0010
0100
0000
1000
0000
1000
0000
,
0010
0100
0010
0000
0020
0000
0030
0000
,
1001
0000
0000
0010
0000
0000
0000
0000
,
0000
0000
0000
0000
0000
0001
0100
0001
,
0101
0101
0010
1000
,
0100
1000
0100
0000
0010
0001
0010
0001
,
0010
0000
0001
0000
1000
0100
1000
0000
,
0010
0000
0001
0000
0100
0001
0100
0001
,
0100
0000
0010
0000
0100
0010
0100
0000
,
0010
0000
1000
0000
0001
1000
0001
1000
,
0001
0000
0010
0000
0001
0001
0001
0000
,
0100
0000
0010
0000
1000
0100
1000
0010
,
1000
0000
0001
0000
1000
1000
1000
0000
,
0100
0000
0010
0000
0001
0100
0001
0010
,
0001
0000
0100
0000
0010
0010
0010
0000
,
1000
0000
0001
0000
1000
0010
1000
0100
,
1000
0000
0001
0000
0100
0100
0100
0000
,
0010
0000
0100
0000
0010
1000
0010
0001
,
0010
0000
1000
0000
0001
0100
0001
0000
,
1000
0010
1000
0000
0001
0010
0001
0000
,
1000
0100
1000
0000
0010
1000
0010
0000
,
0100
0001
0100
0000
0010
0001
0010
0000
,
0100
1000
0100
0000
0010
0100
0010
0000
,
0100
0010
0100
0000
0001
1000
0001
0000
,
0010
1000
0001
0100
,
0001
0100
0001
0100
0010
0100
0010
0100
,
0110
0010
0001
1000
,
0100
0010
1000
0010
,
0001
1000
0100
0010
,
0001
0100
0010
0001
,
1000
0100
0001
0100
,
1000
0010
0100
0001
,
0010
1000
0001
0100
,
0010
1000
0100
0000
0010
0001
0100
0000
,
1001
0000
0000
0000
;

//---------------dance-single - ----------------
#NOTES:
     dance-single:
     :
     Hard:
     12:
     :
0000
0000
0000
0000
,
0000
0000
0000
0000
,
0000
0000
0000
0000
,
0000
0000
0000
0000
,
0000
0000
0000
0000
,
0001
0000
1000
0000
0010
1000
0100
0000
,
1000
0100
0010
0000
0001
0010
0100
0000
,
1000
0000
0001
0000
0010
0001
0100
0000
,
0101
1010
1001
0011
,
0001
0100
1000
0000
1000
0100
0001
0000
,
0001
0010
0100
1000
0010
0100
0001
0000
,
1000
0100
0001
0000
0001
0100
1000
0000
,
1000
0010
0100
0001
0010
0100
1000
0000
,
0001
0010
1000
0000
0010
0001
0100
0000
,
0001
0100
0001
0100
0001
0100
0001
0000
,
1000
1000
0100
0000
0001
0001
0010
0000
,
1001
1100
0101
1001
,
1000
0100
0000
0100
1000
0000
0000
0000
0010
0000
0000
0000
0100
0000
0000
0000
,
0001
0100
0000
0100
0001
0000
0000
0000
0010
0000
0100
0000
1000
0000
0000
0000
,
0010
0100
0000
0100
0010
0000
0000
0000
0100
0000
0000
0000
0001
0000
0000
0000
,
1000
0010
1000
0100
0010
0100
1000
0000
,
0001
0100
0000
0100
0001
0000
0000
0000
1001
0000
0000
0000
0100
0000
0000
0000
,
1000
0001
0000
0001
1000
0000
0000
0000
0010
0000
0100
0000
0001
0000
0000
0000
,
1000
0100
0000
0100
1000
0000
0000
0000
0100
0000
0000
0000
0010
0000
0000
0000
,
0001
1000
0101
1100
,
0220
0000
0000
0000
,
0330
0000
0000
0000
0000
0000
1000
0000
0001
1000
0000
0100
0000
0000
0010
0000
,
0001
0000
0000
0000
0000
0000
0100
0000
0010
0000
0000
1000
0000
0000
0001
0000
,
0000
0000
0000
0000
0000
0000
0100
0000
0001
0100
0000
0010
0000
0000
0100
0000
,
1000
0000
0000
0000
0000
0000
0100
0000
0010
0000
0000
1000
0000
0000
0001
0000
,
0000
0000
0000
0000
0000
0000
1000
0000
0001
0100
0000
0010
0000
0000
0100
0000
,
0001
0000
0000
0000
0000
0000
0010
0000
0100
0000
0000
1000
0000
0000
0001
0000
,
0000
0000
0000
0000
0000
0000
1000
0000
0100
0010
0000
0001
0000
0000
1000
0000
,
0100
0010
0001
0010
0001
0010
0001
1000
,
0001
0000
0010
0000
0100
0000
1000
0000
0010
1000
0000
0010
0000
0000
0100
0000
,
0001
0010
0100
1000
0100
1000
0100
1000
,
0100
0000
0010
0000
0001
0000
0100
0000
0010
1000
0000
0001
0000
0000
1000
0000
,
0001
0100
0010
1000
0010
1000
0010
1000
,
0010
0000
0100
0000
0001
0000
0010
0000
0100
1000
0000
0100
0000
0000
0010
0000
,
0001
0000
0000
0000
0000
0000
1000
0000
0001
0000
0000
0100
0000
0000
0001
0000
,
0000
0000
0000
0000
0000
0000
0010
0000
0100
1000
0000
0001
0000
0000
1000
0000
,
0010
0000
0100
0000
0000
0010
0000
0000
1000
0000
0000
0001
0000
0000
1000
0000
,
0000
0000
0001
1000
0000
0100
0000
0000
0010
0001
0000
0100
0000
0000
1000
0000
,
0100
0000
0001
0000
0000
0010
0000
0000
0001
0000
0000
1000
0000
0000
0100
0000
,
0000
0010
0000
0010
0000
0010
0000
0000
0001
0100
0000
0001
0000
0000
1000
0000
,
0000
0000
0100
0000
0000
1000
0000
0000
0001
0000
0000
1000
0000
0000
0010
0000
,
0000
0000
0100
0010
0000
0100
0000
0000
0010
1000
0000
0001
0000
0000
1000
0000
,
0010
0000
1000
0000
0000
0100
0000
0000
0010
0000
0000
0001
0000
0000
0200
0000
,
0000
0000
0000
0000
0000
0300
0000
0000
,
1000
0000
1100
0000
0001
0010
0100
1000
,
0100
0010
0001
0010
0100
1000
0100
0000
,
1000
0010
0100
0001
0100
0010
1000
0010
,
0100
0001
0100
0010
1000
0000
1001
0000
,
0010
1000
0101
0000
0100
0001
1100
0000
,
1000
0100
0110
0000
0001
0100
0110
0000
,
2002
0000
0000
0000
0000
3003
0000
0000
,
1001
0000
0000
0000
0000
0000
0000
0000
0001
0010
0100
1000
0100
0010
0001
1000
,
0100
0000
0000
0000
;

//---------------dance-single - ----------------
#NOTES:
     dance-single:
     :
     Challenge:
     16:
     :
0000
0000
0000
0000
,
0000
0000
0000
0000
,
0000
0000
0000
0000
,
0000
0000
0000
0000
,
0000
0000
0000
0000
,
0001
0010
0100
0000
0200
0000
0000
0000
0000
1300
0000
0001
0000
1000
0010
0000
,
0100
0001
0010
0000
0000
0001
1000
0000
0000
0010
1000
0100
0000
0000
0000
0000
,
1000
0001
0100
0000
0200
0000
0000
0000
0000
0310
0000
1000
0010
0000
0100
0001
,
0000
1000
0100
0000
0010
0001
0000
0100
0010
0000
1000
0001
0000
1000
0100
0000
,
0010
0001
1000
0000
2000
0000
0000
0000
3010
0100
0010
0100
0001
0000
1000
0000
,
0100
1000
0000
0001
0100
0000
0020
0000
0000
2030
0000
0000
3001
0000
0010
0000
,
0001
1000
0000
0001
0010
0000
0100
0000
1000
0010
0000
0100
0001
0000
1000
0000
,
0010
1000
0010
0100
0010
1000
0002
0000
0000
0103
0000
0001
1000
0000
0100
0000
,
0010
0001
1000
0000
1000
0000
0010
0100
0000
0010
0100
0000
0001
1000
0001
0100
,
0020
0000
0000
2030
0000
0000
3200
0000
0000
1300
0010
0100
0001
0000
1000
0000
,
0010
0100
0001
0000
0001
0000
0010
0100
0000
0100
1000
0000
0001
0000
0100
0000
,
0020
0000
0000
2030
0000
0000
3002
0000
0000
1003
0100
0010
0001
0000
0000
0000
,
0010
0100
0010
0100
0000
1000
0001
1000
0000
0001
0100
0010
1000
0000
0001
0100
,
0001
0010
0000
0010
0001
1000
0000
0010
1000
0100
0000
0100
1000
0001
0000
0000
,
0100
0010
0000
0100
0010
0000
0100
0010
0000
1000
0001
1000
0001
1000
0010
0100
,
0001
1000
0000
1000
0100
0010
0000
0010
0001
0100
0000
0100
0010
1000
0001
0100
,
0010
1000
0000
1000
0010
0000
0100
0001
0010
0000
0001
0010
0100
0000
1000
0000
,
0010
0100
0010
1000
0100
0010
0100
1000
0001
0100
0000
0001
0100
0000
0010
1000
,
0001
0010
0000
0100
1000
0000
0010
0100
0000
0001
1000
0000
0001
0010
0100
1000
,
0000
0010
0100
0010
1000
0001
0000
1000
0100
0010
0001
0100
0010
0000
0000
0000
,
1010
0000
0000
0001
0000
0000
0100
0000
1000
0000
0000
0010
0000
0000
0001
0000
,
0000
0000
0000
0000
0000
0000
0100
0000
0010
1000
0010
1000
0010
1000
0010
1000
,
0001
0010
0000
0001
1000
0000
0010
0000
0100
0000
0000
0001
0000
1000
0000
0010
,
0000
0000
0100
0000
0010
1000
0100
0000
1000
0001
0000
0001
0010
0001
0100
0000
,
0010
1000
0000
0001
1000
0100
0010
0000
0001
0000
0100
0010
0000
1000
0001
0000
,
0010
0001
0000
1000
0100
0000
0010
0000
0001
1000
0000
0100
1000
0001
0100
0000
,
0010
1000
0010
1000
0001
0100
0001
0100
0010
0001
0010
0001
1000
0100
1000
0100
,
1000
0001
1000
0001
0100
0010
0100
0010
1000
0010
0000
0100
0001
1000
0001
0000
,
0010
0100
1000
0010
0100
0001
1000
0000
0010
0000
0100
0001
0000
0001
1000
0000
,
0100
0010
0001
0000
1000
0010
0100
0000
0001
1000
0000
0010
1000
0000
0100
0000
,
0010
0001
0000
0100
0010
1000
0001
0000
1000
0000
0100
0010
0000
0001
1000
0100
,
0000
0010
0001
0000
0100
0010
1000
0000
0001
1000
0000
0100
1000
0001
0010
0000
,
0001
0100
0010
0100
0010
1000
0001
0000
1000
0100
1000
0001
0000
0100
0010
0000
,
1000
0001
0100
0001
0010
0001
1000
0000
0010
0100
0010
1000
0001
0000
0100
0000
,
0001
0010
0100
1000
0010
0100
0001
0000
1000
0100
1000
0001
0000
0010
0000
0010
,
0000
0001
1000
0000
0010
1000
0100
0000
0010
0001
0000
0001
0100
0010
1000
0000
,
0001
1000
0100
0000
1000
0001
0100
0000
0010
1000
0010
0100
0000
0001
1000
0000
,
0100
0010
0001
0000
1000
0001
0100
0000
0010
1000
0000
0010
1000
0001
0100
0000
,
0001
0010
0001
0000
1000
0010
1000
0100
0010
0001
1000
0001
0000
0100
0000
0010
,
0000
0101
0000
1100
0000
0001
0100
0000
0010
1000
0000
0100
0010
0001
1000
0000
,
0010
1000
0010
0100
0010
1000
0001
0000
0100
0001
1000
0001
0000
0100
0010
0000
,
1000
0100
0010
0000
0001
0100
0010
0000
1000
0001
1000
0010
0100
0000
0001
0000
,
0010
0100
1000
0000
0010
1000
0010
0100
0001
1000
0001
0100
0000
0001
0000
1000
,
0100
0010
0000
0010
0001
1000
0001
0000
0100
0010
0000
1000
0100
1000
0001
0000
,
0010
0001
0000
0100
0010
1000
0001
0000
1000
0100
0000
0100
0010
0001
1000
0000
,
0002
0000
0000
0203
0000
0000
0320
0000
0000
2030
0000
0000
3100
0000
0010
0000
,
0100
1000
0010
1000
0100
0010
0001
0000
1000
0001
0000
0001
0100
0000
0010
0000
,
2000
0000
0000
3002
0000
0000
2003
0000
0000
3010
0000
0010
0100
0000
0001
0000
,
0010
0100
0000
1000
0000
0000
0001
0000
0000
1000
0000
0000
0001
0000
0100
0000
,
0010
1000
0000
0010
1000
0000
0002
0000
0000
0103
0000
0010
0100
0000
0001
0000
,
1000
0100
0010
0001
0010
0100
1000
0000
0001
0100
0001
0100
0010
1000
0010
1000
,
0100
1000
0100
1000
0001
0010
0001
0010
0100
0010
0100
0010
0001
1000
0001
1000
,
0001
0000
0000
0000
;

//---------------dance-double - ----------------
#NOTES:
     dance-double:
     :
     Easy:
     5:
     :
00000000
00000000
00000000
00000000
,
00000000
00000000
00000000
00000000
,
00000000
00000000
00000000
00000000
,
00000000
00000000
00000000
00000000
,
00000000
00000000
00000000
00000000
,
00000000
00000100
00000000
00001000
,
00000000
00010000
00000000
00100000
,
00000000
00010000
00000000
00001000
,
00011000
00000000
00000000
00000000
,
01000000
01000000
00000000
00000000
,
10000000
10000000
00000000
00000000
,
00100000
00000000
01000000
00000000
,
00100000
00010000
00100000
00000000
,
00010000
00010000
00000000
00000000
,
00001000
00001000
00000000
00000000
,
00000100
00000000
00000010
00000000
,
00001000
00000100
00001000
00000000
,
00000000
00000001
00000000
00000010
,
00000001
00000100
00000000
00000001
,
00000000
00000010
00000000
00000100
,
00001000
00000010
00000000
00001000
,
00000000
00000100
00000000
00010000
,
00001000
00010000
00000000
00001000
,
00000000
00010000
00000000
00001000
,
00100000
00010000
00000000
10000000
,
20020000
00000000
00000000
00000000
,
30030000
00000000
00000000
00000000
,
00100000
00000000
00010000
00000000
,
10000000
00000000
00100000
00000000
,
01000000
00000000
00001000
00000000
,
00100000
00000000
00001000
00000000
,
00010000
00000000
00000100
00000000
,
00001000
00000000
00000020
00000030
,
00000100
00000000
00000001
00000000
,
00001000
00000000
00001000
00000000
,
00000100
00000000
00000010
00000000
,
00000001
00000000
00000001
00000000
,
00000000
00001000
00000000
00000100
,
00000000
00010000
00000000
00001000
,
00000000
01000000
00000000
00010000
,
00000000
10000000
00000000
00100000
,
01000000
00100000
00000000
01000000
,
00000000
00010000
00000000
00100000
,
00001000
00100000
00000000
00010000
,
00000000
01000000
00000000
00001000
,
00010000
00001000
00000000
00000100
,
00000000
00000010
00000000
00001000
,
00000001
00001000
00000000
00000100
,
00000000
00000020
00000000
00000030
,
00000001
00001000
00000000
00000000
,
00000010
00000100
00000000
00000000
,
00000001
00000000
00001000
00000000
,
00000100
00000000
00010000
00000000
,
00001000
00000000
00100000
00000000
,
00010000
00000000
00010000
00000000
,
10000000
00000000
10000000
00000000
,
00100000
01000000
00010000
10000000
,
10010000
00000000
00000000
00000000
;

//---------------dance-double - ----------------
#NOTES:
     dance-double:
     :
     Medium:
     9:
     :
00000000
00000000
00000000
00000000
,
00000000
00000000
00000000
00000000
,
00000000
00000000
00000000
00000000
,
00000000
00000000
00000000
00000000
,
00000000
00000000
00000000
00000000
,
00001000
00010000
00000010
00000000
,
00010000
00000000
00001000
00000000
,
00010000
00001000
00100000
00000000
,
01100000
00000000
02200000
03300000
,
01100000
10000000
01000000
00010000
,
00001000
00000000
00010000
00000000
00000010
00001000
00000010
00000000
,
00001000
00000001
00000100
00001000
,
00010000
00000000
00001000
00000000
00100000
00010000
00100000
00000000
,
00010000
10000000
00100000
00010000
,
00001000
00000000
00010000
00000000
00000100
00001000
00000100
00000000
,
00001000
00000010
00000100
00000001
,
00000100
00000000
00001000
00000000
00010000
00001000
00010000
00000000
,
00100000
00010000
00100000
00000000
10000000
00000000
10000000
00000000
,
00010000
10000000
00010000
00000000
10010000
00000000
00000000
00000000
,
00100000
10000000
01000000
00000000
00010000
00000000
00010000
00000000
,
00001000
00010000
00001000
00000000
00011000
00000000
00000000
00000000
,
00000010
00001000
00000100
00000000
00000010
00000000
00000010
00000000
,
00000001
00001000
00000001
00000000
00001001
00000000
00000000
00000000
,
00000100
00001000
00010000
00000000
00001000
00000000
00001000
00000000
,
01000000
00010000
01000000
00000000
00200000
00000000
00300000
00000000
,
10010000
00000000
00000000
10000000
00000000
00000000
00000000
00000000
,
00000000
00000000
00000000
00000000
00000000
00001000
00010000
00001000
,
00011000
00011000
00001000
00000100
,
00000001
00000100
00000001
00000000
00001000
00000010
00001000
00000010
,
00001000
00000000
00000001
00000000
00000100
00000010
00000100
00000000
,
00001000
00000000
00010000
00000000
00001000
00010000
00001000
00010000
,
00001000
00000000
00100000
00000000
01000000
00100000
01000000
00000000
,
10000000
00000000
00010000
00000000
00100000
01000000
00100000
01000000
,
00100000
00000000
00001000
00000000
00010000
00010000
00010000
00000000
,
00000010
00000000
00001000
00000000
00000001
00000100
00000001
00001000
,
00000001
00000000
00001000
00000000
00000100
00000100
00000100
00000000
,
00010000
00000000
00001000
00000000
00100000
00010000
00100000
01000000
,
00100000
00000000
00010000
00000000
10000000
10000000
10000000
00000000
,
01000000
00000000
00010000
00000000
00001000
00000100
00001000
00010000
,
00001000
00000000
00010000
00000000
00000010
00000010
00000010
00000000
,
00000100
00000000
00000001
00000000
00000010
00000100
00000010
00000001
,
00000100
00000000
00000010
00000000
00001000
00000100
00001000
00000000
,
00000100
00001000
00000100
00000000
00010000
00001000
00010000
00000000
,
00001000
00010000
00001000
00000000
00100000
00010000
00100000
00000000
,
00010000
00100000
00010000
00000000
10000000
01000000
10000000
00000000
,
01000000
10000000
01000000
00000000
00100000
01000000
00100000
00000000
,
01000000
00100000
01000000
00000000
00010000
01000000
00010000
00000000
,
10000000
01000000
00010000
00001000
,
00000100
00000010
00000100
00000010
00001000
00000001
00001000
00000001
,
00001001
00000001
00000100
00001000
,
00000001
00000010
00001000
00000100
,
00010000
00001000
00100000
00010000
,
01000000
00100000
10000000
01000000
,
00010000
00001000
00000010
00000100
,
00001000
00000010
00000100
00000001
,
00000100
00001000
00010000
01000000
,
10000000
00100000
01000000
00000000
00010000
00100000
01000000
00000000
,
01100000
00000000
00000000
00000000
;

//---------------dance-double - ----------------
#NOTES:
     dance-double:
     :
     Hard:
     12:
     :
00000000
00000000
00000000
00000000
,
00000000
00000000
00000000
00000000
,
00000000
00000000
00000000
00000000
,
00000000
00000000
00000000
00000000
,
00000000
00000000
00000000
00000000
,
00000010
00000000
00001000
00000000
00000100
00010000
00001000
00000000
,
00100000
01000000
10000000
00000000
00010000
00100000
00001000
00000000
,
00010000
00000000
00000100
00000000
00001000
00000010
00000100
00000000
,
00000110
00000011
00001100
00011000
,
00010000
00001000
00100000
00000000
00010000
01000000
00100000
00000000
,
10000000
00010000
00100000
01000000
00100000
00010000
01000000
00000000
,
00100000
01000000
00001000
00000000
00010000
00000100
00001000
00000000
,
00000010
00001000
00000100
00000010
00000100
00001000
00000010
00000000
,
00000100
00000001
00000010
00000000
00000001
00000100
00000010
00000000
,
00010000
00001000
00010000
00001000
00010000
00001000
00010000
00000000
,
00000100
00000100
00010000
00000000
00001000
00001000
00100000
00000000
,
00011000
00110000
11000000
10010000
,
00100000
01000000
00000000
01000000
00010000
00000000
00000000
00000000
00100000
00000000
00000000
00000000
01000000
00000000
00000000
00000000
,
10000000
01000000
00000000
01000000
00100000
00000000
00000000
00000000
00001000
00000000
00010000
00000000
00000100
00000000
00000000
00000000
,
00001000
00000100
00000000
00000100
00001000
00000000
00000000
00000000
00000010
00000000
00000000
00000000
00000100
00000000
00000000
00000000
,
00000001
00000100
00001000
00000100
00000001
00000010
00000100
00000000
,
00001000
00000100
00000000
00000100
00010000
00000000
00000000
00000000
00001000
00000000
00000000
00000000
00100000
00000000
00000000
00000000
,
01000000
10000000
00000000
10000000
00100000
00000000
00000000
00000000
10000000
00000000
01000000
00000000
10000000
00000000
00000000
00000000
,
01000000
00100000
00000000
00100000
00010000
00000000
00000000
00000000
00100000
00000000
00000000
00000000
00001000
00000000
00000000
00000000
,
00010000
00000100
00001100
00000110
,
00000022
00000000
00000000
00000000
,
00000033
00000000
00000000
00000000
00000000
00000000
00000001
00000000
00001000
00000010
00000000
00000100
00000000
00000000
00000010
00000000
,
00010000
00000000
00000000
00000000
00000000
00000000
00001000
00000000
00100000
00000000
00000000
00010000
00000000
00000000
01000000
00000000
,
00000000
00000000
00000000
00000000
00000000
00000000
00100000
00000000
10000000
01000000
00000000
00100000
00000000
00000000
00010000
00000000
,
01000000
00000000
00000000
00000000
00000000
00000000
00001000
00000000
00010000
00000000
00000000
00000100
00000000
00000000
00001000
00000000
,
00000000
00000000
00000000
00000000
00000000
00000000
00000010
00000000
00001000
00000100
00000000
00001000
00000000
00000000
00000010
00000000
,
00000100
00000000
00000000
00000000
00000000
00000000
00000001
00000000
00000010
00000000
00000000
00000100
00000000
00000000
00001000
00000000
,
00000000
00000000
00000000
00000000
00000000
00000000
00000100
00000000
00010000
00001000
00000000
00100000
00000000
00000000
00010000
00000000
,
00100000
01000000
10000000
01000000
00010000
00001000
00000010
00000001
,
00001000
00000000
00000100
00000000
00001000
00000000
00000010
00000000
00000100
00000001
00000000
00001000
00000000
00000000
00000100
00000000
,
00001000
00000010
00000100
00001000
00010000
00100000
01000000
10000000
,
01000000
00000000
00010000
00000000
00100000
00000000
01000000
00000000
10000000
00100000
00000000
01000000
00000000
00000000
00010000
00000000
,
10000000
01000000
00100000
00001000
00010000
00000100
00000010
00000001
,
00000100
00000000
00000010
00000000
00000001
00000000
00000010
00000000
00000100
00000010
00000000
00001000
00000000
00000000
00000100
00000000
,
00010000
00000000
00000000
00000000
00000000
00000000
00001000
00000000
01000000
00000000
00000000
00100000
00000000
00000000
10000000
00000000
,
00000000
00000000
00000000
00000000
00000000
00000000
01000000
00000000
10000000
00100000
00000000
10000000
00000000
00000000
00010000
00000000
,
00100000
00000000
00001000
00000000
00000000
00010000
00000000
00000000
00000100
00000000
00000000
00001000
00000000
00000000
00000001
00000000
,
00000000
00000000
00000010
00000100
00000000
00000010
00000000
00000000
00000001
00000100
00000000
00000010
00000000
00000000
00001000
00000000
,
00000100
00000000
00010000
00000000
00000000
00001000
00000000
00000000
00010000
00000000
00000000
00000100
00000000
00000000
00001000
00000000
,
00000000
00000010
00000000
00000010
00000000
00000010
00000000
00000000
00000100
00000001
00000000
00001000
00000000
00000000
00000100
00000000
,
00000000
00000000
00010000
00000000
00000000
00001000
00000000
00000000
00100000
00000000
00000000
00010000
00000000
00000000
00100000
00000000
,
00000000
00000000
01000000
00100000
00000000
00010000
00000000
00000000
01000000
00100000
00000000
10000000
00000000
00000000
01000000
00000000
,
00100000
00000000
00010000
00000000
00000000
01000000
00000000
00000000
00100000
00000000
00000000
01000000
00000000
00000000
00002000
00000000
,
00000000
00000000
00000000
00000000
00000000
00003000
00000000
00000000
,
00010000
00000000
00011000
00000000
00000010
00001000
00000100
00000010
,
00000001
00000100
00000010
00001000
00000100
00010000
00001000
00000000
,
00100000
00010000
01000000
00100000
10000000
01000000
10000000
00010000
,
01000000
00100000
10000000
00000000
00010000
00000000
00110000
00000000
,
00001000
00100000
00011000
00000000
00010000
00000100
00001010
00000000
,
00000100
00000001
00000011
00000000
00000100
00001000
00011000
00000000
,
00022000
00000000
00000000
00000000
00000000
00033000
00000000
00000000
,
00000110
00000000
00000000
00000000
00000000
00000000
00000000
00000000
00000010
00001000
00000100
00000010
00000001
00000010
00000100
00001000
,
00000001
00000000
00000000
00000000
;
